This file was generated by Ched 2.7.0.0.
#TITLE ""
#ARTIST ""
#DESIGNER ""
#DIFFICULTY 0
#PLAYLEVEL
#SONGID ""
#WAVE ""
#WAVEOFFSET 0
#JACKET ""
#REQUEST "ticks_per_beat 480"
#00002: 4
#BPM01: 113
#00008: 01
#TIL00: ""
#VOLUME: ""
#HISPEED 00
#MEASUREHS 00
#0011a:1414
#00114:00140000
#00212:1414
#00218:00140000
#0031a:1414
#00314:00140000
#00412:1414
#00418:00140000
#0091a:14
#00914:00140000
#00918:0014
#00912:00000014
#0101a:14
#01018:00343400
#01112:14
#01118:00140000
#01114:0014
#0111a:00000014
#01212:14
#01214:00343400
#01210:41
#01318:14
#01312:00140000
#0131a:0014
#01314:00000014
#01418:14
#0141a:00343400
#01514:14
#0151a:00140000
#01512:0014
#01518:00000014
#0151f:11
#01614:14
#01612:00343400
#01718:14
#01714:00140000
#01814:14
#01818:00140000
#01918:1414
#01914:00140000
#02114:00140000
#02118:0014
#02112:00000014
#0211a:24
#0211f:21
#02318:14
#02312:00140000
#0231a:0014
#02314:00000014
#02418:14
#0241a:00343400
#02518:00140000
#02514:0014
#0251a:00000014
#02512:24
#02714:14
#0271a:00140000
#02712:0014
#02718:00000014
#02814:14
#02812:00340000
#0291a:14
#02914:0014
#02918:00000014
#02910:41
#03012:14
#03018:0014
#03014:00000014
#0311a:14
#03112:00140000
#03118:0014
#03114:00000014
#03218:00000014
#03212:0024
#03314:14
#0331a:00140000
#03414:0014
#0341a:00000014
#03512:14000034
#03518:00140000
#03514:0014
#03510:41
#03614:00000014
#0361a:0024
#03612:34
#03718:14
#03712:00140000
#03818:0014
#03812:00000014
#0391a:14000034
#03914:00140000
#03918:0014
#04012:0014
#04018:00000014
#04114:14000014
#0411a:0014
#04110:41
#04218:1414
#04212:0024
#04314:14
#04318:0014
#0431a:24
#04312:0024
#0441a:0014
#04414:00000014
#04518:14000034
#04512:00140000
#0451a:0014
#04612:0014
#04618:34000014
#04714:14000034
#0471a:00140000
#04712:0014
#02013:2424
#02019:00240000
#04812:000000000000000000000000000000000000003434340000
#04814:000000000000000000000054
#00610:41
#02210:41
#00452:0014
#0105a:54
#01252:64
#01458:64
#01654:54
#01958:0014
#02053:0014
#02458:54
#02854:64
#02852:0014
#0295a:14
#03052:54
#0325a:00140000
#03554:0064
#03958:0054
#04154:14
#04258:14
#04352:0014
#04358:0014
#0455a:0054
#04752:0064
#0053a0:14
#005390:00340000
#005380:0034
#005370:00000024
#006320:14
#006330:00340000
#006340:0034
#006350:00000024
#0073a0:14
#007390:00340000
#007380:0034
#007370:00000024
#008320:14
#008330:00340000
#008340:0034
#008350:00000024
#0103a0:14
#010380:00343424
#012320:14
#012340:00343424
#014380:14
#0143a0:00343424
#016340:14
#016320:00343424
#0173a0:00001424
#018320:00001424
#0223a0:14240000
#022340:00001424
#024380:14
#0243a0:00343424
#026320:14240000
#026380:00001424
#028340:14
#028320:00342400
#030320:14
#030340:00240000
#0323a0:14240000
#033320:00001424
#034380:14240000
#035340:0014
#035320:00000034
#036320:34240000
#0373a0:00001424
#038340:14240000
#039380:0014
#0393a0:00000034
#0403a0:24
#0453a0:0014
#045380:00000034
#046380:34240000
#047320:0014
#047340:00000034
#048340:340000000000340000000024
#048320:000000000000340000000000000000000000343434340000
