This file was generated by Ched 2.7.0.0.
#TITLE ""
#ARTIST ""
#DESIGNER ""
#DIFFICULTY 0
#PLAYLEVEL
#SONGID ""
#WAVE ""
#WAVEOFFSET 0
#JACKET ""
#REQUEST "ticks_per_beat 480"
#00002: 4
#BPM01: 90
#00008: 01
#TIL00: ""
#VOLUME: ""
#HISPEED 00
#MEASUREHS 00
#0091a:14
#00910:41
#01012:14
#01118:14
#01214:14
#01314:14
#01418:14
#01518:14
#0151f:11
#01612:14
#01618:0014
#0181a:14
#01814:0014
#02018:0016
#02012:26
#0201f:21
#02010:0041
#02112:16
#02118:0016
#02812:2616
#02918:1616
#03612:2616
#00510:41
#03010:41
#03410:41
#03810:41
#0013a0:14
#0023a0:24
#003320:14
#004320:24
#005380:14
#006380:24
#007340:14
#008340:24
#017320:1424
#0193a0:1424
#022320:1626
#023380:1626
#024320:14
#024340:0034
#025340:34
#025320:0024
#0263a0:14
#026380:0034
#027380:34
#0273a0:0024
#030320:1626
#031380:1626
#032340:14
#032320:0034
#033340:34
#033320:0024
#034380:14
#0343a0:0034
#035380:34
#0353a0:0024
#037320:1626
#038380:14
#039380:24
#040340:14
#041340:34
#041320:0034
#045320:23
