This file was generated by Ched 2.7.0.0.
#TITLE ""
#ARTIST ""
#DESIGNER ""
#DIFFICULTY 0
#PLAYLEVEL
#SONGID ""
#WAVE ""
#WAVEOFFSET 0
#JACKET ""
#REQUEST "ticks_per_beat 480"
#00002: 4
#BPM01: 90
#00008: 01
#TIL00: ""
#VOLUME: ""
#HISPEED 00
#MEASUREHS 00
#00113:12
#00118:0014
#00215:12
#0021a:0014
#00312:00130000
#00317:12
#0031b:00000013
#00318:0014
#00414:12
#0041a:0012
#0051b:0013131300000013
#00516:000000000013000000000000000000000000000013000000
#00515:000000000000000000000013000000000000000000000000
#00518:00001313
#00513:000000000000001300000000
#00517:0000000000130000
#00514:000000000000000000000000000000000013000000000000
#00512:000000000000000000000000000000000000000000000013
#00510:41
#00617:130000000013000000000000000000000000000000000000
#00612:0013130000000000
#00616:0013
#00619:000000001300001300000000
#00615:0000001300130000
#0061a:000000000000000000000013000000000000000000000000
#00618:0000000000000013
#00715:130013000000000000000000000000000000000000530000
#00718:000000130013000000000000000000000000000000630000
#00712:000000131300000000530000
#0071b:000000000000000000130013000000000000230000000000
#00716:0014
#00713:000000000000000000000000000000000000005300000053
#00714:000000000000000000005353
#0071a:000000000000000000000000000000000000006300000063
#00719:000000000000000000006363
#00815:0000120000000012
#00817:0000001200000000
#00813:0000000000120000
#0081b:63000012
#00818:000000000000000000000000000000000000000000000012
#00819:0022
#00812:53
#00916:12
#00913:00130000
#00915:000000000000000000130000000000000000000013000000
#00917:0013
#00919:0000000000130000
#0091b:00000013
#00918:0000000000000013
#00912:000000000000000000000000230000000000000000000013
#00910:41
#01016:1414
#01012:00142300
#01014:0000001400000000
#0101a:0000000000140000
#01018:00000014
#01118:000000000000000000000000000000000000140000000013
#01112:0000000000000014
#01218:000000000013000013000000000000000000000013000000
#01215:0000131300001313
#01212:0013
#0131b:13
#01315:00130000
#01318:000000000013000000000000000000000000000000000000
#01319:001300
#01314:0000001300000000
#01312:0013
#01316:0000000000140014
#01415:000000000013000000130000000000000000000000000000
#01418:000000131300000000000000
#0141b:0000000013000033
#01417:00000013
#01518:000000000013000000130000000000000000000000130000
#01515:000000131300000000000000
#01512:0013
#01513:0000000000130000
#0151f:11
#01619:23130000
#01614:23130000
#01618:000000000000000012000000000000000000000000120000
#01616:000000000000000000120000000000000000000012000000
#0161a:00001313
#01613:00001313
#01617:0000000000120000
#0171b:13130000
#01712:13131300
#01718:001200
#01716:0014001200000000
#01816:140000000013000000000000140000000000140000000000
#0181b:00131300
#01812:001300
#01817:0000001300000000
#01916:000000000000000034000034140000000000240000000000
#01912:0014
#0191a:00240000
#02017:000013000000130013000000000033130033000000000000
#02012:260000130013000000000000000000000000000000000000
#02014:000000000000000000130013000000000000000000000000
#02019:0013
#02015:000000000000000000000000000000000000000013000013
#02018:0000000000000013
#0201f:21
#02010:0041
#0211b:000000130013000000000000000000000000000000000000
#02116:000000130000130013000000000033130033000000000000
#02119:000000000000000000130013000000000000000000000000
#02114:0013
#02117:000000000000000000000000000000000000000000000013
#02118:26
#02212:240014000000000000000000000033130033000000000000
#02218:000000140014000000000000000000000000000000000000
#02214:000000141400000000000000
#0221a:000000000000000000140014000000000000000000000000
#02216:000000000000000000000000140000000000000000130013
#0221b:0000000000000013
#02217:000000000000000000000000000000130033000000000000
#02316:000000000000000000000000140000130033000000000000
#0231b:000000000000000000000000000033130033000000000000
#0231a:241400000000000000000000
#02314:000000140014000000000000000000000000000000000000
#02318:000000141400000000000000
#02312:000000000000000000140014000000000000000000000000
#02417:13
#02415:000000130013000000000000130000000000130000000000
#02418:000000000000130000000000000013000013000000000013
#02412:240000000000000013000000000000230000000000230000
#0241b:000000230000000000230013000000000000000013000000
#02518:00130000
#02512:0000001400002525
#0251a:0000001400000000
#02515:23130000
#02519:0000000000002525
#02616:0014000000140000
#02612:250000000000000000000000000000000000000000000000000000000000000000000000005300000000000000000000150000000000000000000000230000000000000000000000240000000000000000000000250000000000000000000000
#02615:00140000
#02614:000000000000000000000000005300000000000000000000000000000000000000000000140000000000000000000000000000000000000000000000000000000000000000000000000000000000000000000000000000000000000000000000
#02617:00000014
#02618:0000000026000014
#02619:250000000000000000000000000000000000000000000000000000000000000000000000250000000000000000000000000000000000000000000000005300000000000000000000000000000000000000000000000000000000000000000000
#0261b:000000000000000000000000230000000000000000000000000000000000000000000000000000000000000000000000000000000000000000000000000000000000000000000000000000000000000000000000005300000000000000000000
#0261a:000000000000000000000000000000000000000000000000240000000000000000000000000000000000000000000000000000000000000000000000000000000000000000000000005300000000000000000000000000000000000000000000
#02613:000000000000000000000000000000000000000000000000005300000000000000000000000000000000000000000000000000000000000000000000000000000000000000000000000000000000000000000000000000000000000000000000
#02719:150000000000000000000000000000000000000000000000005300000000000000000000000000000000000000000000250000000000000000000000230000000000000000000000000000000000000000000000000000005300000000000000
#02715:00000013
#02716:0014141400000000
#02718:0000000000000013
#02712:2600230025000053
#0271b:0023002300000000
#02714:000000000000000000000000005300000000000000000000000000000000000000000000005300000000000000000000000000000000000000000000230000000000000000000000000000005300000000000000000000000000000000000000
#02713:000000000053
#0271a:000000000000000000000000000000000000000000000053
#0281b:530013000000000000000000000000000000000000130000
#02816:000000130000000000000000000000000000000013000000
#02819:000000000013000000000000000000000000130000000000
#02814:000000000000130000000000000000000013000000000000
#02817:000000000000000013000000000000130000000000000000
#02812:260000000000000000130000000013000000000000000000
#0281a:0024
#02815:0024
#0291b:000013000000000000000000000000000000000000130013
#02915:000000130013000000000000240000000000130013000000
#02918:000000000000130013000000000000130013000000000000
#02912:240000000000000000130000000013000000000000000000
#02917:24
#0291a:0024
#03018:000014000000000000000000000000140000000000000000
#03014:000000140000000000000000000014000000000000000000
#03019:000000000014000000000000000000000000140000000000
#03013:000000000000140000000000000000000014000000000000
#0301a:000000000000000014000000240000000000000000140000
#03012:260000000000000000140000240000000000000014000000
#03010:41
#0311a:000014000000000000000000240000140000000000000054
#03112:260000140000000000000000240014000000000000000000
#03119:000000000014000000000000000000000000140000005400
#03113:000000000000140000000000000000000014000000000000
#03118:000000000000000014000000000000000000000000140000
#03114:000000000000000000140000000000000000000014000000
#03212:260016000000000000000000000000000000000000140000
#03218:000000140014000000150015000000160016000000000000
#03213:000000151500000000000000
#03214:000000000000141400000000
#03318:261600151500141400000000
#03314:000000140014000000000000000000000000000000000000
#03313:000000000000000000150015000000000000000000000000
#03312:0000000000160000
#03418:000000130000000000000000000000001200000000000000230000000000000000000000000000000000000000000000
#03415:00130000000000000000000000000000
#0341a:000000140000001300000000
#03414:000000000000000000000012000000240000000000000000
#03412:250000000000140000000000000000000014000000150000
#03419:250000000015
#03416:0000002200000000
#03417:00000025
#03410:41
#03515:00130000000000000000000000000000
#03518:00130000000022000000000000000000
#03512:250000000000140000000025000000000000000000150000
#03516:000000000000000000000000000000000000000000000000000000000000000000000000000000000000000000000000000000000000000000000000000000000000000000000000000000000000000000000000000000000000000000000000000000000000000000000000000000000000000000000000000000000000000000000000000000000000000000000000000000000000000000000000000000000000000000000000000000000000000000000000000000000000000000000000000000000000000000000000000000000000000000000000000000000000000000000000000000000000000000000000000000000000000000000000000000000000000000000000000000000000000000000000000000000000000000000000000000000000000000000000000000000000000000000000000000000000000000000000000000000000000000000000000000000000000000000000000000000000000000000000000000000000000000000000000000000000000000000000000000000000000000000000000000000000000000000000000000000000000000000000000000000000000000000000000000000000000000000000000000000000000000000000000000000000000000000000000000000000000000000000000000000000000000000000000000000000000000000000000000000000000000000000000000000000000000000000000000000000000000000000000000000000000000000000000000000000000000000000000000000000000000000000000000000000000000000000000000000000000000000000000000000000000000000000000000000000000000000000000000000000000000000000000000001200000000000000000000000000000000000000000000000000000000000000000000000000000000000000000000000000000000000000000000000000000000000000000000000000000000000000000000000000000000000000000000000000000000000000000000000000000000000000000000000000000000000000000000000000000000000000000000000000000000000000000000000000000000000000000000000000000000000000000000000000000000000000000000000000000000000000000000000000000000000000000000000000000000000000000000000000000000000000000000000000000000000000000000000000000000000000000000000000000000000000000000000000000000000000000000000000000000000000000000000000000000000000000000000000000000000000000000000000000000000000000000000000000000000000000000000000000000000000000000000000000000000000000000000000000000000000000000000000000000000000000000000000000000000000000000000000000000000000000000000000000000000000000000000000000000000000000000000000000000000000000000000000000000000000000000000000000000000000000000000000000000000000000000000000000000000000000000000000000000000000000000000000000000000000000000000000000000000000000000000000000000000000000000000000000000000000000000000000000000000000000000000000000000000000000000000000000000000000000000000000000000000000000000000000000000000000000000000000000000000000000000000000000000000000000000000000000000000000000000000000000000000000000000000000000000000000000000000000000000000000000000000000000000000000000000000000000000000000000000000000000000000000000000000000000000000000000000000000000000000000000000000000000000000000000000000000000000000000000000000000000000000000000000000000000000000000000000000000000000000000000000000000000000000000000000000000000000000000000000000000000000000000000000000000000000000000000000000000000000000000000000000000000000000000000000000000000000000000000000000000000000000000000000000000000000000000000000000000000000000000000000000000000000000000000000000000000000000000000000000000000000000000000000000000000000000000000000000000000000000000000000000000000000000000000000000000000000000000000000000000000000000000000000000000000000000000000000000000000000000000000000000000000000000000000000000000000000000000000000000000000000000000000000000000000000000000000000000000000000000000000000000000000000000000000000000000000000000000000000000000000000000000000000000000000000000013000000000000000000000000000000000000000000000000000000000000000000000000000000000000000000000000000000000000000000000000000000000000000000000000000000000000000000000000000000000000000000000000000000000000000000000000000000000000000000000000
#0351a:00140000
#03519:250000000000000000000025000000000000000000150000
#03517:00000000000000000000000000000013
#0361b:000000130013000000000000000000130000000000000000
#03612:000000130000000000000000000000130013000000000000
#03619:0023
#03614:0023
#0371b:000000130013000000000000000000000000000000000000
#03712:0013000024000000
#03715:0000000000130000
#03718:000000000000000000000000000000230000140000000024
#03714:230000000000000000240024
#03719:23
#0371a:0000000024000024
#03812:14
#03816:00140000
#03810:41
#03813:0052
#03817:00000052
#0391a:14
#03916:00140000
#0391b:0052
#03917:00000052
#04017:00120000
#04013:12
#04012:0054
#04016:00000054
#04117:00120000
#0411b:12
#04116:00000014
#0411a:0054
#04512:72
#00255:22
#0025a:0064
#00158:0064
#00153:22
#00352:00230000
#00357:62
#0035b:00000023
#00358:0054
#00454:62
#0045a:0062
#00558:13
#00555:13
#00657:13
#00652:00000013
#00655:0000000000630000
#00756:0064
#0085b:13
#00852:13
#00956:12
#01056:14
#01158:00000014
#01457:00000063
#01452:13
#01654:13
#01659:13
#0175b:13
#01752:13
#01856:64005464
#01852:13000013
#0185b:0013
#0195a:000000640000000000001400
#01956:00005414
#01952:0054
#0195b:13
#02052:36
#0205a:00000044
#02059:0063
#02057:0000000000230000
#02154:0053
#02156:0000000000230000
#02152:00000034
#02158:46
#02254:00000043
#02256:0064
#02252:0000000000230000
#02257:0000000000230000
#02259:00000043
#02356:0000000054230000
#0235b:0000000000230000
#02359:00000033
#02354:00000033
#02452:14
#02558:0000630000120000
#02552:0000006400000000
#0255a:0000006400000000
#02556:0000000000120000
#02555:00630000
#02652:1515
#02659:15
#02658:0016
#02752:0015
#02759:0015
#02852:1600001300000000
#0285b:0000000000000013
#02952:0000001300000000
#03052:1600001400000000
#0305a:0000000000000014
#03154:0000001400000000
#03152:16
#03256:0000000000000014
#03252:0000000000000014
#03258:000000000000000000000000000000000066000000000000
#03352:0000000000660000
#0335a:000000000014
#03356:000000000014
#03459:6515000000000000
#03458:00230000000000000000000000000000
#03455:00230000000000000000000000000000
#03452:5515000000000015
#03555:00230000000000000000000000000000
#03558:00230000000000000000000000000000
#03552:5515000000000065
#03559:6515000000000055
#03556:000000000000000000000000000000000000000000000000000000000000000000000000000000000000000000000000000000000000000000000000000000000000000000000000000000000000000000000000000000000000000000000000000000000000000000000000000000000000000000000000000000000000000000000000000000000000000000000000000000000000000000000000000000000000000000000000000000000000000000000000000000000000000000000000000000000000000000000000000000000000000000000000000000000000000000000000000000000000000000000000000000000000000000000000000000000000000000000000000000000000000000000000000000000000000000000000000000000000000000000000000000000000000000000000000000000000000000000000000000000000000000000000000000000000000000000000000000000000000000000000000000000000000000000000000000000000000000000000000000000000000000000000000000000000000000000000000000000000000000000000000000000000000000000000000000000000000000000000000000000000000000000000000000000000000000000000000000000000000000000000000000000000000000000000000000000000000000000000000000000000000000000000000000000000000000000000000000000000000000000000000000000000000000000000000000000000000000000000000000000000000000000000000000000000000000000000000000000000000000000000000000000000000000000000000000000000000000000000000000000000000000000000000000000000000000000000000000000000000000000000000000000000000000000000000000000000000000000000000000000000000000000000000000000000000000000000000000000000000000000000000000000000000000000000000000000000000000000000000000000000000000000000000000000000000000000000000000000000000000000000000000000000000000000000000000000000000000000000000000000000000000000000000000000000000000000000000000000000000000000000000000000000000000000000000000000000000000000000000000000000000000000000000000000000000000000000000000000000000000000000000000000000000000000000000000000000000000000000000000000000000000000000000000000000000000000000000000000000000000000000000000000000000000000000000000000000000000000000000000000000000000000000000000000000000000000000000000000000000000000000000000000000000000000000000000000000000000000000000000000000000000000000000000000000000000000000000000000000000000000000000000000000000000000000000000000000000000000000000000000000000000000000000000000000000000000000000000000000000000000000000000000000000000000000000000000000000000000000000000000000000000000000000000000000000000000000000000000000000000000000000000000000000000000000000000000000000000000000000000000000000000000000000000000000000000000000000000000000000000000000000000000000000000000000000000000000000000000000000000000000000000000000000000000000000000000000000000000000000000000000000000000000000000000000000000000000000000000000000000000000000000000000000000000000000000000000000000000000000000000000000000000000000000000000000000000000000000000000000000000000000000000000000000000000000000000000000000000000000000000000000000000000000000000000000000000000000000000000000000000000000000000000000000000000000000000000000000000000000000000000000000000000000000000000000000000000000000000000000000000000000000000000000000000000000000000000000000000000000000000000000000000000000000000000000000000000000000000000000000000000000000000000000000000000000000000000000000000000000000000000000000000000000000000000000000000000000000000000000000000000000000000000000000000000000000000000000000000000000000000000000000000000000000000000000000000000000000000000000000000000000000000000000000000000000000000000000000000000000000000000000000000000000000000000000000000000000000000000000000000000000000000000000000000000000000000000000000000000000000000023000000000000000000000000000000000000000000000000000000000000000000000000000000000000000000000000000000000000000000000000000000000000000000000000000000000000000000000000000000000000000000000000000000000000000000000000000000000000000000000000
#03557:00000000000000000000000000000023
#03652:36
#03658:46
#03656:0000001400000014
#03756:0000001400000000
#0375a:0014
#03752:0014
#03852:64
#03856:00640000
#0395a:54
#03956:00540000
#04057:00220000
#04053:22
#04157:00220000
#0415b:22
#04156:00000064
#001330:12
#001320:0024
#001381:0014
#002391:22
#002350:12
#002340:0024
#0023a1:0014
#0033b1:22
#003370:12
#003320:00530000
#003340:0024
#003381:0014
#0033b1:00000053
#004371:22
#004340:12
#005350:23
#0043a1:0012
#005381:23
#006351:0000000000130000
#006321:00000023
#007361:0014
#007321:00000023
#010361:0000000000000014
#011361:24
#011321:0014240000000000
#0113a1:0000001424000000
#011341:0000000000142400
#012351:130000000023000000000000000000000000000000000000
#012381:00001323
#013321:130000000023000000000000000000000000000000000000
#0133b1:00001323
#013320:00000013
#014320:23
#0143b1:130000000023000000000000000000000000000000000000
#014321:00001323
#014370:00000013
#0143b0:0000000000000033
#0153b0:23
#015351:130000000023000000000000000000000000000000000000
#015371:00001323
#015340:00000013
#016340:23
#0173b0:0000000013230000
#017351:0000000000132300
#017380:0000000000001323
#017321:0000000000000013
#018321:23
#018360:14
#0183b0:000000000023000000000000000000000000000000000000
#018360:0014
#018320:00000023
#018361:00000014
#0193b1:23
#019320:14343400
#019360:00000024
#0193a1:000000140000000000342400
#019361:000000000000000034000034340000000000000000000000
#020391:0013
#020371:000000000000000000000000000033330033000000000000
#0203a1:00000024
#021341:0013
#021361:000000000000000000000000000033330033000000000000
#021321:00000024
#022361:0014
#022321:000000000000000000000000000033330033000000000000
#022341:00000023
#022370:000000000000000000000000000000130033000000000000
#022390:00000023
#023360:0014
#0233b0:000000000000000000000000000033330033000000000000
#023390:00000023
#023361:000000000000000000000000000000130033000000000000
#023341:00000023
#025351:13330000
#025321:0000003400000000
#025361:0000000000220000
#025380:0013330000220000
#0253a0:0000003400000000
#032380:000000000000000000000000000000000016000000000000
#032360:0000000000000024
#033320:0000000000160000
#033360:000000000000000000342400
#0333a1:000000000000000000142400
#034391:1525000000000000
#034381:00530000000000000000000000000000
#034320:1525000000000000
#034350:00530000000000000000000000000000
#035320:1525000000000000
#035350:00530000000000000000000000000000
#035391:1525000000000000
#035381:00530000000000000000000000000000
#035321:000000000000000000000015000000000000000000550000
#035361:000000000000000000000000000000000000000000000000000000000000000000000000000000000000000000000000000000000000000000000000000000000000000000000000000000000000000000000000000000000000000000000000000000000000000000000000000000000000000000000000000000000000000000000000000000000000000000000000000000000000000000000000000000000000000000000000000000000000000000000000000000000000000000000000000000000000000000000000000000000000000000000000000000000000000000000000000000000000000000000000000000000000000000000000000000000000000000000000000000000000000000000000000000000000000000000000000000000000000000000000000000000000000000000000000000000000000000000000000000000000000000000000000000000000000000000000000000000000000000000000000000000000000000000000000000000000000000000000000000000000000000000000000000000000000000000000000000000000000000000000000000000000000000000000000000000000000000000000000000000000000000000000000000000000000000000000000000000000000000000000000000000000000000000000000000000000000000000000000000000000000000000000000000000000000000000000000000000000000000000000000000000000000000000000000000000000000000000000000000000000000000000000000000000000000000000000000000000000000000000000000000000000000000000000000000000000000000000000000000000000000000000000000000000000000000000000000000000000000000000000000000000000000000000000000000000000000000000000000000000000000000000000000000000000000000000000000000000000000000000000000000000000000000000000000000000000000000000000000000000000000000000000000000000000000000000000000000000000000000000000000000000000000000000000000000000000000000000000000000000000000000000000000000000000000000000000000000000000000000000000000000000000000000000000000000000000000000000000000000000000000000000000000000000000000000000000000000000000000000000000000000000000000000000000000000000000000000000000000000000000000000000000000000000000000000000000000000000000000000000000000000000000000000000000000000000000000000000000000000000000000000000000000000000000000000000000000000000000000000000000000000000000000000000000000000000000000000000000000000000000000000000000000000000000000000000000000000000000000000000000000000000000000000000000000000000000000000000000000000000000000000000000000000000000000000000000000000000000000000000000000000000000000000000000000000000000000000000000000000000000000000000000000000000000000000000000000000000000000000000000000000000000000000000000000000000000000000000000000000000000000000000000000000000000000000000000000000000000000000000000000000000000000000000000000000000000000000000000000000000000000000000000000000000000000000000000000000000000000000000000000000000000000000000000000000000000000000000000000000000000000000000000000000000000000000000000000000000000000000000000000000000000000000000000000000000000000000000000000000000000000000000000000000000000000000000000000000000000000000000000000000000000000000000000000000000000000000000000000000000000000000000000000000000000000000000000000000000000000000000000000000000000000000000000000000000000000000000000000000000000000000000000000000000000000000000000000000000000000000000000000000000000000000000000000000000000000000000000000000000000000000000000000000000000000000000000000000000000000000000000000000000000000000000000000000000000000000000000000000000000000000000000000000000000000000000000000000000000000000000000000000000000000000000000000000000000000000000000000000000000000000000000000000000000000000000000000000000000000000000000000000000000000000000000000000000000000000000000000000000000000000000000000000000000000000000000000000000000000000000053000000000000000000000000000000000000000000000000000000000000000000000000000000000000000000000000000000000000000000000000000000000000000000000000000000000000000000000000000000000000000000000000000000000000000000000000000000000000000000000000
#036321:26
#035390:000000000000000000000015000000000000000000550000
#035370:00000000000000000000000000000053
#036380:26
#036360:0000142400000000
#036360:0000000000001424
#037360:0000142400000000
#038320:14
#038330:0022
#038361:00140000
#038371:00000022
#0393a1:14
#0393b1:0022
#039360:00140000
#039370:00000022
#040330:12
#040320:0024
#040371:00120000
#040361:00000024
#0413b1:12
#0413a1:0024
#041370:00120000
#041360:00000034
#045320:22
#007920:000000000000000000000000000000000000000000000000000000000000000000000000000000000000000000000000000000000000000000000000000000000000000000000000000000000000000000000000000000000000000000000000000000000000000000000000000000000000000000000000000000000000000000000000000000000000000000000000000000000000000000000000000000000000000000000000000000000000000000000000000000000000000000000000000000000000000000000000000000000000000000000000000000000000000000000000000000000000000000000000000000000000000000000000000000000000000000000000000000000000000000000000000000000000000000000000000000000000000000000000000000000000000000000000000000000000000000000000000000000000000000000000000000000000000000000000000000000000000000000000000000000000000000000000000000000000000000000000000000000000000000000000000000000000000000000000000000000000000000000000000000000000000000000000000000000000000000000000000000000000000000000000000000000000000000000000000000000000000000000000000000000000000000000000000000000000000000000000000000000000000000000000000000000000000000000000000000000000000000000000000000000000000000000000000000000000000000000000000000000000000000000000000000000000000000000000000000000000000000000000000000000000000000000000000000000000000000000000000000000000000000000000000000000000000000000000000000000000000000000000000000000000000000000000000000000000000000000000000000000000000000000000000000000000000000000000000000000000000000000000000000000000000000000000000000000000000000000000000000000000000000000000000000000000000000000000000000000000000000000000000000000000000000000000000000000000000000000000000000000000000000000000000000000000000000000000000000000000000000000000000000000000000000000000000000000000000000000000000000000000000000000000000000000000000000000000000000000000000000000000000000000000000000000000000000000000000000000000000000000000000000000000000000000000000000000000000000000000000000000000000000000000000000000000000000000000000000000000000000000000000000000000000000000000000000000000000000000000000000000000000000000000000000000000000000000000000000000000000000000000000000000000000000000000000000000000000000000000000000000000000000000000000000000000000000000000000000000000000000000000000000000000000000000000000000000000000000000000000000000000000000000000000000000000000000000000000000000000000000000000000000000000000000000000000000000000000000000000000000000000000000000000000000000000000000000000000000000000000000000000000000000000000000000000000000000000000000000000000000000000000000000000000000000000000000000000000000000000000000000000000000000000000000000000000000000000000000000000000000000000000000000000000000000000000000000000000000000000000000000000000000000000000000000000000000000000000000000000000000000000000000000000000000000000000000000000000000000000000000000000000000000000000000000000000000000000000000000000000000000000130000000000000000000000000000000000000000000000000000000000000000000000000000000000000000000000000000000000000000000000000000000000000000000000000000000000000000000000000000000000000000000000000000000000000000000000000000000000000000000000000000000000000000000000000000000000000000000000000000000000000000000000000000000000000000000000000000000000000000000000000000000000000000000000000000000000000000000000000000000000000000000000000000000000000000000000000000000000000000000000000000000000000000000000000000000000000000000000000000000000000000000000000000000000000000000000000000000000000000000000000000000000000000000000000000000000000000000000000000000000000000000000000000000000000000000000000000000000000000000000000000000000000000000000000000000000000000000000000000000000000000000000000000000000000000000000000000000000000000000000000000000000000000000000000000000000000000000000000000000000000000000000000000000000000000000000000000000000000000005353
#007950:0000000000000053
#008920:23
#0079b1:000000000000000000000000000000000000000000000000000000000000000000000000000000000000000000000000000000000000000000000000000000000000000000000000000000000000000000000000000000000000000000000000000000000000000000000000000000000000000000000000000000000000000000000000000000000000000000000000000000000000000000000000000000000000000000000000000000000000000000000000000000000000000000000000000000000000000000000000000000000000000000000000000000000000000000000000000000000000000000000000000000000000000000000000000000000000000000000000000000000000000000000000000000000000000000000000000000000000000000000000000000000000000000000000000000000000000000000000000000000000000000000000000000000000000000000000000000000000000000000000000000000000000000000000000000000000000000000000000000000000000000000000000000000000000000000000000000000000000000000000000000000000000000000000000000000000000000000000000000000000000000000000000000000000000000000000000000000000000000000000000000000000000000000000000000000000000000000000000000000000000000000000000000000000000000000000000000000000000000000000000000000000000000000000000000000000000000000000000000000000000000000000000000000000000000000000000000000000000000000000000000000000000000000000000000000000000000000000000000000000000000000000000000000000000000000000000000000000000000000000000000000000000000000000000000000000000000000000000000000000000000000000000000000000000000000000000000000000000000000000000000000000000000000000000000000000000000000000000000000000000000000000000000000000000000000000000000000000000000000000000000000000000000000000000000000000000000000000000000000000000000000000000000000000000000000000000000000000000000000000000000000000000000000000000000000000000000000000000000000000000000000000000000000000000000000000000000000000000000000000000000000000000000000000000000000000000000000000000000000000000000000000000000000000000000000000000000000000000000000000000000000000000000000000000000000000000000000000000000000000000000000000000000000000000000000000000000000000000000000000000000000000000000000000000000000000000000000000000000000000000000000000000000000000000000000000000000000000000000000000000000000000000000000000000000000000000000000000000000000000000000000000000000000000000000000000000000000000000000000000000000000000000000000000000000000000000000000000000000000000000000000000000000000000000000000000000000000000000000000000000000000000000000000000000000000000000000000000000000000000000000000000000000000000000000000000000000000000000000000000000000000000000000000000000000000000000000000000000000000000000000000000000000000000000000000000000000000000000000000000000000000000000000000000000000000000000000000000000000000000000000000000000000000000000000000000000000000000000000000000000000000000000000000000000000000000000000000000000000000000000000000000000000000000000000000000000000000000000000000000130000000000000000000000000000000000000000000000000000000000000000000000000000000000000000000000000000000000000000000000000000000000000000000000000000000000000000000000000000000000000000000000000000000000000000000000000000000000000000000000000000000000000000000000000000000000000000000000000000000000000000000000000000000000000000000000000000000000000000000000000000000000000000000000000000000000000000000000000000000000000000000000000000000000000000000000000000000000000000000000000000000000000000000000000000000000000000000000000000000000000000000000000000000000000000000000000000000000000000000000000000000000000000000000000000000000000000000000000000000000000000000000000000000000000000000000000000000000000000000000000000000000000000000000000000000000000000000000000000000000000000000000000000000000000000000000000000000000000000000000000000000000000000000000000000000000000000000000000000000000000000000000000000000000000000000000000000000000000000005353
#007981:0000000000000053
#0089b1:23
#026961:0014000000000000
#026941:000000000000000000000000002300000000000000000000000000000000000000000000000000000000000000000000000000000000000000000000000000000000000000000000000000000000000000000000000000000000000000000000
#026951:00140000
#026931:000000000000000000000000000000000000000000000000002300000000000000000000000000000000000000000000000000000000000000000000000000000000000000000000000000000000000000000000000000000000000000000000
#026941:0000001400000000
#026921:000000000000000000000000000000000000000000000000000000000000000000000000002300000000000000000000000000000000000000000000000000000000000000000000000000000000000000000000000000000000000000000000
#026961:0000000000140000
#026991:000000000000000000000000000000000000000000000000000000000000000000000000000000000000000000000000000000000000000000000000002300000000000000000000000000000000000000000000000000000000000000000000
#026971:00000014
#0269a1:000000000000000000000000000000000000000000000000000000000000000000000000000000000000000000000000000000000000000000000000000000000000000000000000002300000000000000000000000000000000000000000000
#026981:0000000000000014
#0269b1:000000000000000000000000000000000000000000000000000000000000000000000000000000000000000000000000000000000000000000000000000000000000000000000000000000000000000000000000002300000000000000000000
#027961:0014000000000000
#027941:000000000000000000000000002300000000000000000000000000000000000000000000000000000000000000000000000000000000000000000000000000000000000000000000000000000000000000000000000000000000000000000000
#027961:00140000
#027991:000000000000000000000000000000000000000000000000002300000000000000000000000000000000000000000000000000000000000000000000000000000000000000000000000000000000000000000000000000000000000000000000
#027961:0000001400000000
#027941:000000000000000000000000000000000000000000000000000000000000000000000000002300000000000000000000000000000000000000000000000000000000000000000000000000000000000000000000000000000000000000000000
#027951:00000013
#027921:000000000000000000000000000000000000000000000000000000000000000000000000000000000000000000000000000000000000000000000000000000000000000000000000000000000000000000000000000000000000000000000000000000000000000000000000000000000000000000000000000000000000000000000000000000000000000000000000000000000000000000000000000000000000000000000000000000000000000000000000000000000000000000000000000000000000000000000000000000000000000000000000000000000000000000000000000000000000000000000000000000000000000000000000000000000000000000000000000000000000000000000000000000000000000000000000000000000000000000000000000000000000000000000000000000000000000000000000000000000000000000000000000000000000000000000000000000000000000000000000000000000000000000000000000000000000000000000000000000000000000000000000000000000000000000000000000000000000000000000000000000000000000000000000000000000000000000000000000000000000000000000000000000000000000000000000000000000000000000000000000000000000000000000000000000000000000000000000000000000000000000000000000000000000000000000000000000000000000000000000000000000000000000000000000000000000000000000000000000000000000000000000000000000000000000000000000000000000000000000000000000000000000000000000000000000000000000000000000000000000000000000000000000000000000000000000000000000000000000000000000000000000000000000000000000000000000000000000000000000000000000000000000000000000000000000000000000000000000000000000000000000000000000000000000000000000000000000000000000000000000000000000000000000000000000000000000000000000000000000000000000000000000000000000000000000000000000000000000000000000000000000000000000000000000000000000000000000000000000000000000000000000000000000000000000000000000000000000000000000000000000000000000000000000000000000000000000000000000000000000000000000000000000000000000000000000000000000000000000000000000000000000000000000000000000000000000000000000000000000000000000000000000000000000000000000000000000000000000000000000000000000000000000000000000000000000000000000000000000000000000000000000000000000000000000000000000000000000000000000000000000000000000000000000000000000000000000000000000000000000000000000000000000000000000000000000000000000000000000000000000000000000000000000000000000000000000000000000000000000000000000000000000000000000000000000000000000000000000000000000000000000000000000000000000000000000000000000000000000000000000000000000000000000000000000000000000000000000000000000000000000000000000000000000000000000000000000000000000000000000000000000000000000000000000000000000000000000000000000000000000000000000000000000000000000000000000000000000000000000000000000000000000000000000000000000000000000000000000000000000000000000000000000000000000000000000000000000000000000000000000000000000000000000000000000000000000000000000000000000000000000000000000000000000000000000000000000000000000000000000000000000000000000000000000000000000000000000000000000000000000000000000000000000000000000000000000000000000000000000000000000000000000000000000000000000000000000000000000000000000000000000000000000000000000000000000000000000000000000000000000000000000000000000000000000000000000000000000000000000000000000000000000000000000000000000000000000000000000000000000000000000000000000000000000000000000000000000000000000000000000000000000000000000000000000000000000000000000000000000053230000000000000000000000000000000000000000000000000000000000000000000000000000000000000000000000000000000000000000000000000000000000000000000000000000000000000000000000000000000000000000000000000000000000000000000000000000000000000000000000000000000000000000000000000000000000000000000000000000000000000000000000000000000000000000000000000000000000000000000000000000000000000000000000000000000000000000000000000000000000000000000000000000000000000000000000000000000000000000000000
#027980:0000000000000013
#0279b0:000000000000000000000000000000000000000000000000000000000000000000000000000000000000000000000000000000000000000000000000000000000000000000000000000000000000000000000000000000000000000000000000000000000000000000000000000000000000000000000000000000000000000000000000000000000000000000000000000000000000000000000000000000000000000000000000000000000000000000000000000000000000000000000000000000000000000000000000000000000000000000000000000000000000000000000000000000000000000000000000000000000000000000000000000000000000000000000000000000000000000000000000000000000000000000000000000000000000000000000000000000000000000000000000000000000000000000000000000000000000000000000000000000000000000000000000000000000000000000000000000000000000000000000000000000000000000000000000000000000000000000000000000000000000000000000000000000000000000000000000000000000000000000000000000000000000000000000000000000000000000000000000000000000000000000000000000000000000000000000000000000000000000000000000000000000000000000000000000000000000000000000000000000000000000000000000000000000000000000000000000000000000000000000000000000000000000000000000000000000000000000000000000000000000000000000000000000000000000000000000000000000000000000000000000000000000000000000000000000000000000000000000000000000000000000000000000000000000000000000000000000000000000000000000000000000000000000000000000000000000000000000000000000000000000000000000000000000000000000000000000000000000000000000000000000000000000000000000000000000000000000000000000000000000000000000000000000000000000000000000000000000000000000000000000000000000000000000000000000000000000000000000000000000000000000000000000000000000000000000000000000000000000000000000000000000000000000000000000000000000000000000000000000000000000000000000000000000000000000000000000000000000000000000000000000000000000000000000000000000000000000000000000000000000000000000000000000000000000000000000000000000000000000000000000000000000000000000000000000000000000000000000000000000000000000000000000000000000000000000000000000000000000000000000000000000000000000000000000000000000000000000000000000000000000000000000000000000000000000000000000000000000000000000000000000000000000000000000000000000000000000000000000000000000000000000000000000000000000000000000000000000000000000000000000000000000000000000000000000000000000000000000000000000000000000000000000000000000000000000000000000000000000000000000000000000000000000000000000000000000000000000000000000000000000000000000000000000000000000000000000000000000000000000000000000000000000000000000000000000000000000000000000000000000000000000000000000000000000000000000000000000000000000000000000000000000000000000000000000000000000000000000000000000000000000000000000000000000000000000000000000000000000000000000000000000000000000000000000000000000000000000000000000000000000000000000000000000000000000000000000000000000000000000000000000000000000000000000000000000000000000000000000000000000000000000000000000000000000000000000000000000000000000000000000000000000000000000000000000000000000000000000000000000000000000000000000000000000000000000000000000000000000000000000000000000000000000000000000000000000000000000000000000000000000000000000000000000000000000000000000000000000000000000000000000000000000000000000000000000000000000000000000000000000000000000000000000000000000000000000000000000000000000000000000000000000000000000000000000000000000000000000000000000000000000000000000000000000000000000000000000000000000000000000000000000000000000000000000000000000000000000000000000000000000000000000000000000000000000000000000000000000000000000000000000000000000000000000000000000000000000000000000000000000000000000000000000000000000000000000000000000000000000000000000000000000000000000000000000000000000000000000000000000000000000000000000000000000000000000053
#0289b0:23
#031980:0000000000000014
#0319a0:000000000000000000000000000000000000000000000024
