This file was generated by Ched 2.7.0.0.
#TITLE ""
#ARTIST ""
#DESIGNER ""
#DIFFICULTY 0
#PLAYLEVEL
#SONGID ""
#WAVE ""
#WAVEOFFSET 0
#JACKET ""
#REQUEST "ticks_per_beat 480"
#00002: 4
#BPM01: 90
#00008: 01
#TIL00: ""
#VOLUME: ""
#HISPEED 00
#MEASUREHS 00
#00016:000000000000000000000000000000000000000000000012
#00118:120000000000000000000000000000000000000000000012
#00118:000000000000000000000000000000000000000000000012
#00116:0000000000000012
#0011a:000000320032000032320032620000000000000000000000
#00114:0000000000620000
#00216:120000000000000000000000000000000000000000000012
#00214:000000320000320000320032620000000000000000000000
#0031a:12000012
#00317:0000000000000012
#00318:000032320032320032320032620000000000000000000000
#00316:0000000000620000
#00414:12
#00415:000000000000000000000000000000000000000000000013
#00416:0032620000000000
#00418:0000006200000000
#00518:130000000000000000000013000000000000000000130000
#00515:000000000000000000130000130000000000000000000013
#0051b:000033330033000000000000000000000000000000000000
#00512:000000000000000000000000000033330033000000000000
#00510:41
#0061b:13
#00615:000000000000000000130000000033330000000000000013
#00618:000033330033000000000013000000000000000000130000
#00612:0013
#00718:130000000000000000000013000000000000000000000000
#0071b:000033130033000000000000000000000000000000000000
#00715:0000001313000000
#00712:0000000000130000
#00815:000000000000130000000000000000130000000000000033
#00818:0000001300001300
#0081b:0013
#00812:2400000000000013
#0081a:24
#00918:000000000000130000000000000000130000000000000033
#00915:000000000000000000130000000000000000130013000000
#00912:0013
#0091b:0000000000000013
#00910:41
#01012:00130000
#01015:0000001300000013
#01018:00001313
#0101b:0000000000130000
#01118:0013000000001400
#0111b:0000001300000000
#01114:0000000000140014
#01218:140000000000000000130000000000000000000013000000
#01215:000000000000000013000000000000000000000000130000
#01214:0014
#0141a:14
#01415:001300
#01418:0000001300000000
#01412:0014
#0131a:1400000000140000
#01315:000000000013000013000000000000000000000000000000
#01318:0000131300000000
#01312:0000000014000014
#01316:00000014
#0151a:14000014
#01515:000000000013000013000000000000000000000000000000
#01518:0000131300000000
#01512:0014
#01516:0000000000140014
#0151f:11
#01618:0013130000000000
#01615:000000000013000000000000000000130000000000000000
#0161b:000000000000000033130033000000000000000000000000
#0161a:000000000000000000000000000000000000000000000014
#01612:240000000000000000000000000000000013000000000000
#01715:1313130000131300
#01718:000013000013000000000000000013000013000000000000
#01712:000000000000000033130033000000000000000000000000
#01818:000000130000000033130033000000000000000000000000
#01815:000000000013000000000000000000000000000013000000
#0181b:000000000000130000000000000000000000000000130013
#01916:140000000000000034000034140000000000000000000000
#01912:000034340034140000000000000000000000230000000000
#02015:0013000000000000
#02012:0013
#02018:0000000000130000
#02019:25
#0201f:21
#02010:0041
#0211b:1300000000130000
#02115:0013000013001300
#02118:00130000
#02212:0000001300000000
#0221a:0014
#02218:0013000000001300
#0221b:0000000000000013
#02215:0000130000130000
#02318:0014000000002400
#02313:00140000
#02319:0000001400000000
#02312:24
#0241b:0013000000000000
#02415:0000131300000000
#02418:0000000013130000
#02412:0000000000001313
#0251a:1414
#02515:000013000000000000130000000000000000000000000000
#02518:000000130000000013000000000000000000000000000000
#02512:00140014
#02516:0000000000240024
#02714:0014000000000014
#02718:0000140000131400
#02712:000000000000000000140000000000000013000000000000
#02715:000000000000001300000000
#0271b:0023
#0271a:24
#02815:000000130000000000000013000000240000000000240000
#02818:000000000013000000130000000000000000000000000000
#02812:00140000
#0281a:24
#02918:000000130000000000000013000000000000000000000000
#02915:000000000013000000130000000000000000000000000000
#0291a:00140000
#02912:14
#02917:0000000000240024
#03018:0013000000000000
#03013:00130000
#0301a:2400001300000000
#03014:1400002300000000
#03012:0023000000000000
#03019:00230000
#03010:41
#03218:26161600
#03216:00000014
#03214:000000240024000000240000000000000000000000000000
#03212:0000000000240000
#0321a:0000000000000024
#03312:16161600
#03318:000000240024000000240000000000240000000000240000
#03314:00000024
#03415:0013001300002300
#03418:00131300
#03412:26232300
#0341b:0023002300230023
#03410:41
#03115:0013000000000000
#0311a:00130000
#03113:0000001300000000
#03118:14
#0311b:0023000000000000
#03114:00230000
#03119:0000002300000000
#03112:24
#03518:0013000000000000
#03515:00130000
#03512:0023000000000000
#0351b:00230000
#03513:0000002400000000
#03519:000000000000000000000024000000000000000000000000
#0361a:0000140000000024
#03614:0014001400000000
#03612:0000000000240000
#03618:26
#03718:0014001400000000
#03712:0000140000000024
#0371a:0000000000240000
#03812:00331300
#03814:24
#03816:00000032
#03810:41
#03916:12
#03914:00321200
#0401b:00331300
#04018:24000032
#04118:12
#0411a:00321200
#04114:0012
#02612:0024000024000024
#02616:00240024
#0261a:2400002400240000
#04512:72
#0451c:82
#00158:62
#00256:52
#0035a:62
#00454:62
#0055b:00130000
#00558:63
#00555:0053
#00552:00000013
#00658:00130000
#0065b:63
#00652:0053
#00655:00000013
#00758:63130000
#0075b:0023000000000000
#00755:00006313
#00752:0000000000230000
#00955:13
#0095b:0000000000000053
#00852:0000000000000063
#01058:13
#01055:0000000000000013
#01158:0013000000000000
#0115b:0000001300000000
#01258:64
#01254:0054
#0145a:54
#01452:0064
#0135a:14
#01352:0014
#0155a:14
#01552:0014
#01652:140000000000000000000000000000000063000000000000
#01658:00631300
#0165b:0000002300000000
#01655:000000000000000000000000000000630000000013000000
#01755:00530053
#01752:0000002300000000
#01852:13
#0185b:000000000000630000000000000000000013000000000000
#01858:0000002300000000
#01952:00640013
#01956:6464
#02059:15
#02158:00630000
#02155:00000063
#02252:14
#0225a:0014
#02352:14
#02454:14
#02458:14
#02758:00000014
#02754:0000000000000014
#0275a:14
#0285a:14
#0265a:14
#02652:0014
#0305b:00000013
#03055:00000013
#0305a:14
#03054:14
#03152:14000013
#03158:14000013
#03452:16
#0355b:13
#03555:13
#03553:000000000000000000000014000000000000000000000000
#03559:000000000000000000000014000000000000000000000000
#03258:16
#02952:14
#03658:16
#03754:14
#03854:64
#03852:0063
#03956:62
#03954:0062
#0405b:0053
#04058:54
#04158:52
#0415a:0052
#04154:0062
#001380:12
#0013a0:000000320032000032320032220000000000000000000000
#002360:12
#002340:000000320000320000320032220000000000000000000000
#0033a0:12
#003380:000032320032320032320032220000000000000000000000
#004340:12
#004360:0032220000000000
#005380:13
#0053b0:000033330033230000000000000000000000000000000000
#005350:0013
#005320:000000000000000000000000000033330033230000000000
#0063b0:13
#006380:000033330033230000000000000000000000000000000000
#006320:0013
#006350:000000000000000000000000000033330000230000000000
#007380:13230000
#0073b0:000033330033000000000000000000000000000000000000
#007350:00001323
#007320:0000000000530000
#008320:0000000000000013
#008350:000000000000000000000000000000000000000000000033
#009350:23
#0093b0:0000000000000013
#009380:000000000000000000000000000000000000000000000033
#010380:23
#012380:14
#0123b0:00230000
#012340:0014
#012320:00000023
#0143a0:14
#014380:00230000
#014320:0014
#014350:00000023
#016380:00132300
#0163b0:000000000000000033330033000000000000000000000000
#016350:000000000000000000000000000000130000000023000000
#016320:000000000000000000000000000000000033000000000000
#017350:00132300
#017320:000000000000000033330033000000000000000000000000
#017350:00000013
#018320:23
#0183b0:000000000000130000000000330033000023000000000000
#018380:000000000000000033330033000000000000000000000000
#019360:140000000000000034000034340000000000000000000000
#019320:000034340034340000000000000000000000230000000000
#020380:00132300
#020350:00000013
#021350:23
#021380:00130000
#0213b0:0023
#021350:00000013
#022320:24
#023340:0014
#024340:24
#023381:00000014
#024381:24
#0283a1:0000000014000024
#029321:0000000014000024
#0303b1:00001323
#030350:0000000000132300
#031320:00001323
#031381:0000000000132300
#034351:00000013
#035351:23
#0343b0:0000000000000013
#0353b0:23
#035330:000000000000000000140024000000000000000000000000
#035391:000000000000000000140024000000000000000000000000
#036381:00001424
#036340:00000014
#037340:24
#037340:00001424
#037381:00000014
#038381:24
#038340:14
#038320:00333300
#038360:00000032
#039360:32000022
#039340:00323200
#040380:14000032
#0403b0:00333300
#041380:32000032
#0413a0:00323200
#0453c0:22
#041341:0012
#041361:00000032
#045321:22
