This file was generated by Ched 2.7.0.0.
#TITLE ""
#ARTIST ""
#DESIGNER ""
#DIFFICULTY 0
#PLAYLEVEL
#SONGID ""
#WAVE ""
#WAVEOFFSET 0
#JACKET ""
#REQUEST "ticks_per_beat 480"
#00002: 4
#BPM01: 90
#00008: 01
#TIL00: ""
#VOLUME: ""
#HISPEED 00
#MEASUREHS 00
#00512:14
#0051a:0014
#00510:41
#00614:14
#00618:0014
#00714:14
#00712:00140000
#00819:2414
#01013:1414
#0121a:1414
#01214:00140000
#01312:1414
#01318:00140000
#0141a:14
#01414:00140000
#01418:0014
#01512:14
#01518:00140000
#01514:0014
#0151f:11
#0161a:1414
#01614:00140014
#01718:1414
#01712:00140014
#0181a:14140000
#01912:14140000
#02012:00160000
#02018:26001616
#0201f:21
#02010:0041
#02112:16001616
#02118:00160000
#02218:14140000
#02214:00001414
#0231a:14
#02312:00140000
#0241a:00140000
#02414:00001414
#02418:0000000000140000
#02412:24
#0251a:14
#02512:00140000
#02518:00001414
#02514:0000000000140000
#02612:14140000
#02618:00001414
#02714:14140000
#0271a:00001414
#02818:0000160000140000
#02814:00001414
#02812:26
#02918:16001414
#02912:00160000
#02914:0000000000140000
#03014:0034341434340000
#03012:14
#03010:41
#03118:0034341434340000
#0311a:14
#03218:0014000000000000
#03213:00140000
#03219:0000001400000000
#03212:24
#03314:0014000000000000
#03319:00140000
#03313:0000001400000000
#0331a:14
#03418:0014000000000000
#03413:00140000
#03419:0000001400000000
#03412:14
#03410:41
#03612:00160000
#03619:0000000014141400
#03618:26
#03718:00160000
#03713:0000000014141400
#03712:26
#03818:16
#03810:41
#03919:14
#04012:16
#04113:14
#03512:25252500
#03519:25252500
#00910:41
#04512:53
#00552:64
#0055a:0054
#00654:64
#00658:0054
#00754:64
#00752:00640000
#01952:00000014
#02358:00000014
#02852:16
#03052:64000014
#03054:0000002400000000
#03158:0000002400000000
#0315a:54000014
#03254:00000014
#03358:00000014
#03454:00000014
#03559:0015
#03552:0015
#03858:66
#03959:24
#04052:56
#04153:24
#001320:1424
#0023a0:1424
#003340:1424
#004380:1424
#005320:14
#005340:00240000
#0053a0:0014
#005380:00000024
#006340:14
#006320:00240000
#006380:0014
#0063a0:00000024
#007340:1424
#007320:00340000
#009390:1424
#011330:1424
#0183a0:00001424
#019320:00001424
#023380:0000000014342400
#030320:14000024
#030340:0034343434340000
#0313a0:14000024
#031380:0034343434340000
#032340:00001424
#033380:00001424
#034340:00001424
#038380:16
#038390:0034
#039390:34
#039380:0026
#040320:16
#040330:0034
#041330:34
#041320:00003636
#045320:23
