This file was generated by Ched 2.7.0.0.
#TITLE ""
#ARTIST ""
#DESIGNER ""
#DIFFICULTY 0
#PLAYLEVEL
#SONGID ""
#WAVE ""
#WAVEOFFSET 0
#JACKET ""
#REQUEST "ticks_per_beat 480"
#00002: 4
#BPM01: 160
#00008: 01
#TIL00: ""
#VOLUME: ""
#HISPEED 00
#MEASUREHS 00
#0091a:14
#01014:14
#01118:14
#01212:14
#0131a:14
#01414:14
#01714:14
#01710:41
#01818:14
#02212:14
#02512:14
#0261a:14
#02714:14
#02818:14
#02912:14
#02910:41
#0301a:14
#03114:14
#03218:14
#03914:14
#04018:14
#04318:2616
#0431f:21
#04618:16
#04612:0016
#04718:2616
#05112:2616
#05412:16
#05418:0016
#05512:2616
#06218:0016
#06212:26
#06210:41
#06512:1616
#0721a:14
#07210:41
#07314:14
#07418:14
#07512:14
#0761a:14
#07714:14
#07818:14
#07912:14
#0801a:14
#0211a:14
#03312:14
#0341a:14
#06612:0016
#06618:26
#06918:1616
#0351f:11
#00118:26
#00212:26
#00512:26
#00618:26
#01518:24
#08112:26
#00710:41
#04410:41
#003380:1636
#004380:26
#007320:1636
#008320:26
#015380:1400340034340034
#016380:0034003424000000
#019340:14
#020340:24
#0233a0:14
#0243a0:24
#035340:14
#036320:24
#037380:14
#0383a0:24
#041320:1400000000000034
#042320:0024000000000000
#044380:1626
#045320:1626
#048380:1626
#049320:1626
#050380:1626
#052320:1626
#053380:1626
#056320:1626
#057380:1626
#058320:1626
#059380:14
#0603a0:24
#063320:1626
#064380:1626
#067380:1626
#068320:1626
#070340:14
#071320:24
#081320:16362600
