This file was generated by Ched 2.7.0.0.
#TITLE ""
#ARTIST ""
#DESIGNER ""
#DIFFICULTY 0
#PLAYLEVEL
#SONGID ""
#WAVE ""
#WAVEOFFSET 0
#JACKET ""
#REQUEST "ticks_per_beat 480"
#00002: 4
#BPM01: 160
#00008: 01
#TIL00: ""
#VOLUME: ""
#HISPEED 00
#MEASUREHS 00
#03318:0000000013000013
#03315:00000000000000130000000000000013
#03313:0000130000130000
#0331a:2400130000130000
#03316:24
#04115:13
#0411a:00000000000000140000000000000000
#04118:13
#04112:0000000000001424
#04116:0000000000000026
#00015:0000000000130013
#0001c:12121200
#00018:00000013
#00312:0013000000000000
#00317:00130000
#0031b:0000000053130000
#00316:00000013
#00318:00000000005300000000000000000000
#00319:0000005300000000
#0031a:00000000000000530000000000000000
#00315:00000000000000000000000000530000
#00314:0000000000000053
#00313:00000000000000000000000000000053
#00618:00000000001300130000000000001300
#00615:00130000
#0061b:0000000000130000
#0061a:0024000000000000
#00612:24
#00712:1300001300000000
#00715:0013000000000000
#0071b:1300000000131300
#00718:00130000
#00710:41
#00917:13
#00916:00130000
#00918:0000000000130000
#0091b:00230013
#00912:23000023
#00915:0023
#01012:1300002300000000
#01015:0013000000000013
#01018:00130000
#0101b:2300001300000000
#01117:00130000
#01115:0000000000130000
#01112:13230013
#0111b:23000023
#01118:0023
#0121b:1300002300001300
#01215:00001300000000000000001300000000
#01218:0000130000130000
#01212:2300001300000013
#01317:00130000
#01318:0000000000130000
#0131b:23000013
#01316:13
#01315:0023
#01312:00230023
#0141b:1300002300000000
#01418:0013000000000013
#01415:00130000
#01412:2300001300000000
#0151b:1323
#01512:2300130000130024
#01515:0013
#01516:0000000000000024
#01518:0000230000230000
#01712:1300000000000013
#01715:00000000000000130000000013000000
#0171b:13131300
#01718:0000000000130000
#01710:41
#0181b:13
#01815:0013001300000013
#01818:00000000130000130000000000000013
#01812:00000013
#01915:0013000000130000
#01918:00131300
#0191b:0000001300000000
#01912:13001313
#02115:0000000000130000
#0211b:13000013
#02118:00000000000000000013000000001300
#02112:00000000130000130000000000000000
#02215:13000000000013000000000000000013
#02212:0013000000001300
#02218:00000000130000130000000000001300
#0221b:13
#02318:0013000000131300
#02315:00131300
#0231b:1313
#02312:0000001300000000
#0251b:0012000000000013
#02516:00000013
#02512:16
#02517:0000323200000000
#02712:1400130000000013
#02715:00001313
#0271a:14
#02718:00000000000000130000130000000000
#0271b:0000130000000013
#0421b:0000000000130000
#04218:00000013
#04215:0000000000000013
#04212:0000000000130000
#04214:0026000000000000
#0421a:0024000000000000
#04318:00130013
#04315:0000000000000013
#04316:0013
#04312:13
#0431a:24
#0431f:21
#0441b:13000013
#04414:0000000000000013
#04412:0013
#04410:41
#04512:13000013
#04512:13
#04519:0000000000000013
#0451b:0013
#05118:0000131300001300
#0511b:0000000000130000
#05115:0000000000000013
#05112:1424
#05219:0013000000000013
#05212:1324
#05217:1313
#0521b:00130000
#05216:00130013
#05214:0000001300000000
#05317:00130013
#05314:0013000000000013
#0531b:13
#05316:1313
#05312:00130000
#05319:0000001300000000
#0531a:0024
#0541b:13
#05412:0014140013000000
#0541a:0000000000141400
#05416:13
#05417:0013
#05016:1414
#0501a:00140000
#05012:00000014
#06812:0000000000000014
#0681a:00000014
#06816:1323
#06814:0013000000000000
#06819:0000001300000000
#0681b:0013
#06818:0000000000130000
#06815:00000000000000000000001300000000
#06718:0000000000000013
#06717:1323
#06719:0013000000000000
#06714:0000001300000000
#06712:0013
#0671b:00000013
#06716:0000000000140000
#06619:2500000000000013
#06612:1414
#06616:0014001400140000
#0661a:00140000
#0661b:00000013
#0721b:13000013
#07215:0000000000000013
#07216:1313
#07217:00130000
#07210:41
#07312:0013
#07318:0000000000000013
#0731b:13000013
#07415:0000000000000013
#07415:0000000000000013
#0741b:0013
#07412:13000013
#07915:0000000000130013
#07918:00000013
#07913:1212
#0791b:12
#0801b:13130013
#08018:0000000000000013
#08012:1313
#08116:0014001400000000
#08112:2424
#0811a:00240000
#0041a:1414
#00418:0014000000000000
#00416:0000140000002424
#00414:0000001400000000
#00412:5314
#01618:0000000000000013
#01616:0024000000000000
#0161a:0024002424000000
#01612:0000002424000000
#02012:1616000000000000
#02018:0016000023232323
#02015:00000000000000000023002300230023
#02418:16001600000000530023002300230023
#02412:0016000000000000
#0241b:00130000
#02415:0000000023232323
#0241a:00000000005300000000000000000000
#02419:0000005300000000
#02617:0000323200000013
#0261b:12
#02613:0012000000000000
#02616:0000000000130000
#02812:0013000024000000
#02815:00130000
#02818:0000001300002400
#02814:00000024
#0281a:0024
#03112:1400001300000000
#0311b:00130000
#0311a:14000014
#03119:00000000005300000000000000000000
#03117:0000005300000000
#03114:00000000000000530000000000000000
#03116:0053
#03212:13000000000000000034343414343434
#0321b:0013000000000000
#03216:0053000014000000
#03214:00530000000000000000000000000000
#03219:00000053000000000000000000000000
#03217:00530000
#0341b:1313000000000000
#03415:00130013000000000000000000000000
#03418:0000131300000000
#03412:000000000000000000000000000000130000000000130000000000000000000024000000000000000000000024000000
#0341a:00002424
#03416:000000000000002400002400
#0351b:12
#03515:001200000000
#03514:001200
#03513:0012
#03519:000012
#0351a:000000000012
#0351f:11
#03616:12
#0361b:12
#03618:0012
#03613:0012
#03716:12
#0371a:001200000000
#03719:001200
#03718:0012
#03714:000012
#03715:000000000012
#03816:120000000012000000000000
#03818:001200
#0381a:0012
#03817:00000012
#0391b:0000001300001300
#03918:00000013000000001300000000001300
#03915:0013000000130000
#03912:24242424
#0401b:1300130013000013
#04015:0013000000130000
#04018:0000001300001300
#04012:24242424
#04616:0014001414000000
#04612:1400000000140000
#0461a:00140014
#0461b:13
#0471b:00000013
#04715:0000000000000013
#04716:2400001300000000
#04717:0000000000130000
#0481b:13000013
#04814:0000000000000013
#04812:0013
#04912:13000014
#04912:13
#0491a:0000000000000014
#04915:0000000000130000
#04918:00000000000000000000001300000000
#0491b:0013
#05515:00130013
#05518:0000000000000013
#0551b:1313
#05512:23
#05612:13000013
#0561b:0013
#05619:0000000000000013
#05816:1414
#05812:00140000
#05818:0000000000001313
#05815:00000000000000000000000000130013
#0581a:0014
#05712:0000000013000014
#05718:0000000000130000
#05715:00000000000000000000001300000000
#0571b:13
#0571a:00000014
#0591a:14141400
#05912:0000140000001414
#06212:2500140000130000
#0621a:0000001400000000
#06215:00000013
#06218:0000000000000013
#06219:25
#06210:41
#06418:0000000000000013
#06415:00000013
#06412:1424
#06417:0013
#06516:0014001400000000
#0651a:1400000000142400
#06912:00140000
#06918:0000000000001313
#06915:00000000000000000000000000130013
#0691a:0014
#06916:2424
#07016:00140000
#07012:0000240000001414
#0701a:2424
#07116:2400240000140000
#0711a:24000024
#07112:00240024
#07519:13000000005300000000000000000000
#07517:00130000
#07514:00000000000000001300000000530000
#07512:00000013
#0751b:00530000000000000000000000000000
#07516:00000000000000000053000000000000
#07613:12001212
#07617:12120000
#07615:0000000000000012
#0761b:00000012
#07719:0012000000000012
#07713:0012
#07715:0000001200000012
#0771b:12
#07816:0000000000120000
#07818:00000000000000000000001200000000
#07814:00000012
#07819:0000001200000012
#07815:0012000000000000
#0781b:0012
#07813:12
#00115:00000000130000000000000000000013
#00118:00000000001300130000000000001300
#0011b:0000000000130000
#0011a:0024000000000000
#00112:24
#00218:00130000
#00215:00000000001300130000000000000000
#00212:0024000000130000
#0021a:24
#00518:00130000
#00515:00000000001300130000000000001300
#00512:0024000000130000
#0051a:24
#06315:0000000000000013
#06318:00000013
#0631a:1424
#06316:0013
#02913:0012000000000000
#02912:1400000000000013
#02917:0000323200001300
#0291a:14
#02910:41
#03013:12
#0301b:0012000000000000
#03016:0000000000000013
#03017:0000323200130000
#0601a:14
#06012:00140000
#06016:24240000
#00812:2424
#00814:0024000000002800
#00816:00240000
#00818:0000002400000000
#0081a:0024
#0611a:0024240000000000
#06112:0024240000000000
#04155:63
#04152:0000140000000014
#04156:0000000000000016
#04158:53
#0415a:00140000
#00752:5300005300000000
#00755:0023000000000000
#0075b:00000053
#00854:00000018
#00852:0014
#0085a:0014
#0105b:0000005300000000
#01252:0000006300000000
#01452:0000006300000000
#01752:63
#01756:00130000
#01858:00000000000000530000000000000000
#02258:00000000000000530000000000000000
#02452:1616000000000000
#02458:1616000000000000
#0255b:0062000000000013
#02553:0000000000000013
#02556:00000053
#02552:36
#02852:0014
#02858:00000014
#02854:00000014
#0285a:0014
#0545b:53
#05456:00140014
#05452:00146300
#0545a:00000014
#0615a:00140000
#06152:00140000
#05056:5464
#07352:0053
#0815a:00140000
#08152:1414
#00452:0014
#0045a:0014
#01556:0000000000000014
#01552:0000000000000014
#01656:0014000000000000
#0165a:0014001414000000
#01652:0000001414000000
#02052:1616000000000000
#02058:1616000000000000
#0215b:53
#02152:00000000000000630000000000000000
#02157:00130000
#02752:14
#0275a:14
#0275b:0000000000000053
#03152:14000014
#0315a:14000014
#0325a:0014
#03256:0054
#03252:00000054
#03356:14
#0335a:14
#0355b:52
#03553:0062
#03656:52
#0365b:52
#03658:0062
#03653:0062
#03756:52
#03758:0062
#03856:52
#0385a:0052
#03857:00000022
#04254:0016000000000000
#0425a:0014000000000000
#04652:5400000000240000
#04656:0024002464001400
#0465a:00640014
#05152:1414
#0515a:14
#05252:0014
#05257:0053
#0535a:0014
#05356:0053
#0555b:6363
#05555:00630000
#05856:6454
#05952:00540000
#0595a:0064
#0635a:0014
#06356:0053
#06556:00000014
#0655a:00000014
#06652:5454
#06656:0024002400240000
#0665a:00640000
#06659:15
#06752:0053
#06757:0013
#06756:0000000000240000
#0715a:14000014
#07152:00140014
#07156:14140000
#07256:6363
#07257:00530000
#0745b:0063
#07653:0012
#0765b:0012
#07657:52
#07753:0012
#0775b:0012
#08052:5353
#0805b:00630000
#00552:0014000000000000
#0055a:14
#0795b:62
#07957:0012
#06956:6464
#04356:0063
#04358:00530000
#04352:53
#0435a:14
#0705a:0064
#07052:00540000
#02653:0052000000000000
#02953:0052000000000000
#02952:0000000000000013
#02957:00000063
#0295a:0000000000000013
#0305b:0062000000000000
#04756:14
#06252:35
#06259:45
#0625a:0000005400000000
#06452:0014
#06457:0053
#06856:0013
#0015a:0014000000000000
#00152:14
#00252:0014000000000000
#0025a:14
#0065a:0014000000000000
#00652:14
#0785b:0012
#07853:0012
#04852:0053
#0455b:0053
#0565b:0053
#0605a:14
#06052:00140000
#04452:0053
#001320:0013
#001350:0000000000230000
#0023b0:0013
#002380:0000000000230000
#002320:0000000000000013
#003360:23
#0033b1:13
#003371:0023000000000000
#003321:0013
#003361:0000000000230000
#005381:0013
#0053b1:0000000000230000
#006351:0013
#006321:0000000000230000
#007321:13230000
#007351:0053000000000000
#007321:0000001300000000
#007361:0000000000332300
#0073b0:00000013
#008370:23
#0103b0:0000001300000000
#010380:0000000000230000
#010321:0000000000132300
#010380:0000000000001323
#012320:0000001300000000
#012350:0000000000230000
#014320:0000001300000000
#014350:0000000000230000
#0143b1:0000000000132300
#014350:0000000000001323
#017320:13
#017360:00230000
#018380:00000000000000130000000000000000
#0183b0:00000023
#0193b0:00000013
#020380:26
#0213b0:13
#021370:00230000
#021320:00000000000000130000000000000000
#021350:00000000000000000023000000000000
#022380:00000000000000130000000000000000
#0223b0:00000023
#023350:00000013
#024320:26
#0253b0:0012000000000000
#025370:0000323222000000
#025341:0000000013230000
#025390:0000000000132300
#025361:00000013
#025331:0000000000000023
#026331:0012000000000000
#026371:0000323222000000
#026390:0000000013230000
#026340:0000000000001323
#0273b0:0000000000000013
#028370:0023000000000000
#029330:0012000000000000
#029370:0000323222000000
#029391:0000000013230000
#029340:0000000000132300
#029371:00000013
#0293a1:0000000000000023
#0303b1:0012000000000000
#030371:0000323222000000
#030340:0000000013230000
#030390:0000000000001323
#0313a0:0000000014240000
#031321:0000000000142400
#032321:0000142400000000
#0323a0:0000001424000000
#032361:0014
#032321:00000000000000000034343434343434
#033361:24
#0353b1:12
#035381:002200
#035331:0012
#035361:000000000022
#036361:12
#036331:002200
#0363b0:12
#036380:002200
#036380:0012
#0363b0:000000000022
#036331:0012
#036361:000000000022
#037361:12
#037331:002200
#037381:0012
#0373b1:000000000022
#038361:12
#038331:002200
#0383a1:0012
#038371:00000052
#0393a1:22
#041351:13
#041321:0054240000000000
#041380:13
#0413a0:0054240000000000
#041340:0000000014240000
#041381:0000000000142400
#043321:13
#043351:00230000
#043380:00130000
#0433b0:0023
#043361:0013
#043321:00000023
#044321:1323000000000000
#044380:0013230000000000
#044351:0000132300000000
#0443b0:0000001323000000
#044321:0013
#044361:00000023
#0453b1:1323000000000000
#045350:0013230000000000
#045381:0000132300000000
#045320:0000001323000000
#0453b1:0013
#045371:00000023
#046321:14240000
#046361:0054000000000000
#0463a0:00142400
#046360:0000005400000000
#046361:00001424
#046321:0000000000540000
#047321:13230000
#0473b0:00132300
#047321:00001323
#048321:1323000000000000
#048380:0013230000000000
#048351:0000132300000000
#0483b0:0000001323000000
#048321:0013
#048361:00000023
#0493b1:1323000000000000
#049350:0013230000000000
#049381:0000132300000000
#049320:0000001323000000
#050360:14
#050320:0024
#050361:0014
#0513a1:24
#052371:0013
#0523b1:00000023
#053361:0013
#053321:00000023
#0543b1:13
#054361:0034240000000000
#054321:0013
#054361:0000000000342400
#0553b1:13
#055381:00230000
#055350:00130000
#055320:0023
#0553b1:0013
#055381:00000023
#0563b1:1323000000000000
#056350:0013230000000000
#056381:0000132300000000
#056320:0000001323000000
#0563b1:0013
#056371:00000023
#057321:1323000000000000
#057380:0013230000000000
#057351:0000132300000000
#0573b0:0000001323000000
#058360:14
#0583a0:00240000
#058360:0014
#058320:00000024
#059320:00140000
#059360:0000005424000000
#0593a1:0014
#059361:0000000000542400
#0623a1:0000001400000000
#062361:0000000000240000
#063321:1424000000000000
#063380:0013230000000000
#063351:0000132300000000
#0633a0:0000001424000000
#063361:0013
#063321:00000024
#0643a1:1424000000000000
#064350:0013230000000000
#064381:0000132300000000
#064320:0000001424000000
#064371:0013
#0643a1:00000024
#065321:14240000
#0653a0:00142400
#065321:0014
#065361:0000000000542400
#066321:14240000
#066361:0054000000000000
#0663a0:00142400
#066360:0000005400000000
#066321:00001424
#066361:0000000000540000
#067321:13
#067361:00230000
#0673b0:00130000
#067370:0023
#067321:00001323
#067361:0000000000540000
#0683b1:13
#068371:00230000
#068320:00130000
#068360:0023
#069360:14
#0693a0:00240000
#069360:0014
#069320:00000024
#070320:00140000
#070360:0000005424000000
#0703a1:0014
#070361:0000000000542400
#072361:13
#072321:00230000
#072370:00130000
#0723b0:0023
#072361:0013
#072321:00000023
#073321:1323000000000000
#073380:0013230000000000
#073351:0000132300000000
#0733b0:0000001323000000
#073321:0013
#073361:00000023
#0743b1:1323000000000000
#074350:0013230000000000
#074381:0000132300000000
#074320:0000001323000000
#0743b1:0013
#074371:00000023
#076371:12
#0763b1:00322200
#077371:12
#077331:00520000220000000000000000000000
#077370:00120000
#0773b0:00000000005200002200000000000000
#078370:12
#0783b0:00520000220000000000000000000000
#078371:00120000
#078331:00000000005200002200000000000000
#0793b1:12
#079371:0022
#080321:13
#080361:00230000
#0803b0:00130000
#080370:0023
#080321:0013
#080361:00000023
#003970:00130000
#0039b0:0023
#003960:00000013
#004920:23
#0249b0:00130000
#024980:00000000000000230000000000000000
#0319b0:00130000
#031970:0000002300000000
#031921:0000001300000000
#031961:0023
#032921:13
#032961:0023000000000000
#0329b0:0013000000000000
#032970:00230000
#075990:13
#0759b0:00230000000000000000000000000000
#075970:00130000
#075990:00000000002300000000000000000000
#075940:0013
#075960:00000000000000000023000000000000
#075920:00000013
#075940:00000000000000000000000000230000
