This file was generated by Ched 2.7.0.0.
#TITLE ""
#ARTIST ""
#DESIGNER ""
#DIFFICULTY 0
#PLAYLEVEL
#SONGID ""
#WAVE ""
#WAVEOFFSET 0
#JACKET ""
#REQUEST "ticks_per_beat 480"
#00002: 4
#BPM01: 160
#00008: 01
#TIL00: ""
#VOLUME: ""
#HISPEED 00
#MEASUREHS 00
#03318:0000130013000013
#03315:00000000000000130000130000000013
#0331a:24
#03312:24
#04118:1300000000130026
#04115:00001313
#00018:12121213
#00015:0000000000130013
#00118:0000000000000013
#00112:24
#00117:24
#00212:0000000000000013
#0021a:24
#00215:24
#0031b:13130000
#00315:0013000000130000
#00312:0000001300000013
#00318:00001313
#0041b:13
#00415:0000000000002323
#00417:0033333300000000
#00615:2400000000000013
#0061a:24
#0071b:13
#00712:0000001300000000
#00710:41
#00912:00140000
#00918:0013
#00915:0000000000130000
#0091b:00000013
#0091a:24
#01012:13
#01018:0013000000130000
#01015:00130000
#0101b:0000001300000000
#0101a:00000033
#01112:2413
#01118:0000000000130000
#01115:00000013
#0111a:00140000
#0121b:13
#01215:0013000000130000
#01218:00130000
#01212:0000001300000000
#01213:00000033
#01214:00000000000000000000003300000000
#01412:13
#01415:0013000000000000
#01418:0000130000130000
#0141b:0000001300000000
#0141a:00000033
#01515:0013
#01518:0000000000130000
#0151a:00140000
#01513:0000000000000024
#01519:0000000000000024
#01512:24
#01615:0000000000000013
#01612:0000002424000000
#0161a:0000002424000000
#01613:0024000000000000
#01619:0024000000000000
#01718:13000013
#01712:0000000013000013
#01715:0000000000130000
#01710:41
#01818:13
#01815:0013000000000000
#0181b:0000130000000013
#01812:00000000000013330000000000000000
#01912:1313
#01918:0013000000130000
#01915:00130000
#0191b:0000001300000000
#02512:0013000000000000
#02518:00131300
#02515:0000001300000000
#0251b:1300000000333300
#02513:64
#0261b:0013000000000000
#02615:00131300
#02618:0000001300000000
#02612:0000000000333333
#02712:00130000
#02718:00000000000000130000000000000000
#02715:00001313
#0271b:0000000000130013
#0291b:0013000000000000
#02915:00131300
#02918:0000001300000000
#02912:0000000000333300
#02910:41
#03012:0013000000000000
#03018:00131300
#03015:0000001300000000
#0301b:0000000000333333
#0311b:00130013
#03115:0000001300000000
#03112:0000000000130000
#03118:0013
#03215:1313
#03218:0013000000000000
#03212:00130000
#0321b:0000001300000000
#0361a:14
#03612:000000000014
#0381a:14
#03817:0014
#03915:0013001300000000
#03918:0000130000000013
#0391b:0013
#03912:0000000000130000
#04015:1300000000000013
#04018:0013000000001300
#04012:0000130000130000
#0401b:0000001300000000
#0421b:0000000000130000
#04218:00000013
#04215:0000000000000013
#04212:0026000000000000
#04318:23001313
#04315:0000130000000013
#0431b:00130000
#04312:2313
#0431f:21
#0441b:13
#04415:0013000000000013
#04418:00131300
#04412:0000001300000000
#04410:41
#04518:1300130000000013
#04512:0013000000001300
#04515:0000001300000000
#0451b:0013
#05118:00130013
#05112:0000001300000000
#05115:0000000000000013
#0521b:1313
#05215:0013000000000013
#05218:00130000
#05212:0000001300000000
#0531b:1313
#05315:0013000000001300
#05318:0000130000000013
#05312:0000001300000000
#05412:13
#05418:0013
#0591b:00130000
#05912:00130000
#05915:00000013
#05918:0000000013000013
#0461b:00000013
#04618:0013
#04615:00130000
#04612:13
#05015:0013
#05018:13
#06512:00000016
#06514:0016
#06516:00160000
#06518:16
#06912:0013
#0691b:13
#06815:13000000130000000000001300001300
#0681b:0013000000001300
#06812:0013
#06818:0000001300130000
#06718:0013000000000013
#06715:00131300
#0671b:0000001300000000
#06712:13
#06618:2300000013000013
#06615:00130013
#0661b:00130000
#06612:2313
#0701b:00130000
#07015:00130013
#07012:0013
#07018:0000000013000013
#07215:00130013
#07218:1300000000000013
#07212:13
#0721b:00130000
#07210:41
#07312:1313
#07318:0013000000000013
#07315:00130000
#0731b:0000001300000000
#07412:1313
#07418:0013000000001300
#07415:0000130000000013
#0741b:0000001300000000
#0751b:13530000000000000000000000000000
#07518:00000000135300000000000000000000
#07515:00000000000000001353000000000000
#07512:00000000000000000000000013530000
#0791b:13
#07912:0000000000130000
#07918:00000013
#07915:0000000000000013
#0801b:13
#08018:00130000
#08015:0013
#08012:00000013
#01312:00140000
#0131b:0013
#01315:0000000000130000
#01318:00000013
#0131a:24
#02115:13000000000000000013000000000000
#02112:00000013
#0211b:00000000000000130000000000001300
#02118:0000000000130000
#02119:64
#02218:13
#02212:0000130000000013
#0221b:00000000000013330000000000000000
#02215:0013000000000000
#0231b:1313
#02315:0013000000130000
#02318:00130000
#02312:0000001300000000
#03514:001400000014
#03518:001414
#03512:0014
#0351f:11
#03718:140014
#03714:001400140000
#0371a:001400
#03712:000000000014
#06215:2300001300001300
#06218:0000000013000013
#06212:00130000
#0621b:2300000000130000
#06210:41
#06312:13
#06318:0013000000000013
#06315:00131300
#0631b:0000001300000000
#06415:1300130000000013
#0641b:0013000000001300
#06418:0000001300000000
#06412:0013
#0761b:13
#07615:00130000
#07612:0013
#07618:0000000000000013
#07712:13
#07718:0013000000000000
#07715:00130000
#0771b:0000001300000013
#07815:13000000000000001300001300001300
#07818:0013000000131300
#07812:00130000
#0781b:0000001300000000
#08114:0014000000000000
#08113:0000001500000000
#08118:24252600
#00518:0000000000000013
#00512:24
#00517:24
#06012:14
#0601a:00140000
#07112:2600000000160000
#07118:00260026
#04715:23001313
#04718:0000130000000013
#04712:00130000
#0471b:2313
#04812:13
#04818:0013000000000013
#04815:00131300
#0481b:0000001300000000
#04915:13000000130000000000001300001300
#0491b:0013000000001300
#04918:0000001300130000
#04912:0013
#05818:0013
#05815:13
#05518:23001313
#05515:0000130000000013
#0551b:00130000
#05512:2313
#0561b:13
#05615:0013000000000013
#05618:00131300
#05612:0000001300000000
#05718:13000000130000000000001300001300
#05712:0013000000001300
#05715:0000001300130000
#0571b:0013
#0081a:24000024
#00819:00240000
#00818:0024
#00812:00000024
#00814:0024000000000000
#00813:0000002400000000
#02812:0024
#02817:0024
#0281a:00000024
#02815:00000024
#02818:0000333300000000
#02019:00000000000000002464646464646464
#06114:0024000000000000
#06118:00240000
#02413:00000000000000002464646464646464
#03412:00000000003333330000000000000000
#03418:00333333000000000000000000000000
#04158:5300000000000016
#0415b:00130000
#07152:16
#07158:00160016
#00457:0014
#0045b:53
#0075b:63
#00752:0000005300000000
#00755:00000013
#00852:00000014
#0085a:00000014
#0105b:0000005300000000
#01058:0000000000230000
#01252:0000006300000000
#01255:0000000000230000
#01758:53
#0175b:00130000
#02052:16
#0255a:0000000000000014
#02558:0053
#02655:0063
#02752:14
#0275b:0000000000000053
#02852:0014
#02857:0014
#0285a:00000014
#02855:00000014
#02955:0063
#02952:0000000000000014
#03058:0053
#0315a:14
#03255:0063
#0365a:64
#03657:0014
#0385a:64
#03857:0054
#04252:0016000000000000
#04458:0053
#0525b:0063
#05452:63
#05454:00140000
#05458:0063
#0545a:00000014
#06158:00140000
#05055:0053
#05058:63
#06952:0053
#0695b:63
#06755:0063
#07054:14
#06558:16
#06556:00160000
#06554:0016
#06552:00000016
#07255:00630000
#07252:63
#0725b:00630000
#07258:63
#07352:0053
#0795b:53
#08158:14151600
#04652:13
#04655:00130000
#04658:0013
#0465b:00000013
#0145b:0000005300000000
#01458:0000000000230000
#01852:0000005300000000
#02155:63
#02152:00130000
#0225b:0000006300000000
#02458:16
#05152:1400006300000000
#06355:0063
#06052:14
#0605a:00140000
#04855:0063
#05858:0063
#05855:53
#05658:0053
#0595a:14
#07655:00530000
#07652:0053
#0043b0:13
#004370:0033333324000000
#0073b0:13
#007380:00230000
#007320:0000001300000000
#007350:0000000000332300
#0103b0:0000001300000023
#010380:0000000000330000
#0103a0:00000033
#012320:0000001300000023
#012350:0000000000330000
#012340:00000000000000000000003300000000
#012330:00000033
#0143b0:0000001300000023
#014380:0000000000330000
#0143a0:00000033
#017380:13
#0173b0:00230000
#018320:00000000000013330000000000000000
#018350:00000023
#019350:00000013
#020320:26
#021350:13
#021320:00230000
#0223b0:00000000000013330000000000000000
#022380:00000023
#023380:00000013
#024380:26
#025380:0013
#0253b0:0000000000333300
#0253a0:0000000000000024
#026350:0013
#026320:0000000000333333
#027320:24
#0273b0:0000000000000013
#028370:0033000024000000
#028380:0000333300000000
#029350:0013
#029320:0000000000333324
#030380:0013
#0303b0:0000000000333333
#0313a0:24
#032350:0013
#032320:00000023
#0343b0:13
#034380:00333333230000000000000000000000
#034351:00130000
#034321:00000000003333332300000000000000
#0343a0:0014
#034390:000000000000003400000034
#034380:000000003434
#034370:00000034
#0353a0:24
#0363a0:14
#036370:000034240000
#0383a0:14
#038370:000000003434340000000000
#0393a0:24
#041380:13
#0413b0:00230000
#044380:0013
#0443b0:00000023
#048350:0013
#048320:00000023
#050380:13
#0503a0:0024
#050351:0013
#051321:24
#051321:0000001300000000
#051351:0000000000230000
#0523b1:0013
#052381:00000023
#054321:13
#054341:00240000
#054381:0013
#0543a1:00000024
#056381:0013
#0563b1:00000023
#058351:13
#058321:0024
#058380:0013
#0593a0:24
#063350:0013
#063320:00000023
#067350:0013
#067320:00000023
#0693b0:13
#069380:0024
#069321:0013
#070341:24
#072321:1323
#072351:00330000
#072380:1323
#0723b0:00330000
#073320:0013
#073350:00000023
#076350:00130023
#076320:0033
#077320:00001323
#0793b0:13
#079380:0023
#020990:000000000000000000000000000000000000000000000000000000000000000000000000000000000000000000000000000000000000000000000000000000000000000000000000000000000000000000000000000000000000000000000000000000000000000000000000000000000000000000000000140000000000000000000000000000000000000000000000000000000000000000000000000000000000000000000000000000000000000000000000000000000000000000000000000000000000000000000000000000000000000000000000000000000000000000000000000000000000000000000054
#021990:24
#024930:000000000000000000000000000000000000000000000000000000000000000000000000000000000000000000000000000000000000000000000000000000000000000000000000000000000000000000000000000000000000000000000000000000000000000000000000000000000000000000000000140000000000000000000000000000000000000000000000000000000000000000000000000000000000000000000000000000000000000000000000000000000000000000000000000000000000000000000000000000000000000000000000000000000000000000000000000000000000000000000054
#025930:24
#0759b0:13230000000000000000000000000000
#075980:00000000132300000000000000000000
#075950:00000000000000001323000000000000
#075920:00000000000000000000000013230000
