This file was generated by Ched 2.7.0.0.
#TITLE ""
#ARTIST ""
#DESIGNER ""
#DIFFICULTY 0
#PLAYLEVEL
#SONGID ""
#WAVE ""
#WAVEOFFSET 0
#JACKET ""
#REQUEST "ticks_per_beat 480"
#00002: 4
#BPM01: 160
#00008: 01
#TIL00: ""
#VOLUME: ""
#HISPEED 00
#MEASUREHS 00
#0091a:14
#00914:0014
#01018:1414
#01014:00140000
#01112:14
#01118:0014
#01214:1414
#01218:00140000
#0131a:14
#01312:0014
#0141a:1414
#01414:00140000
#01712:1414
#01718:00140000
#01710:41
#04314:0014
#0431a:00140000
#04318:00000014
#04312:24
#0431f:21
#05412:14
#0541a:00000014
#05418:00140000
#05414:0014
#07512:14
#07518:00140000
#07514:0014
#0751a:00000014
#08012:14
#0801a:00140000
#08014:0014
#08018:00000014
#0071a:14
#00712:0014
#00710:41
#00818:1414
#00814:00140000
#00812:00000024
#01512:14
#0151a:0000000000000014
#02018:16
#02412:16
#02714:1414
#02718:00140014
#02812:14
#02813:00002424
#02819:00002424
#03118:1414
#03114:00140014
#0321a:1414
#03212:00140000
#03318:0014
#03312:24
#03414:14
#0341a:0014
#03914:1414
#03918:00140000
#04018:1414
#04014:00140000
#04114:14
#04118:00000016
#04112:0000000000000026
#04414:14
#04412:0034343400000000
#04410:41
#04518:14
#04514:00000014
#0451a:0034343400000000
#0461a:14
#04614:00140000
#04618:0014
#04612:00000014
#04718:0014
#04712:00140000
#04714:00000014
#0471a:14
#04818:14
#0481a:0034343400000000
#04914:14
#04918:00000014
#04912:0034343400000000
#05118:14
#05214:14
#05212:0034343400000000
#05514:0014
#0551a:00140000
#05518:00000014
#05512:14
#05614:14
#05612:0034343400000000
#05718:14
#05714:00000014
#0571a:0034343400000000
#0591a:14
#05913:0014
#05912:14
#05919:0014
#06312:14
#06314:0034143400000000
#0651a:14
#06514:00140000
#06518:0014
#06512:00000014
#0701a:14
#07013:0014
#07012:14
#07019:0014
#00414:1414
#00418:00140000
#0031a:0014
#00312:14
#0181a:1414
#01814:00140000
#01912:1414
#01918:00140000
#0211a:1414
#02114:00140000
#02212:1414
#02218:00140000
#0231a:1414
#02314:00140000
#05012:14
#0501a:00140000
#05014:0014
#05318:14
#0531a:0034343400000000
#0581a:14
#05812:00140000
#05818:0014
#06218:00140000
#06214:0014
#0621a:00000014
#06212:24
#06210:41
#06414:00000014
#0641a:14
#06418:0034143400000000
#06614:00140000
#06618:0014
#06612:00000014
#0661a:24
#06818:00000014
#06812:14
#06814:0034143400000000
#06912:14
#0691a:00140000
#06914:0014
#0731a:00140000
#0671a:14
#06718:0034143400000000
#0351f:11
#00518:26
#04218:0026000000000000
#06012:24240000
#0601a:24240000
#07112:00260000
#07118:26
#07218:24
#07210:41
#08112:2626
#08118:00260000
#00612:26
#00112:26
#00218:26
#01618:0034003400000000
#02910:41
#00558:16
#02058:16
#02452:16
#04154:64
#04454:64
#04452:0014
#04558:54
#0455a:0014
#04858:54
#0485a:0014
#04954:64
#04952:0014
#0515a:0014
#05158:64
#05254:54
#05252:0014
#05654:64
#05652:0014
#05758:54
#0575a:0014
#06352:5414
#06354:00240000
#07158:16
#07152:00160000
#07258:54
#00652:16
#00152:16
#00258:16
#05054:0014
#05358:64
#0535a:0014
#05858:0014
#06954:0014
#0735a:00240000
#07754:0014
#07958:0014
#01658:0014
#0155a:0000000000000064
#0645a:6414
#06458:00240000
#0675a:6414
#06758:00240000
#06852:5414
#06854:00240000
#0153a0:0000000014000034
#016380:0034003424000000
#025320:14
#025340:0024
#026380:14
#0263a0:0024
#0293a0:14
#029380:0024
#030340:14
#030320:0024
#035340:14
#035320:0034
#036340:34
#036320:0024
#037380:14
#0373a0:0034
#038380:34
#0383a0:0024
#041340:14
#041320:00342400
#044340:14
#044320:0034343424000000
#045380:14
#0453a0:0034343424000000
#048380:14
#0483a0:0034343424000000
#049340:14
#049320:0034343424000000
#051380:14
#0513a0:0024
#052340:14
#052320:0034343424000000
#053380:14
#0533a0:0034343424000000
#056340:14
#056320:0034343424000000
#057380:14
#0573a0:0034343424000000
#063320:1424
#063340:0034343400000000
#0643a0:1424
#064380:0034343400000000
#0673a0:1424
#067380:0034343400000000
#068320:1424
#068340:0034343400000000
#072380:14
#0733a0:00540000
#074380:0024
#076320:14
#076340:0034
#077320:34
#077340:0024
#0783a0:14
#078380:0034
#0793a0:34
#079380:0024
