This file was generated by Ched 2.7.0.0.
#TITLE ""
#ARTIST ""
#DESIGNER ""
#DIFFICULTY 0
#PLAYLEVEL
#SONGID ""
#WAVE ""
#WAVEOFFSET 0
#JACKET ""
#REQUEST "ticks_per_beat 480"
#00002: 4
#BPM01: 165
#00008: 01
#TIL00: ""
#VOLUME: ""
#HISPEED 00
#MEASUREHS 00
#00018:14
#00218:14
#0041a:14
#0051a:14
#00614:14
#00714:14
#00818:14
#00810:41
#00918:14
#01012:14
#02212:0016
#02218:26
#02210:41
#02318:1616
#02412:16
#02418:0016
#02618:16
#02612:0016
#02718:1616
#02812:16
#02818:0016
#0321a:0014
#03210:0041
#03314:0014
#03418:0014
#03718:0014
#03814:0014
#04414:0014
#04518:0014
#0611a:0014
#06212:0014
#06318:0014
#06418:0014
#06414:14
#06512:0014
#0661a:0014
#06714:0014
#06818:14
#08918:00140000
#00114:14
#0391a:0014
#05118:16
#05112:0016
#05212:16
#05218:0016
#05312:16
#05412:0016
#05518:16
#05512:0016
#05612:16
#05618:0016
#05712:16
#07112:00160000
#07118:00000016
#07110:00000041
#07218:00160000
#07212:00000016
#07315:00160000
#07418:00000016
#07512:00160000
#07518:00000016
#07618:00160000
#07612:00000016
#07715:00160000
#07918:00160000
#07912:00000016
#08012:00160000
#08018:00000016
#08115:00160000
#08212:00000016
#08318:00160000
#08312:00000016
#08412:00160000
#08418:00000016
#08515:00160000
#0601f:0011
#06012:0026
#06018:26
#00314:24
#01112:24
#01814:24
#01812:0034
#04614:0024
#03019:24343434
#03112:0026
#06912:24
#0691a:0024
#07012:24
#07018:00000026
#0701f:00000021
#08812:00000026
#08818:00260000
#03512:0024
#05012:0026
#05010:0041
#05813:00002434
#08613:00000024
#07812:00000026
#01912:3434
#04112:3434
#0431a:3434
#04712:3434
#04812:34
#05913:34340000
#08713:34343400
#04010:0041
#012380:14
#013380:24
#014340:14
#015340:24
#0163a0:14
#0173a0:24
#018340:14
#018320:0034
#019320:3434
#020320:24
#025320:1626
#029320:1626
#030390:14343434
#031380:26
#040340:0014
#041320:3434
#042320:24
#042380:0014
#0433a0:3434
#0443a0:24
#046340:0014
#047320:3434
#048320:3424
#053380:0016
#054380:26
#057380:0016
#058380:26
#058330:00001434
#059330:34340000
#059320:0026
#073320:00000016
#074320:00260000
#077320:00000016
#078320:00260000
#081380:00000016
#082380:00260000
#085380:00000016
#086380:00260000
#086330:00000014
#087330:34343400
#087320:00000026
