This file was generated by Ched 2.7.0.0.
#TITLE ""
#ARTIST ""
#DESIGNER ""
#DIFFICULTY 0
#PLAYLEVEL
#SONGID ""
#WAVE ""
#WAVEOFFSET 0
#JACKET ""
#REQUEST "ticks_per_beat 480"
#00002: 4
#BPM01: 165
#00008: 01
#TIL00: ""
#VOLUME: ""
#HISPEED 00
#MEASUREHS 00
#0041a:13
#00417:0000131300000000
#00415:0000000000000013
#00412:0000131300001300
#00418:00000000000000000000000000000013
#00413:53
#0051a:0014
#00512:13140013
#00516:0053001400140000
#00518:0000000000000013
#00515:00000000000000000000000000000013
#0051b:0013000000000000
#00514:00530000000000000000000000000000
#00519:00000053000000000000000000000000
#00517:00530000
#0121b:1300000000000013
#01217:00130000
#01215:0000000000130000
#01212:00131300
#01218:00000013
#01312:13
#01316:00130013
#01317:1313
#0131b:00130013
#01417:13
#0141b:00130000
#01415:0000131300001300
#01412:0013
#01418:0000000000001313
#0151a:14141400
#01517:000000000000000000000000000000000000000000000000000000000000000000000000000000000000000000000000000000000000000000000000000000000000000000000000000000000000000000000000000000000000000000000000000000000000000000000000000000000000000000000000000000000000000000000000000000000000000000000000000000000000000000000000000000000000000000000000000000000000000000000000000000000000000000000000000000000000000000000000000000000000000000000000000000000000000000000000000000000000000000000000130000000000000000000000000000000000000000000000000000000000000000000000000000000000000000000000000000000000000000000000000000000000000000000000000000000000000000000000000000000000000000000000000000000000000000000000000000000000000000000000000000000000000000000000000000000000000000000000000000000000000000000000000000000000000000000000000000000000000000000000000000000000000000000000000000000000000000000000000000000000000000000000000000000000000000000000000000000000000000000000000000000000000000000000000000000000000000000000000000000000000000000000000000000000000000000000000000000000000000000000000000000000000000000000000000000000000000000000000000000000000000000000000000000000000000000000000000000000000000000000000000000000000000000000000000000000000000000000000000000000000000000000000000000000000000000000000000000000000000000000000000000000000000000000000000000000000000000000000000000000000000000000000000000000000000000000000000000000000000000000000000000000000000000000000000000000000000000000000000000000000000000000000000000000000000000000000000000000000000000000000000000000000000000000000000000000000000000000000000000000000000000000000000000000000000000000000000000000000000000000000000000000000000000000000000000000000000000000000000000000000000000000000000000000000000000000000000000000000000000000000000000000000000000000000000000000000000000000000000000000000000000000000000000000000000000000000000000000000000000000000000000000000000000000000000000000000000000000000000000000000000000000000000000000000000000000000000000000000000000000000000000000000000000000000000000000000000000000000000000000000000000000000000000000000000000000000000000000000000000000000000000000000000000000000000000000000000000000000000000000000000000000000000000000000000000000000000000000000000000000000000000000000000000000000000000000000000000000000000000000000000000000000000000000000000000000000000000000000000000014000000000000000000000000000000000000000000000000000000000000000000000000000000000000000000000000000000000000000000000000000000000000000000000000000000000000000000000000000000000000000000000000000000000000000000000000000000000000000000000000000000000000000000000000000000000000000000000000000000000000000000000000000000000000000000000000000000000000000000000000000000000000000000000000000000000000000000000000000000000000000000000000000000000000000000000000000000000000000000000000000000000000000000000000000000000000000000000000000000000000000000000000000000000000000000000000000000000000000000000000000000000000000000000000000000000000000000000000000000000000000000000000000000000000000000000000000000000000000000000000000000000000000000000000000000000000000000000000000000000000000000000000000000000000000000000000000000000000000000000000000000000000000000000000000000000000000000000000000000000000000000000000000000000000000000000000000000000000000000000000000000000000000000000000000000000000000000000000000000000000000000000000000000000000000000000000000000000000000000000000000000000000000000000000000000000000000000000000000000000000000000000000000000000000000000000000000000000000000000000000000000000000000000000000000000000000000000000000000000000000000000000000000000000000000000000000000000000000000000000000000000000000000000000000000000000000000000000000000000000000000000000000000000000000000000000000000000000000000000000000
#01516:0000001300000000
#01512:00141400
#01515:0000000000140000
#0171a:00000014
#01712:00130014
#0171b:13
#01717:00130000
#01716:1313
#02212:1300001300130000
#02215:0013000000000013
#0221b:2313
#02218:00000013
#02210:41
#0231b:0013
#02314:0000000000000013
#02317:0000000000130000
#02312:13000013
#02512:0000000014140000
#02517:0000000014140000
#02518:0000000000000000000000000000000000140014001400140000000000000000
#02513:0000000000000000000000000000000000140014001400140000000000000000
#02516:2414241400000000
#02519:00000000000000000014001400000000
#02514:00000000000000000014001400000000
#0241b:1300000000000013
#02412:0000131313000000
#02415:0000000000130000
#02418:00000013
#02416:23
#02916:0014000000000000
#0291a:2400000000000000140000000000000000000000000000000063000000000063
#02912:00241413
#0291b:00000023
#02917:0000000000000063
#02919:00000000000000000000000000630063
#02918:0000000000000000000000000000000000000000000000000000006300630000
#0311a:00000014
#03112:00000014
#03114:2424000000000000
#03118:0000000024240000
#06119:0013000000000000
#06117:00130000
#06114:0000001300000000
#0611b:13
#06116:1313
#06112:00130000
#06712:0013000000001300
#06716:13530000
#06717:0013000000000000
#0671b:13531300
#06714:00000053000000000000000000000000
#06719:00000053000000000000000000000000
#0681b:1313
#06812:0013
#06816:13
#07215:0000000000130000
#07212:00130014
#0721b:00000013
#07216:0000001400000000
#0721a:0014
#07716:0000000000001414
#0771b:1313130000000000
#07712:0000140013130000
#0781a:14
#07812:14250000
#07816:0000002500251300
#07813:0025
#07819:00250025
#08014:0000000000130000
#08012:13130013
#08016:0013000000000000
#08018:13
#08017:00130000
#0801b:0013000000001300
#00015:1300001300130013
#0001a:00120012
#00118:1300001300130013
#00114:00120012
#00215:1300001300130013
#0021a:00120012
#0061b:1300130000000023
#00612:0013001300001300
#00617:0053000013001300
#00616:0000530000130013
#00619:00530000000000000000000000000000
#00614:00000053000000000000000000000000
#00712:0013132300000000
#00717:0000001300000000
#0071b:0000000000000000000000000000000000000000130000002363636363636363
#00816:0000131300000000
#00818:0000000000000013
#0081b:5300131300001300
#00815:00000000000000000000000000000013
#00812:13
#00810:41
#00912:0013000014000000
#00916:0000531400140000
#0091b:13000013
#00915:0000000000000013
#00918:00000000000000000000000000000013
#0091a:00140000
#00919:00530000000000000000000000000000
#00917:0053000000000000
#00914:00000053000000000000000000000000
#01012:1300130000000024
#01018:0000001313000000
#01015:00000000000000130000000000000000
#01016:0053000000130000
#01014:00530000000000000000000013000000
#0101b:0013000000000000
#01019:00000053000000000000000000000000
#01017:00530000
#0111a:0014240000000000
#01112:0000241400140000
#01118:0000000000001313
#01115:00000000000000000000000000130013
#01116:0000002400000000
#01818:0013000000000000
#0181b:0000001300000000
#01812:0000000000130000
#01815:0000000000000013
#01917:13000000000000000023002300000000
#01916:00130000
#01912:2424000024242400
#0191a:0000242400000000
#01913:000000000000000000000000000000000000006400000064
#01914:000000000000000000006464
#01915:0000000000000064
#02015:00001300000000130000000000002300
#02018:0000000000001300000000000000000023636363630063006300000063000000
#02012:64130000
#0201b:0000001300000000
#0201a:24
#03012:13
#03017:00130000
#03014:0013
#03019:00000013
#0301b:63
#03212:00001313
#03215:0000000000000013
#03218:0000000000000013
#0321b:00001313
#03210:0041
#03217:00620000
#03312:00130000000013000000530014000000
#03318:00130000
#0331b:00000000000000130000000053000000
#03316:0000000013000014
#03317:0000000000130000
#03314:00000000000000000053000000000000
#03319:00000000000000000000005300000000
#03412:1400001300530000
#03416:0014000013000000
#0341a:14140000
#0341b:00000000000000130000000053000000
#03417:0000000000130000
#03418:0000000000000013
#03414:00000000000000000053000000000000
#03419:00000000000000000000005300000000
#0351b:1300000000131323
#03516:1300000000000013
#03514:0013000000000000
#03512:0000132300000000
#03612:0013132300001300
#0361b:00000013
#03618:0000000000000013
#03615:0000000000000013
#0371b:00130000000013000000530000000000
#03715:00130000
#03712:00000000000000130000000053000000
#03717:0013
#03716:0000000000130014
#0371a:00000014
#03719:00000000000000000053000000000000
#03714:00000000000000000000005300000000
#0381a:14
#03816:0014000000130000
#03812:14000000140000130000000053001300
#0381b:0000001300531300
#03817:0000000013000053
#03819:00000000000000000053000000530000
#03814:00000000000000000000005300000053
#03917:0000000000130023
#03912:00000013
#03916:5300002300000000
#04012:0013000000001400
#04018:000000000000130000130000000000005400000000000000
#04015:00000000001300130000000000000000
#0401a:0014
#04010:0041
#04013:000000000054
#04014:000000000000000000000054
#04017:00000054
#04019:000000000000005400000000
#0411a:14000054
#04115:541400000000000000140000
#04119:001400005400
#04118:000000001400005400000000
#04113:000000000014000000000054
#04114:000000140000000000005400
#04117:0014
#0421a:000000140000000000140014
#04212:54141400
#04215:000000000000000000541400
#04217:14
#04213:000000000000005400000000
#04214:000054
#04317:00140024
#04312:000000541400000024000000
#0431a:000000000014002400000000
#04315:1424
#04314:005400000000000000000024
#04313:005400000000
#04412:0013
#0441b:0013
#04418:24640013
#0441a:0014000000000000
#04516:0014001400000000
#0451a:00130000
#04513:1313
#0451b:0013
#04515:00000013
#04717:00000013
#04712:0013000000002424
#0471b:0000001300000000
#04716:0013
#0471a:0000000024240000
#04612:0000130000130000
#0461b:1300130000000013
#04918:0014000000000000
#04914:14
#04912:0000000000000000240000002400000024646464640000000000000000000000
#0491a:5400000000000000000024000000240000000000246464646400000000000000
#04917:00000022
#0521b:13000013
#05214:0000001300000000
#05216:0013
#05217:0013000000000000
#05212:00130000
#05219:0000000000000013
#0521a:0024
#05716:2400000024140014
#0571a:00000014
#0571b:13
#05712:0000131300001400
#05817:00131300
#05816:1300005400001300
#05812:00145400
#05813:0000000000000000005400000000005400000000000000000000000000000000
#05814:00000000005400540000000000000000
#05815:0000000000000000000000540054000000000000000000000000000000000000
#05912:0000000000230014
#05917:13
#05916:00130000
#0591b:0000000023130000
#06016:1400001400000000
#0601a:0014000014000000
#06012:00140013
#06019:0000000000130000
#06017:00130013
#06014:0000000000000013
#0601f:0011
#0501b:0000000013000013
#05012:00000013
#05016:0000000024000013
#05013:00220000
#05015:22
#05010:0041
#05112:13
#0511b:00130000
#05114:0000001300000000
#05119:0013001300000000
#05116:2424
#05317:13
#05314:0000001300000000
#05312:24130000
#05316:0000000024142414
#05619:0000001300000000
#05612:1313
#0561b:0000130000001313
#05616:0013000024000000
#06212:00001353
#0621b:0000000000130000
#06216:0000000000130000
#06219:0014001400140014001400140014001400000000000053000000000000000000
#06218:00140014001400140000000000000000
#0621a:1414141400000000
#06217:00000053
#06214:00000000000000000000005300000000
#0631b:13530000
#06316:1300530000140014
#06312:0013000024001400
#06317:0013000000000000
#0631a:00001424
#06314:00000053000000000000000000000000
#06319:00000053000000000000000000000000
#06419:1500250000000013
#06415:0015000000000000
#06412:24150013
#06416:0000001500000000
#0641b:0013
#06414:0000000000130013
#06512:13
#0651b:13131300
#06519:0013001300130000
#06514:0000001300000013
#06618:0013000000000000
#06617:00001353
#0661b:0000530000130000
#06616:0000000000130000
#06613:0014001400140014001400140014001400000000000000000000000000000000
#06612:1414141400005300
#06614:00140014001400140000005300000000
#06619:000000000000000053000000000000000000000000000000000000000000000000530000000000000000000000000000
#0661a:000000000053000000000000000000000000000000000000
#07115:0013000000130000
#07118:0000001300000000
#0711b:00130013
#07112:1313
#07110:00000041
#07312:1313130000000000
#0731a:00140024
#0731b:0000000013130000
#07315:00000024
#07518:0013000013000000
#07512:0000001300001300
#0751b:1300000000130000
#07515:00130000
#07919:0000001300000000
#07914:0013000000130000
#07912:00130013
#07916:0000000000000013
#0791b:0000000013000013
#07917:13
#08117:13
#08114:13
#08112:0013130000000000
#08116:0000000013000014
#0811b:0000130000130000
#08119:0013
#0811a:00000024
#08216:0014000000000000
#08217:000000000000000000000000000000000000000000000000000000000000000000000000000000000000000000000000000000000000000000000000000000000000000000000000000000000000000000000000000000000000000000000000000000000000000000000000000000000000000000000000000000000000000000000000000000000000000000000000000000000000000000000000000000000000000000000000000000000000000000000000000000000000000000000000000000000000000000000000000000000000000000000000000000000000000000000000000000000000000000000000000000000000000000000000000000000000000000000000000000000000000000000000000000000000000000000000000000000000000000000000000000000000000000000000000000000000000000000000000000000000000000000000000000000000000000000000000000000000000000000000000000000000000000000000000000000000000000000000000000000000000000000000000000000000000000000000000000000000000000000000000000000000000000000000000000000000000000000000000000000000000000000000000000000000000000000000000000000000000000000000000000000000000000000000000000000000000000000000000000000000000000000000000000000000000000000000000000000000000000000000000000000000000000000000000000000000000000000000000000000000000000000000000000000000000000000000000000000000000000000000000000000000000000000000000000000000000000000000000000000000000000000000000000000000000000000000000000000000000000000000000000000000000000000000000000000000000000000000000000000000000000000000000000000000000000000000000000000000000000000024000000000000000000000000000000000000000000000000000000000000000000000000000000000000000000000000000000000000000000000000000000000000000000000000000000000000000000000000000000000000000000000000000000000000000000000000000000000000000000000000000000000000000000000000000000000000000000000000000000000000000000000000000000000000000000000000000000000000000000000000000000000000000000000000000000000000000000000000000000000000000000000000000000000000000000000000000000000000000000000000000000000000000000000000000000000000000000000000000000000000000000000000000000000000000000000000000000000000000000000000000000000000000000000000000000000000000000000000000000000000000000000000000000000000000000000000000000000000000000000000000000000000000000000000000000000000000000000000000000000000000000000000000000000000000000000000000000000000000000000000000000000000000000000000000000000000000000000000000000000000000000000000000000000000000000000000000000000000000000000000000000000000000000000000000000000000000000000000000000000000000000000000000000000000000000000000000000000000000000000000000000000000000000000000000000000000000000000000000000000000000000000000000000000000000000000000000000000000000000000000000000000000000000000000000000000000000000000000000000000000000000000000000000000000000000000000000000000000000000000000000000000000000000000000000000000000000000000000000000000000000000000000000000000000000000000000000000000000000000000000130000000000000000000000000000000000000000000000000000000000000000000000000000000000000000000000000000000000000000000000000000000000000000000000000000000000000000000000000000000000000000000000000000000000000000000000000000000000000000000000000000000000000000000000000000000000000000000000000000000000000000000000000000000000000000000000000000000000000000000000000000000000000000000000000000000000000000000000000000000000000000000000000000000000000000000000000000000000000000000000000000000000000000000000000000000000000000000000000000000000000000000000000000000000000000000000000000000000000000000000000000000000000000000000000000000000000000000000000000000000000000000000000000000000000000000000000000000000000000000000000000000000000000000000000000000000000000000000000000000000000000000000000000000000000000000000000000000000000000000000000000000000000000000000000000000000000000000000000000000000000000000000000000000000000000000000000000000000000000000000
#08212:24240025
#08215:0000002400000000
#0821a:00240000
#08419:0000000000130000
#0841b:13130013
#08417:0013000000000000
#08415:13
#08412:0013000000000000
#08416:00230013
#08314:0000001300000000
#08319:0013000000130000
#0831b:00130013
#08317:0000000000000013
#08312:0000000013000013
#08316:13
#0861b:00000013
#08616:00000012
#08618:00230000
#0861a:2400002400000000
#08615:00230000
#08612:0000002400000000
#08718:13
#08715:00140000
#08717:0014
#08719:0000000000000015
#08712:0000000000002525
#08812:0000151515000000
#08819:0000252525000000
#01612:1300000000000013
#01616:00130000
#01618:0000000000130000
#0161b:00131300
#01615:00000013
#01617:13
#0261b:1300001300130000
#02618:0013000000000013
#02612:2313
#02615:00000013
#02712:0013
#02719:0000000000000013
#02716:0000000000130000
#0271b:13000013
#02812:1300000000001313
#0281b:0000131313000000
#02816:0013
#02817:23
#04812:0000000014545400
#0481a:000000000000006300000063000000000000140000540000
#04818:13001300000063000000000000540054
#04815:00130013000000000000000000000000
#0481b:00236300
#04814:00000000000000000054005400000000
#04819:000000006363000000000000
#0541a:1414000000000000
#05415:1414000000000000
#05414:0014001400140014000000000000000000000000000000000000000000000000
#05419:0014001400140014000000000000000000000000130000000000000000000000
#05413:00140014000000000000000000000000
#05418:00140014000000000000000000000000
#05412:0000000013000013
#0541b:00000013
#05417:0000000000000013
#05416:0024
#0551b:13
#05512:00130000
#05519:0000001300000000
#05514:0013001300000000
#05516:2424
#07414:0000000000000000001400140014001400000000000000000000000000000000
#07413:00000000001400140000000000000000
#07415:0000241400000000
#07419:0000000000000000001400140014001400000000000000000000000000000000
#07418:00000000001400140000000000001300
#0741a:0000241400000000
#0741b:00000013
#07417:24
#07412:24000026
#07618:0000000000130000
#0761b:00130000
#07612:00001413
#07616:0000001400000000
#0761a:00000014
#08512:13131324
#0851b:1313
#08519:0013000000000000
#08517:00130000
#08514:0000000000130000
#08516:0000000000000014
#00318:00000000120012000000001200000000
#00316:00000000001200120000120000000000
#0031a:2323
#00313:2300000000000000000000000000000000000000000000002363636363636363
#07015:0000000000000013
#07014:22
#07018:0000000026262600
#07012:00000000000000000026002600000000
#0701f:00000021
#0211a:00120000
#02117:0012
#02114:00000012
#0691a:22
#06917:0022
#00457:0000006300000000
#0045a:13
#00453:13
#0055a:0064
#00556:0000000000240000
#0065b:0000530000000053
#00657:0063
#0125b:6343
#01257:00230000
#01352:5333
#01356:00230053
#01457:5313
#0145b:00230000
#01452:0063
#01455:00000023
#0155a:00445444
#01552:34006434
#01555:0000000000240000
#01557:000000000000000000000000000000000000000000000000000000000000000000000000000000000000000000000000000000000000000000000000000000000000000000000000000000000000000000000000000000000000000000000000000000000000000000000000000000000000000000000000000000000000000000000000000000000000000000000000000000000000000000000000000000000000000000000000000000000000000000000000000000000000000000000000000000000000000000000000000000000000000000000000000000000000000000000000000000000000000000000000000000000000000000000000000000000000000000000000000000000000000000000000000000000000000000000000000000000000000000000000000000000000000000000000000000000000000000000000000000000000000000000000000000000000000000000000000000000000000000000000000000000000000000000000000000000000000000000000000000000000000000000000000000000000000000000000000000000000000000000000000000000000000000000000000000000000000000000000000000000000000000000000000000000000000000000000000000000000000000000000000000000000000000000000000000000000000000000000000000000000000000000000000000000000000000000000000000000000000000000000000000000000000000000000000000000000000000000000000000000000000000000000000000000000000000000000000000000000000000000000000000000000000000000000000000000000000000000000000000000000000000000000000000000000000000000000000000000000000000000000000000000000000000000000000000000000000000000000000000000000000000000000000000000000000000000000000000000000000000000000000000000000000000000000000000000000000000000000000000000000000000000000000000000000000000000000000000000000000000000000000000000000000000000000000000000000000000000000000000000000000000000000000000000000000000000000000000000000000000000000000000000000000000000000000000000000000000000000000000000000000000000000000000000000000000000000000000000000000000000000000000000000000000000000000000000000000000000000000000000000000000000000000000000000000000000000000000000000000000000000000000000000000000000000000000000000000000000000000000000000000000000000000000000000000000000000000000000000000000000000000000000000000000000000000000000000000000000000000000000000000000000000000000000000000000000000000000000000000000000000000000000000000000000000000000000000000000000000000000000000000000000000000000000000000000000000000000000000000000000000000000000000000000000000000000000000000000000000000000000000000000000000000000000000000000000000000000000000000000000024000000000000000000000000000000000000000000000000000000000000000000000000000000000000000000000000000000000000000000000000000000000000000000000000000000000000000000000000000000000000000000000000000000000000000000000000000000000000000000000000000000000000000000000000000000000000000000000000000000000000000000000000000000000000000000000000000000000000000000000000000000000000000000000000000000000000000000000000000000000000000000000000000000000000000000000000000000000000000000000000000000000000000000000000000000000000000000000000000000000000000000000000000000000000000000000000000000000000000000000000000000000000000000000000000000000000000000000000000000000000000000000000000000000000000000000000000000000000000000000000000000000000000000000000000000000000000000000000000000000000000000000000000000000000000000000000000000000000000000000000000000000000000000000000000000000000000000000000000000000000000000000000000000000000000000000000000000000000000000000000000000000000000000000000000000000000000000000000000000000000000000000000000000000000000000000000000000000000000000000000000000000000000000000000000000000000000000000000000000000000000000000000000000000000000000000000000000000000000000000000000000000000000000000000000000000000000000000000000000000000000000000000000000000000000000000000000000000000000000000000000000000000000000000000000000000000000000000000000000000000000000000000000000000000000000000000000000000000000000000000
#0235b:0063
#02357:0000000000230000
#02552:0000000024241400
#02557:0000000024241400
#02558:0000000000000000000000000000000000540054005400540000000000000000
#02553:0000000000000000000000000000000000540054005400540000000000000000
#02559:00000000000000000024002400000000
#02554:00000000000000000024002400000000
#0245b:53
#02456:13
#0295a:00640000
#02956:0014
#02952:0014
#0315a:00000064
#03152:00000054
#0685b:53
#06856:53
#06752:00000053
#07252:00530000
#0725b:00000063
#07256:0000002400000000
#0785a:14
#07852:14
#07856:00000053
#07859:00000015
#0005a:00120012
#00154:00120012
#0025a:00120012
#00752:0000006300000000
#00856:0000005300000000
#00852:13
#0085b:13
#00952:0054
#00956:0000000000240000
#01052:0000630000000064
#01058:0063
#0105b:0000000000000013
#01156:0000006400000000
#0175a:00000014
#01752:00000014
#0175b:6343
#01757:00230000
#0205a:14
#02052:14
#0225b:1363
#02258:00000053
#03052:53
#03057:00530000
#03054:0053
#03059:00000053
#03255:1300000000000053
#03258:13
#03452:54
#03456:0024000000000000
#03552:0000006300000000
#0355b:5300000000000053
#03352:00230000000000000000000000000000
#03657:0000001300000000
#03658:0000000000000063
#03652:0000001300000000
#0385a:64
#03856:0024000000000000
#0375b:00230000000000000000000000000000
#0425a:00540000
#04252:14
#04257:14
#04458:54000053
#04452:0053
#0445a:0024000000000000
#04958:0014000000000000
#04954:14
#0525b:63
#05256:0063
#05257:0023000000000000
#0525a:0014
#0575a:00000064
#0575b:53
#05756:0000000000000024
#0505b:0053
#05056:0014
#05152:63
#05357:53
#05352:14
#05652:5363
#05656:0023000000000000
#05857:0053
#05856:00000063
#0585a:44
#05957:53
#05956:00630000
#06052:00540000
#06056:0000002400000000
#0635a:00005444
#06356:0000000000240024
#06352:00003464
#06459:55450000
#06455:0025000000000000
#06452:34650000
#06456:0000002500000000
#0645b:0053
#06552:63
#07352:00530000
#07355:00000064
#0735a:00000064
#07457:64
#07452:64000016
#07454:0000000000000000006400640064006400000000000000000000000000000000
#07453:00000000002400240000000000000000
#07455:0000242414000000
#07459:0000000000000000006400640064006400000000000000000000000000000000
#07458:00000000002400240000000000000000
#0745a:0000242414000000
#07952:00530053
#07956:0000000000000023
#07957:63
#0795b:0063
#08052:53530000
#08056:0023000000000000
#08057:00530000
#0805b:00000063
#0815a:00000014
#08157:23
#08156:0023
#08152:00530000
#08252:14543415
#08255:0000002400000000
#0825a:00644400
#08257:000000000000000000000000000000000000000000000000000000000000000000000000000000000000000000000000000000000000000000000000000000000000000000000000000000000000000000000000000000000000000000000000000000000000000000000000000000000000000000000000000000000000000000000000000000000000000000000000000000000000000000000000000000000000000000000000000000000000000000000000000000000000000000000000000000000000000000000000000000000000000000000000000000000000000000000000000000000000000000000000000000000000000000000000000000000000000000000000000000000000000000000000000000000000000000000000000000000000000000000000000000000000000000000000000000000000000000000000000000000000000000000000000000000000000000000000000000000000000000000000000000000000000000000000000000000000000000000000000000000000000000000000000000000000000000000000000000000000000000000000000000000000000000000000000000000000000000000000000000000000000000000000000000000000000000000000000000000000000000000000000000000000000000000000000000000000000000000000000000000000000000000000000000000000000000000000000000000000000000000000000000000000000000000000000000000000000000000000000000000000000000000000000000000000000000000000000000000000000000000000000000000000000000000000000000000000000000000000000000000000000000000000000000000000000000000000000000000000000000000000000000000000000000000000000000000000000000000000000000000000000000000000000000000000000000000000000000000000000000000024000000000000000000000000000000000000000000000000000000000000000000000000000000000000000000000000000000000000000000000000000000000000000000000000000000000000000000000000000000000000000000000000000000000000000000000000000000000000000000000000000000000000000000000000000000000000000000000000000000000000000000000000000000000000000000000000000000000000000000000000000000000000000000000000000000000000000000000000000000000000000000000000000000000000000000000000000000000000000000000000000000000000000000000000000000000000000000000000000000000000000000000000000000000000000000000000000000000000000000000000000000000000000000000000000000000000000000000000000000000000000000000000000000000000000000000000000000000000000000000000000000000000000000000000000000000000000000000000000000000000000000000000000000000000000000000000000000000000000000000000000000000000000000000000000000000000000000000000000000000000000000000000000000000000000000000000000000000000000000000000000000000000000000000000000000000000000000000000000000000000000000000000000000000000000000000000000000000000000000000000000000000000000000000000000000000000000000000000000000000000000000000000000000000000000000000000000000000000000000000000000000000000000000000000000000000000000000000000000000000000000000000000000000000000000000000000000000000000000000000000000000000000000000000000000000000000000000000000000000000000000000000000000000000000000000000000000000000000000000000000530000000000000000000000000000000000000000000000000000000000000000000000000000000000000000000000000000000000000000000000000000000000000000000000000000000000000000000000000000000000000000000000000000000000000000000000000000000000000000000000000000000000000000000000000000000000000000000000000000000000000000000000000000000000000000000000000000000000000000000000000000000000000000000000000000000000000000000000000000000000000000000000000000000000000000000000000000000000000000000000000000000000000000000000000000000000000000000000000000000000000000000000000000000000000000000000000000000000000000000000000000000000000000000000000000000000000000000000000000000000000000000000000000000000000000000000000000000000000000000000000000000000000000000000000000000000000000000000000000000000000000000000000000000000000000000000000000000000000000000000000000000000000000000000000000000000000000000000000000000000000000000000000000000000000000000000000000000000000000000000
#08658:00531300
#0865a:1400002400000000
#08655:00631300
#08652:0000002400000000
#08656:00000062
#08758:53
#08755:00640000
#08757:0054
#08852:0055
#08855:00000013
#08858:00000013
#08859:0055
#08957:00120000
#01652:5333
#01656:00230000
#02752:0053
#02756:0000000000230000
#02852:63
#02857:13
#0285b:0053
#02652:0053
#02655:00000063
#0545a:2424140000000000
#05455:2424140000000000
#05454:0064006400640064000000000000000000000000000000000000000000000000
#05459:0064006400640064000000000000000000000000000000000000000000000000
#05453:00240024000000000000000000000000
#05458:00240024000000000000000000000000
#05452:0063
#0555b:53
#0765b:00630000
#07652:00000053
#07656:0000002400000000
#0775b:00630000
#0835b:00530063
#08357:0000000000000023
#08356:53
#08352:0063
#0845b:63630000
#08457:0023000000000000
#08456:00530063
#08552:23000014
#0855b:0023
#08557:00530000
#0455b:1363
#04555:00000063
#06259:0054005400540054005400540054005400000000000000000000000000000000
#06258:00240024002400240000000000000000
#0625a:2424242400000000
#06653:0064006400640064006400640064006400000000000000000000000000000000
#06652:2424242400000000
#06654:00240024002400240000000000000000
#07058:00000016
#04652:13530000
#03957:0000000000000053
#03956:0000005300000000
#004370:0000001300000000
#0043b0:00000023
#0053a0:00001424
#005360:0000000000540000
#0063b0:00130000
#006370:0000002300000000
#006370:0013
#0063b0:0000000000230000
#0063b0:0000000000000013
#007370:0033230000000000
#007320:0000001300000000
#007360:0000000000332300
#008360:0000001300000000
#008320:00000023
#009320:00001424
#009360:0000000000540000
#010320:00130000
#010350:0000002300000000
#010380:0013
#0103b0:0000000000000023
#010321:0000000000000014
#011361:0024000000000000
#011361:0000001400000000
#0113a1:0000000000240000
#0123b1:1323
#012371:00530000
#013321:1323
#013361:00530000
#013361:00000013
#014321:23
#014370:1323
#0143b0:00530000
#014321:0013
#014351:00000053
#015321:24
#0153a1:00001424
#015371:000000000000000000000000000000000000000000000000000000000000000000000000000000000000000000000000000000000000000000000000000000000000000000000000000000000000000000000000000000000000000000000000000000000000000000000000000000000000000000000000000000000000000000000000000000000000000000000000000000000000000000000000000000000000000000000000000000000000000000000000000000000000000000000000000000000000000000000000000000000000000000000000000000000000000000000000000000000000000000000000000000000000000000000000000000000000000000000000000000000000000000000000000000000000000000000000000000000000000000000000000000000000000000000000000000000000000000000000000000000000000000000000000000000000000000000000000000000000000000000000000000000000000000000000000000000000000000000000000000000000000000000000000000000000000000000000000000000000000000000000000000000000000000000000000000000000000000000000000000000000000000000000000000000000000000000000000000000000000000000000000000000000000000000000000000000000000000000000000000000000000000000000000000000000000000000000000000000000000000000000000000000000000000000000000000000000000000000000000000000000000000000000000000000000000000000000000000000000000000000000000000000000000000000000000000000000000000000000000000000000000000000000000000000000000000000000000000000000000000000000000000000000000000000000000000000000000000000000000000000000000000000000000000000000000000000000000000000000000000000000000000000000000000000000000000000000000000000000000000000000000000000000000000000000000000000000000000000000000000000000000000000000000000000000000000000000000000000000000000000000000000000000000000000000000000000000000000000000000000000000000000000000000000000000000000000000000000000000000000000000000000000000000000000000000000000000000000000000000000000000000000000000000000000000000000000000000000000000000000000000000000000000000000000000000000000000000000000000000000000000000000000000000000000000000000000000000000000000000000000000000000000000000000000000000000000000000000000000000000000000000000000000000000000000000000000000000000000000000000000000000000000000000000000000000000000000000000000000000000000000000000000000000000000000000000000000000000000000000000000000000000000000000000000000000000000000000000000000000000000000000000000000000000000000000000000000000000000000000000000000000000000000000000000000000000000000000000000000000000000054000000000000000000000000000000000000000000000000000000000000000000000000000000000000000000000000000000000000000000000000000000000000000000000000000000000000000000000000000000000000000000000000000000000000000000000000000000000000000000000000000000000000000000000000000000000000000000000000000000000000000000000000000000000000000000000000000000000000000000000000000000000000000000000000000000000000000000000000000000000000000000000000000000000000000000000000000000000000000000000000000000000000000000000000000000000000000000000000000000000000000000000000000000000000000000000000000000000000000000000000000000000000000000000000000000000000000000000000000000000000000000000000000000000000000000000000000000000000000000000000000000000000000000000000000000000000000000000000000000000000000000000000000000000000000000000000000000000000000000000000000000000000000000000000000000000000000000000000000000000000000000000000000000000000000000000000000000000000000000000000000000000000000000000000000000000000000000000000000000000000000000000000000000000000000000000000000000000000000000000000000000000000000000000000000000000000000000000000000000000000000000000000000000000000000000000000000000000000000000000000000000000000000000000000000000000000000000000000000000000000000000000000000000000000000000000000000000000000000000000000000000000000000000000000000000000000000000000000000000000000000000000000000000000000000000000000000000000000000000000000
#015320:00001424
#015350:0000000000540000
#016320:1323
#016360:00530000
#0173b0:1323
#017370:00530000
#018320:1323000000000000
#018350:0000132300000000
#018380:0000000013230000
#0183b0:0000000000001323
#022380:0000132300000000
#0223b0:0013
#022380:0000000000230000
#022380:00000013
#0223b0:0000000000000023
#0233b0:1323000000000000
#023351:0013230000000000
#023380:0000132300000000
#023321:0000001323000000
#0233b0:00001323
#023370:0000000000530000
#0243b0:13
#024370:0000332300000000
#025320:1424000000000000
#0253a0:0000142400000000
#025320:0000000014542400
#025330:0000000000000000000000000000000000540054005400540000000000000000
#025340:00000000000000000054005400000000
#025371:0000000014542400
#025381:0000000000000000000000000000000000540054005400540000000000000000
#025391:00000000000000000054005400000000
#026321:1323000000000000
#026351:0000132300000000
#026321:0013
#026351:0000000000230000
#026351:00000013
#026321:0000000000000023
#027321:1323000000000000
#027380:0013230000000000
#027351:0000132300000000
#0273b0:0000001323000000
#027321:00001323
#027361:0000000000530000
#028321:13
#028361:0000332300000000
#0283b1:0013
#028371:0000000000003323
#0293a1:00140000
#029361:0024
#030321:13
#030341:00230000
#030370:00130000
#030390:0023
#030341:0013
#030361:00000023
#030390:00000013
#0313b0:23
#0313a0:00000014
#032380:23
#031321:00000014
#032351:23
#032351:0000000000000013
#033321:00530000000000000000000000000000
#033351:00230000
#034321:14240000
#034361:0054000000000000
#034321:0000000000001323
#0353b1:13
#035371:0000002300000000
#035320:0000001300000000
#035360:0000000000332300
#0353b0:0000000000000013
#036370:0033332300000000
#036380:0000000000000013
#0373b0:00530000000000000000000000000000
#037380:00230000
#0383a0:14240000
#038360:0054000000000000
#039390:1323000000000000
#039321:0013230000000000
#0393b0:0000132300000000
#039361:0000001300000000
#039321:0000000000230000
#039371:0000000000000013
#0403b1:0023000000000000
#0423a1:00140000
#042381:0024
#044381:14240000
#0443a1:0054000000000000
#044321:0013
#044351:00000023
#044380:00000013
#0453b0:23
#0453b0:0013
#045380:00000023
#045351:00000013
#046321:23
#046321:00130000
#046351:0023
#046380:0000000013230000
#046350:0000000000001323
#047380:1323000000000000
#047350:0000132300000000
#0503b0:0013
#050370:00000023
#051320:13
#051360:00230000
#0513b0:0013
#051390:0000000000230000
#051361:0000000000130000
#051341:00000023
#051390:00000013
#051370:0000000000000023
#051341:0000000000000013
#052321:23
#0523b0:13230000
#052370:0053000000000000
#052360:0013
#052320:00000023
#053370:13
#0533b0:00230000
#0533a0:0000000014240000
#053320:0000000000001424
#0543a0:1454240000000000
#054390:0054005400540054000000000000000000000000000000000000000000000000
#054380:00540054000000000000000000000000
#054351:1454240000000000
#054341:0054005400540054000000000000000000000000000000000000000000000000
#054331:00540054000000000000000000000000
#054321:0013
#054361:00000023
#0553b1:13
#055371:00230000
#055321:0013
#055341:0000000000230000
#055370:0000000000130000
#055390:00000023
#055341:00000013
#055361:0000000000000023
#055390:0000000000000013
#0563b0:23
#056321:13230000
#056361:0053000000000000
#056321:0013
#056361:00000023
#0573b1:13
#057371:00230000
#0573a1:00000014
#057361:0000000000000054
#0583a1:24
#058371:0013
#0583b1:00000023
#058360:00000013
#059320:23
#059371:13
#0593b1:00230000
#059360:00130000
#059320:0023
#060320:00142400
#060360:0000005400000000
#0613b0:0000000013230000
#061351:0000000000132300
#061380:0000000000001323
#061321:0000000000000013
#062321:23
#0623a0:1454545424000000
#062390:0054005400540054005400540054005400000000000000000000000000000000
#062380:00540054005400540000000000000000
#0633a0:00001424
#063360:0000000000540000
#063321:00000014
#063361:0000000000000054
#064321:24
#064390:15250000
#064350:0055000000000000
#064321:00152500
#064361:0000005500000000
#0643b0:0013
#064370:00000023
#065320:13
#065360:00230000
#065360:0013
#065320:00000023
#065371:00000013
#0663b1:23
#066320:1454545424000000
#066330:0054005400540054005400540054005400000000000000000000000000000000
#066340:00540054005400540000000000000000
#067350:0000000013230000
#067381:0000000000132300
#067320:00000013
#068360:33
#068320:00230000
#0683b1:13
#068371:00230000
#070341:12
#070321:0026
#0713b1:1323000000000000
#071321:00130000
#071351:0000002300000000
#0713b1:0013
#071381:0000000000230000
#071321:00000013
#071351:0000000000000023
#071380:0000000000000013
#0723b0:23
#072351:13
#072321:0023000000000000
#072380:0013000000000000
#0723b0:00230000
#072321:00132400
#072361:0000005400000000
#0723b1:00000013
#073371:3323000000000000
#073321:00130000
#073361:0000000033230000
#0733a1:00000014
#073371:0000000000000024
#073350:00000014
#073320:0000000000000024
#074320:14
#074350:0024000000000000
#074371:14
#0743a1:0024000000000000
#074351:0000145424000000
#074341:0000000000000000005400540054005400000000000000000000000000000000
#074331:00000000005400540000000000000000
#0743a0:0000145424000000
#074390:0000000000000000005400540054005400000000000000000000000000000000
#074380:00000000005400540000000000000000
#075320:1323000000000000
#075380:00130000
#0753b0:0000002300000000
#075350:0013
#075320:0000000000230000
#0753b0:00000013
#075380:0000000000000023
#075351:0000000000000013
#076321:23
#076380:13
#0763b0:0023000000000000
#076351:0013000000000000
#076321:00230000
#0763b0:00130000
#076360:0000005400000000
#0763a0:0024
#076320:00000013
#077360:3323000000000000
#0773b0:00130000
#077370:0000000033230000
#078360:00000013
#078320:0000000000000033
#079320:23
#079371:13
#0793b1:0033230000000000
#079320:00130000
#079360:0000003323000000
#0793b1:0013
#079371:0000000000332300
#079320:00000013
#079360:0000000000000033
#080320:33330000
#080360:0033000023000000
#080371:00130000
#0803b1:0023
#0803b1:00000013
#080371:0000000000000053
#081371:33
#0813b1:0023000000000000
#081321:0000130000230000
#081361:0000005333000000
#082321:00142400
#082351:0000005400000000
#0823a0:00142400
#082370:000000000000000000000000000000000000000000000000000000000000000000000000000000000000000000000000000000000000000000000000000000000000000000000000000000000000000000000000000000000000000000000000000000000000000000000000000000000000000000000000000000000000000000000000000000000000000000000000000000000000000000000000000000000000000000000000000000000000000000000000000000000000000000000000000000000000000000000000000000000000000000000000000000000000000000000000000000000000000000000000000000000000000000000000000000000000000000000000000000000000000000000000000000000000000000000000000000000000000000000000000000000000000000000000000000000000000000000000000000000000000000000000000000000000000000000000000000000000000000000000000000000000000000000000000000000000000000000000000000000000000000000000000000000000000000000000000000000000000000000000000000000000000000000000000000000000000000000000000000000000000000000000000000000000000000000000000000000000000000000000000000000000000000000000000000000000000000000000000000000000000000000000000000000000000000000000000000000000000000000000000000000000000000000000000000000000000000000000000000000000000000000000000000000000000000000000000000000000000000000000000000000000000000000000000000000000000000000000000000000000000000000000000000000000000000000000000000000000000000000000000000000000000000000000000000000000000000000000000000000000000000000000000000000000000000000000000000000000000000000054000000000000000000000000000000000000000000000000000000000000000000000000000000000000000000000000000000000000000000000000000000000000000000000000000000000000000000000000000000000000000000000000000000000000000000000000000000000000000000000000000000000000000000000000000000000000000000000000000000000000000000000000000000000000000000000000000000000000000000000000000000000000000000000000000000000000000000000000000000000000000000000000000000000000000000000000000000000000000000000000000000000000000000000000000000000000000000000000000000000000000000000000000000000000000000000000000000000000000000000000000000000000000000000000000000000000000000000000000000000000000000000000000000000000000000000000000000000000000000000000000000000000000000000000000000000000000000000000000000000000000000000000000000000000000000000000000000000000000000000000000000000000000000000000000000000000000000000000000000000000000000000000000000000000000000000000000000000000000000000000000000000000000000000000000000000000000000000000000000000000000000000000000000000000000000000000000000000000000000000000000000000000000000000000000000000000000000000000000000000000000000000000000000000000000000000000000000000000000000000000000000000000000000000000000000000000000000000000000000000000000000000000000000000000000000000000000000000000000000000000000000000000000000000000000000000000000000000000000000000000000000000000000000000000000000000000000000000000000000000000000000000000000000000000000000000000000000000000000000000000000000000000000000000000000000000000000000000000000000000000000000000000000000000000000000000000000000000000000000000000000000000000000000000000000000000000000000000000000000000000000000000000000000000000000000000000000000000000000000000000000000000000000000000000000000000000000000000000000000000000000000000000000000000000000000000000000000000000000000000000000000000000000000000000000000000000000000000000000000000000000000000000000000000000000000000000000000000000000000000000000000000000000000000000000000000000000000000000000000000000000000000000000000000000000000000000000000000000000000000000000000000000000000000000000000000000000000000000000000000000000000000000000000000000000000000000000000000000000000000000000000000000000000000000000000000000000000000000000000000000000000000000000000000000000000000000000000000000000000000000000000000000000000000000000000000000000000000000000000000000
#082370:00000013
#0823b0:0000000000000033
#0833b0:23
#083361:13
#083321:0033230000000000
#0833b0:00130000
#083370:0000003323000000
#083321:0013
#083361:0000000000332300
#0833b0:00000013
#083370:0000000000000033
#0843b0:33330000
#084370:0033000023000000
#084361:00130000
#084321:0023
#084361:00000013
#084321:0000000000000053
#085321:33
#085361:0023000000000000
#085371:0000130000230000
#0853b1:0000005333000000
#086381:00132300
#0863a1:0000005400000000
#086350:00132300
#086320:0000005400000000
#086360:00000012
#087320:22
#087381:13
#0873b1:00230000
#087350:00140000
#087320:0024
#087371:0014
#087391:00000025
#088321:0015
#088351:00000023
#088390:0015
#088380:00000023
#089370:12220000
#003930:00000013
#004930:23
#005920:13
#005960:0023000000000000
#0059b1:0013000000000000
#005971:00230000
#0069b1:13
#006971:0023000000000000
#006920:0013000000000000
#006960:00230000
#0079b0:00000013
#0089b0:23
#0099b0:13
#009970:0023000000000000
#009921:0013000000000000
#009961:00230000
#010921:13
#010961:0023000000000000
#0109b0:0013000000000000
#010970:00230000
#019920:00000014
#019950:0000000000000054
#020920:24
#020980:0000000013000023
#0299b0:00000013
#029970:0000000000000053
#0309b0:23
#033960:0013
#033920:0000000000230000
#033971:0000000000130000
#0339b1:00000023
#034961:0013
#034921:0000000000230000
#034970:0000000000130000
#0349b0:00000023
#037970:0013
#0379b0:0000000000230000
#037961:0000000000130000
#037921:00000023
#038971:0013
#0389b1:0000000000230000
#038960:0000000000130000
#038920:00000023
#0389b1:00000013
#038971:0000000000000023
#038920:0000000000000013
#039960:23
#0409a0:0014
#040970:00000024
#040921:00000014
#041951:24
#041971:0014
#0419a1:00000024
#041950:00000014
#042920:24
#042920:0014
#042950:00000024
#043950:14
#043920:00240000
#0489b0:00132300
#048980:0000005300000000
#048921:0000000014542400
#048941:00000000000000000054005400000000
#0489a0:0000000000001454
#048980:00000000000000000000000000540054
#0499a0:24
#049920:0000000014240000
#0499a1:0000000000142400
#058921:00142400
#058961:0000005400000000
#0629b1:0000000000130000
#062971:00000023
#062960:0000000000130000
#062920:00000023
#063920:0013000000000000
#063960:00230000
#063971:0013000000000000
#0639b1:00230000
#066981:0013000000000000
#0669b1:00230000
#0669b1:0000000000130000
#066971:00000023
#066960:0000000000130000
#066920:00000023
#067920:0013000000000000
#067960:00230000
#067971:0013000000000000
#0679b1:00230000
