This file was generated by Ched 2.7.0.0.
#TITLE ""
#ARTIST ""
#DESIGNER ""
#DIFFICULTY 0
#PLAYLEVEL
#SONGID ""
#WAVE ""
#WAVEOFFSET 0
#JACKET ""
#REQUEST "ticks_per_beat 480"
#00002: 4
#BPM01: 165
#00008: 01
#TIL00: ""
#VOLUME: ""
#HISPEED 00
#MEASUREHS 00
#0041a:14
#00412:14
#00415:0000130000000013
#00418:0000001300000000
#00018:13130013
#00015:0000001300130013
#0011b:13130000
#00115:0000001300130000
#00118:00000013
#00112:0000000000000013
#00218:13130013
#00212:0000001300130013
#0051b:1313
#00515:0013000000000013
#00518:00130000
#00512:0000001300000000
#0061b:1313
#00615:0013000000130023
#00618:00130013
#00612:0000001300000000
#00812:14
#0081a:14
#00818:0000130000000013
#00815:0000001300000000
#00810:41
#00912:1313
#00918:0013000000000013
#00915:00130000
#0091b:0000001300000000
#01012:1313
#01018:0013000000130000
#01015:00130013
#0101b:0000001300000023
#01215:13000013
#01212:00130000
#01712:00000013
#0171b:13000013
#01718:00130000
#01318:13000013
#0131b:00130000
#01412:13000013
#01415:00130000
#01818:13130000
#01815:0013001300000000
#01819:00001313
#01814:0000000000130013
#02215:0013001300000000
#02218:00130013
#0221b:2313
#02212:0000000000130013
#02210:41
#0231b:13
#02315:0013000000000000
#02318:00131300
#02312:0000001300000013
#02514:0014000000000000
#02512:0000001400000000
#0251a:2414
#02518:00240000
#02618:0013001300000000
#02615:00130013
#02612:2313
#0261b:0000000000130013
#02712:13
#02718:0013000000000000
#02715:00131300
#0271b:0000001300000013
#0241a:14
#02412:0014
#02913:14
#02919:0014000000001400
#03012:13
#03014:00140000
#03016:0015
#03018:00000016
#03112:2600001400000000
#03118:0026000014000000
#03114:0000000000140000
#0311a:00000014
#0321a:0014
#03212:0014
#03215:00000013
#03218:0000000000000013
#03210:0041
#03217:00620000
#03315:0000001300130000
#0331b:0013
#03318:00000013
#03312:0000000000000013
#0341b:1313
#03415:0000001300130000
#03418:00000013
#03412:0000000000000013
#0351b:13
#03515:0013002300000000
#03518:00130013
#03512:0000000000000023
#03615:0000000000000013
#0361b:00000013
#03718:0000001300130000
#03712:0013
#03715:00000013
#0371b:0000000000000013
#03812:1313
#03818:0000001300130000
#03815:00000013
#0381b:0000000000000013
#03912:13
#03918:0013000000000023
#03915:00130013
#0391b:0000002300000000
#04012:0013
#04010:0041
#04013:000000000000005300000053
#04014:000000005353
#04015:00000053
#04215:0013
#04216:00140000
#04214:000000000000005300000053
#04213:000000005353
#04212:00000053
#0421b:53
#0411b:0013
#04116:00140000
#04112:53
#0411a:000000000000005300000053
#04119:000000005353
#04118:00000053
#0441b:0013
#04418:00000013
#04412:23
#0461b:0000130000130013
#04612:00130000
#04615:00001313
#04512:00130000
#0451b:00131300
#04518:00000013
#04714:13130000
#0471a:0013001300000000
#04713:00002424
#04719:0000000000240024
#05015:0000000000130013
#05018:00000013
#05016:23
#05012:00230000
#0501b:0023
#05010:0041
#0511b:1300000013000033
#05112:0013001300000000
#05118:0000130000331300
#05212:0000001400000000
#0521b:13
#0521a:0014
#05314:0000000000140000
#05312:1400000000000014
#0531a:0024
#05318:00000024
#0541a:14
#05418:0000000000130013
#05415:00000013
#05412:0023
#05512:1300000013000033
#0551b:0013001300000000
#05515:0000130000331300
#05714:00001414
#05718:1400000000140000
#05712:00140000
#0571a:0000001400000000
#0581a:00140000
#05812:0013
#05814:00000014
#05916:15
#05918:0000160000260000
#0591a:0000000000000014
#05912:0026
#05612:1314
#0561a:0000001400000000
#05618:00000014
#05614:0000000000000014
#06015:0000000000130013
#06018:0014000000001300
#06014:14
#06012:00140000
#0601b:0013
#0601f:0011
#0611b:1313
#06112:0013001300000013
#06118:00130013
#06115:0000000000130000
#06218:13
#06214:0014
#06212:00000000000000000000545454000000
#06318:14
#06312:0026
#06314:00000026
#0631a:00005454540000000000000000000000
#06412:0013
#06418:0000260000130013
#06415:00000013
#06416:26
#06512:1313
#0651b:0013001300000013
#06515:00130013
#06518:0000000000130000
#06615:13
#06618:0014
#06613:0033000000000000
#0661a:00000000000000000000545454000000
#06718:0013
#06715:0000000000130000
#0671b:00000013
#06714:14
#06712:00005454540000000000000000000000
#07018:0000000000000013
#07014:22
#07012:00000024
#0701a:00000024
#0701f:00000021
#07115:1300000013000013
#07118:0013000000000000
#07112:00130013
#0711b:0000001300130000
#07110:00000041
#0721a:0000000000140000
#07218:13
#0721b:0013000000000000
#07215:00130014
#07415:0000000000000013
#07414:24
#0741a:0024000000002400
#07412:00240024
#07518:1300000013000013
#07515:0013000000000000
#0751b:00130013
#07512:0000001300130000
#07317:00140000
#07312:00000024
#07318:0000000000000024
#07615:13
#07612:0013000000140000
#07618:00130000
#0761a:00000014
#07812:00230013
#07818:0000000023000013
#07815:0000002300000000
#0781b:0000000000230000
#0781a:24
#07915:1300000013000033
#07918:0013000000000000
#07912:00130013
#0791b:0000001300130000
#08015:13000014
#08012:0033130000000000
#0801a:0000000000140000
#08118:0014000000000000
#08112:00140024
#0811a:0000000000140000
#08117:0000000000000024
#0821b:00000013
#08215:0000000000000013
#08213:24
#08218:0024000000000000
#08214:00240000
#08318:1300000013000013
#08315:0013000000000000
#0831b:00130013
#08312:0000001300130000
#08814:0014001400000000
#08818:00141400
#01612:13000013
#01615:00130000
#02812:14
#0281a:0014
#04316:00140000
#04318:000000232300
#04315:530000000000002300230000
#0431b:000000000000000000000023
#07714:1400140000000024
#07718:0014000000002400
#0771a:0014
#07712:0000000000140000
#08415:13
#08412:0013000000140000
#08417:00000014
#08418:00230000
#08514:0014000000000024
#0851a:00140024
#08512:0000000000140000
#08612:00000014
#08618:24
#08714:14
#08716:00140000
#08718:0014
#08712:0000000000002424
#0871a:0000000000002424
#00718:00130000
#00715:0000002300000000
#01115:00130000
#01118:0000002300000000
#0211b:00130000
#02117:0013
#02113:00000013
#0691a:22
#06917:0022
#0031a:24
#00316:00000000246464646400646464000000
#01919:24240000
#01913:0024002400000000
#0191a:00002424
#01912:0000000000240000
#04812:24240000
#04818:0024000000000000
#0491a:00000023
#01518:23232300
#01515:0023002300000000
#08915:00530000
#00458:0000006300000000
#0055b:0063
#00655:0000000000000053
#00755:0000005300000000
#00752:00000013
#00855:0000005300000000
#00952:0053
#0105b:0000000000000063
#01158:0000005300000000
#01255:63
#01252:00230000
#0205a:14
#02358:0053
#0255a:0064
#02557:00000014
#02755:0063
#0245a:54
#02452:0064
#02953:0014
#02959:00000014
#0315a:00000064
#03258:0000000000000063
#0345b:63
#03555:0000005300000000
#03552:0000000000000063
#03654:0000001400000000
#03655:0000000000000053
#03852:53
#0395b:0000006300000000
#03958:0000000000000053
#0445b:0063
#04458:00000023
#04452:63
#04852:0014
#0545a:64
#05458:00140000
#05352:64
#05754:00000064
#0585a:00140000
#05852:14
#0515b:0053
#05158:00000053
#0525b:53
#0525a:0054
#05552:0063
#05555:00000063
#05652:63
#06258:63
#06254:0054
#06655:63
#06658:0064
#0675b:00000063
#06754:64
#07455:0014
#07452:00640000
#07255:00630064
#07357:00540000
#07658:00530000
#07952:00000063
#08055:63000054
#08052:00630000
#08152:00640000
#08254:00640000
#08252:0014
#08458:00530000
#08457:00000064
#08858:0064
#01558:0063
#01358:53
#0135b:00230000
#01452:53
#01455:00230000
#01652:53
#01655:00230000
#0175b:63
#01758:00230000
#02852:64
#0285a:0054
#0455b:0063
#04558:00000023
#06358:54
#06858:13
#0785a:14
#0855a:00540000
#08656:00140000
#08658:54
#06052:00540000
#004380:0000001300000000
#0043b0:00000023
#0053b0:0013
#005380:00000023
#006350:0000000000000013
#007320:0023000000000000
#007350:0000001300000000
#007320:0000000000332300
#008350:0000001300000000
#008320:00000023
#009320:0013
#009350:00000023
#0103b0:0000000000000013
#011380:0023000000000000
#011380:0000001300000000
#0113b0:00000023
#012350:1323
#012320:00330000
#013380:1323
#0133b0:00330000
#014320:1323
#014350:00330000
#015380:0013
#0153b0:00000023
#016320:1323
#016350:00330000
#0173b0:1323
#017380:00330000
#0193a0:00000014
#0203a0:24
#023380:0013
#0233b0:00000023
#0243a0:14
#024370:0000343424000000
#024321:0014
#024351:0000000000003434
#025351:24
#0253a1:0014
#025371:00000024
#027351:0013
#027321:00000023
#028321:14
#028351:0000343424000000
#0283a0:0014
#028370:0000000000003434
#029370:24
#029330:00142400
#0313a0:00000014
#032380:24
#032380:0000000000000013
#0333b0:00230000
#0343b0:13
#034380:00230000
#035350:0000001300000000
#035320:0000000000230000
#035320:0000000000000013
#036340:0034342400000000
#036350:0000000000000013
#037320:00230000
#038320:13
#038350:00230000
#0393b0:0000001300000000
#039380:0000000000230000
#039380:0000000000000013
#0403b0:00230000
#044320:13
#044350:00230000
#0443b0:0013
#044380:00000033
#0453b0:23
#0453b0:0013
#045380:00000033
#0463b0:23
#048320:00142400
#0513b0:0000000013000033
#051380:0000000000333300
#0523b0:33
#052380:00230000
#0523a0:0014
#052360:0000000000003434
#053360:24
#053321:14
#053361:00240000
#0543a1:14
#054381:00240000
#055321:0000000013000033
#055351:0000000000333300
#056321:33
#056351:00230000
#057341:00000014
#058321:24
#060321:00140000
#060341:0024
#062381:13
#0623b1:00230000
#066351:13
#066331:0033000000000000
#066321:00230000
#0673b1:00000013
#068381:23
#072351:00130000
#072321:0023
#072351:00000014
#073321:3434240000000000
#073370:00140000
#0733a0:0000000034342400
#074320:00140000
#074350:0024
#076380:00130000
#0763b0:0023
#079320:00000013
#079350:0000000000000033
#080350:3323
#080320:0033330000000000
#080350:00000014
#081320:24
#081320:00140000
#081350:0024
#082340:00140000
#082320:0024
#084380:00130000
#0843b0:0023
#084370:00000014
#0853a0:24
#0853a0:00140000
#085370:0024
#086380:14
#086360:00240000
#088380:0014
#0883a0:00000024
#089350:13230000
#003960:000000000000000000000000000000000000000000000000000000000000000000000000000000000000000000000000000000000000000000000000000000000000000000000000000000000000000000000000000000000000000000000000000000000000000000000000000000000000000000000000000000000000000000000000000000000000000000000000000000000000000000000000000000000000000000000000000000000000000000000000000000000000000000000000000000000000000000000000000000000000000000000000000000000000000000000000000000000000000000000000000000000000000000000000000000000000000000000000000000000000000000000000000000000000000000000000000000000000000000000000000000000000000000000000000000000000000000000000000000000000000000000000000000000000000000000000000000000000000000000000000000000000000000000000000000000000000000000000000000000000000000000000000000000000000000000000000000000000000000000000000000000000000000000000000000000000000000000000000000000000000000000000000000000000000000000000000000000000000000000000140000000000000000000000000000000000000000000000000000000000000000000000000000000000000000000000000000000000000000000000000000000000000000000000000000000000000000000000000000000000000000000000000000000000000000000000000000000000000000000000000000000000000000000000000000000000000000000000000000000000000000000000000000000000000000000000000000000000000000000000000000000000000000000000000000000000000000000000000000000000000000000000000000000000000000000000000000000000000000000000000000000000000000000000000000000000000000000000000000000000000000000000000000000000000000000000000000000000000000000000000000000000000000000000000000000000000000000000000000000000000000000000000000000000000000000000000000000000000000000000000000000000000000000000000000000000000000000000000000000000000000000000000000000000000000000000000000000000000000000000000000000000000000000000000000000000000000000000000000000000000000000000000000000000000000000000000000000000000000000000000000000000000000000000000000000000000000000000000000000000000000000000000000000000000000000000000000000000000000000000000000000000000000000000000000000000000000000000000000000000000000000000000000000000000000000000000000000000000000000000000000000000000000000000000000000000000000000000000000000000000000000000000000000000000000000000000000000000000000000000000000000000000000000000000000000000000000000000000000000000000000000000000000000000000000000000000000000000000000000000000000000000000000000000000000000000000000000000000000000000000000000000000000000000000000000000000000000000000000000000000000000000000000000000000000000000000000000000000000000000000000000000000000000000000000000000000000000000000000000000000000000000000000000000000000000000000000000000000000000000000000000000000000000000000000000000000000000000000000000000000000000000000000000000000000000000000000000000000000000000000000000000000000000000000000000000000000000000000000005454240000000000000000000000000000000000000000000000000000000000000000000000000000000000000000000000000000000000000000000000000000000000000000000000000000000000000000000000000000000000000000000000000000000000000000000000000000000000000000000000000000000000000000000000000000000000000000000000000000000000000000000000000000000000000000000000000000000000000000000000000000000000000000000000000000000000000000000000000000000000000000000000000000000000000000000000000000000000000000000000000000000000000000000000000000000000000000000000000000000000000000000000000000000000000000000000000000000000000000000000000000000000000000000000000000000000000000000000000000000000000000000000000000000000000000000000000000000000000000000000000000000000000000000000000000000000000000000000000000000000000000000000000000000000000000000000000000000000000000000000000000000000000000000000000000000000000000000000000000000000000000000000000000000000000000000000000000000000000000000000
#040920:000000000000000000000000000000000000000000000000000000000000000000000000000000000000000000000000000000000000000000000000000000000000000000000000000000000000000000000000000000000000000000000000000000000000000000000000000000000000000000000000000000000000000000000000000000000000000000000000000000000000000000000000000000000000000000000000000000000000000000000000000000000000000000000000000000000000000000000000000000000000000000000000000000000000000000000000000000000000000000000000000000000000000000000000000000000000000000000000000000000000000000000000000000000000000000000000000000000000000000000000000000000000000000000000000000000000000000000000000000000000000000000000000000000000000000000000000000000000000000000000000000000000000000000000000000000000000000000000000000000000000000000000000000000000000000000000000000000000000000000000000000000000000000000000000000000000000000000000000000000000000000000000000000000000000000000000000000000000000000000000000000000000000000000000000000000000000000000000000000000000000000000000000000000000000000000000000000000000000000000000000000000000000000000000000000000000000000000000000000000000000000000000000000000000000000000000000000000000000000000000000000000000000000000000000000000000000000000000000000000000000000000000000000000000000000000000000000000000000000000000000000000000000000000000000000000000000000000000000000000000000000000000000000000000000000000000000000000000000000000000000000000000000000000000000000000000000000000000000000000000000000000000000000000000000000000000000000000000000000000000000000000000000000000000000000000000000000000000000000000000000000000000000000000000000000000000000000000000000000000000000000000000000000000000000000000000000000000000000000000000000000000000000000000000000000000000000000000000000000000000000000000000000000000000000000000000000000000000000000000000000000000000000000000000000000000000000000000000000000000000130000000000000000000000000000000000000000000000000000000000000000000000000000000000000000000000000000000000000000000000000000000000000000000000000000000000000000000000000000000000000000000000000000000000000000000000000000000000000000000000000000000000000000000000000000000000000000000000000000000000000000000000000000000000000000000000000000000000000000000000000000000000000000000000000000000000000000000000000000000000000000000000000000000000000000000000000000000000000000000000000000000000000000000000000000000000000000000000000000000000000000000000000000000000000000000000000000000000000000000000000000000000000000000000000000000000000000000000000000000000000000000000000000000000000000000000000000000000000000000000000000000000000000000000000000000000000000000000000000000000000000000000000000000000000000000000000000000000000000000000000000000000000000000000000000000000000000000000000000000000000000000000000000000000000000000000000000000000000000000000000000000000000000000000000000000000000000000000000000000000000000000000000000000000000000000000000000000000000000000000000000000000000000000000000000000000000000000000000000000000000000000000000000000000000000000000000000000000000000000000000000000000000000000000000000000000000000000000000000000000000000000000000000000000000000000000000000000000000000000000000000000000000000000000000000000000000000000000000000000000000000000000000000000000000000000000000000000000000000000000000000000000000000000000000000000000000000000000000000000000000000000000000000000000000000000000000000000000000000000000000000000000000000000000000000000000000000000000000000000000000000000000000000000000000000000000000000000000000000000000000000000000000000000000000000000000000000000000000000000000000000000000000000000000000000000000000000000000000000000000000000000000000000000000000000000000000000000000000000000000000000000000000000000000000000000000000000000000000000005353
#040950:00000053
#041920:23
#0419b0:000000000000000000000000000000000000000000000000000000000000000000000000000000000000000000000000000000000000000000000000000000000000000000000000000000000000000000000000000000000000000000000000000000000000000000000000000000000000000000000000000000000000000000000000000000000000000000000000000000000000000000000000000000000000000000000000000000000000000000000000000000000000000000000000000000000000000000000000000000000000000000000000000000000000000000000000000000000000000000000000000000000000000000000000000000000000000000000000000000000000000000000000000000000000000000000000000000000000000000000000000000000000000000000000000000000000000000000000000000000000000000000000000000000000000000000000000000000000000000000000000000000000000000000000000000000000000000000000000000000000000000000000000000000000000000000000000000000000000000000000000000000000000000000000000000000000000000000000000000000000000000000000000000000000000000000000000000000000000000000000000000000000000000000000000000000000000000000000000000000000000000000000000000000000000000000000000000000000000000000000000000000000000000000000000000000000000000000000000000000000000000000000000000000000000000000000000000000000000000000000000000000000000000000000000000000000000000000000000000000000000000000000000000000000000000000000000000000000000000000000000000000000000000000000000000000000000000000000000000000000000000000000000000000000000000000000000000000000000000000000000000000000000000000000000000000000000000000000000000000000000000000000000000000000000000000000000000000000000000000000000000000000000000000000000000000000000000000000000000000000000000000000000000000000000000000000000000000000000000000000000000000000000000000000000000000000000000000000000000000000000000000000000000000000000000000000000000000000000000000000000000000000000000000000000000000000000000000000000000000000000000000000000000000000000000000000000000000000000000000000130000000000000000000000000000000000000000000000000000000000000000000000000000000000000000000000000000000000000000000000000000000000000000000000000000000000000000000000000000000000000000000000000000000000000000000000000000000000000000000000000000000000000000000000000000000000000000000000000000000000000000000000000000000000000000000000000000000000000000000000000000000000000000000000000000000000000000000000000000000000000000000000000000000000000000000000000000000000000000000000000000000000000000000000000000000000000000000000000000000000000000000000000000000000000000000000000000000000000000000000000000000000000000000000000000000000000000000000000000000000000000000000000000000000000000000000000000000000000000000000000000000000000000000000000000000000000000000000000000000000000000000000000000000000000000000000000000000000000000000000000000000000000000000000000000000000000000000000000000000000000000000000000000000000000000000000000000000000000000000000000000000000000000000000000000000000000000000000000000000000000000000000000000000000000000000000000000000000000000000000000000000000000000000000000000000000000000000000000000000000000000000000000000000000000000000000000000000000000000000000000000000000000000000000000000000000000000000000000000000000000000000000000000000000000000000000000000000000000000000000000000000000000000000000000000000000000000000000000000000000000000000000000000000000000000000000000000000000000000000000000000000000000000000000000000000000000000000000000000000000000000000000000000000000000000000000000000000000000000000000000000000000000000000000000000000000000000000000000000000000000000000000000000000000000000000000000000000000000000000000000000000000000000000000000000000000000000000000000000000000000000000000000000000000000000000000000000000000000000000000000000000000000000000000000000000000000000000000000000000000000000000000000000000000000000000000000000000000000000005353
#041980:00000053
#0429b0:23
#042950:000000000000000000000000000000000000000000000000000000000000000000000000000000000000000000000000000000000000000000000000000000000000000000000000000000000000000000000000000000000000000000000000000000000000000000000000000000000000000000000000000000000000000000000000000000000000000000000000000000000000000000000000000000000000000000000000000000000000000000000000000000000000000000000000000000000000000000000000000000000000000000000000000000000000000000000000000000000000000000000000000000000000000000000000000000000000000000000000000000000000000000000000000000000000000000000000000000000000000000000000000000000000000000000000000000000000000000000000000000000000000000000000000000000000000000000000000000000000000000000000000000000000000000000000000000000000000000000000000000000000000000000000000000000000000000000000000000000000000000000000000000000000000000000000000000000000000000000000000000000000000000000000000000000000000000000000000000000000000000000000000000000000000000000000000000000000000000000000000000000000000000000000000000000000000000000000000000000000000000000000000000000000000000000000000000000000000000000000000000000000000000000000000000000000000000000000000000000000000000000000000000000000000000000000000000000000000000000000000000000000000000000000000000000000000000000000000000000000000000000000000000000000000000000000000000000000000000000000000000000000000000000000000000000000000000000000000000000000000000000000000000000000000000000000000000000000000000000000000000000000000000000000000000000000000000000000000000000000000000000000000000000000000000000000000000000000000000000000000000000000000000000000000000000000000000000000000000000000000000000000000000000000000000000000000000000000000000000000000000000000000000000000000000000000000000000000000000000000000000000000000000000000000000000000000000000000000000000000000000000000000000000000000000000000000000000000000000000000000000000000130000000000000000000000000000000000000000000000000000000000000000000000000000000000000000000000000000000000000000000000000000000000000000000000000000000000000000000000000000000000000000000000000000000000000000000000000000000000000000000000000000000000000000000000000000000000000000000000000000000000000000000000000000000000000000000000000000000000000000000000000000000000000000000000000000000000000000000000000000000000000000000000000000000000000000000000000000000000000000000000000000000000000000000000000000000000000000000000000000000000000000000000000000000000000000000000000000000000000000000000000000000000000000000000000000000000000000000000000000000000000000000000000000000000000000000000000000000000000000000000000000000000000000000000000000000000000000000000000000000000000000000000000000000000000000000000000000000000000000000000000000000000000000000000000000000000000000000000000000000000000000000000000000000000000000000000000000000000000000000000000000000000000000000000000000000000000000000000000000000000000000000000000000000000000000000000000000000000000000000000000000000000000000000000000000000000000000000000000000000000000000000000000000000000000000000000000000000000000000000000000000000000000000000000000000000000000000000000000000000000000000000000000000000000000000000000000000000000000000000000000000000000000000000000000000000000000000000000000000000000000000000000000000000000000000000000000000000000000000000000000000000000000000000000000000000000000000000000000000000000000000000000000000000000000000000000000000000000000000000000000000000000000000000000000000000000000000000000000000000000000000000000000000000000000000000000000000000000000000000000000000000000000000000000000000000000000000000000000000000000000000000000000000000000000000000000000000000000000000000000000000000000000000000000000000000000000000000000000000000000000000000000000000000000000000000000000000000000000000005353
#042920:00000053
#043950:23
#062940:0014
#062920:000000000000000000000000000000000000000000000000000000000000000000000000000000000000000000000000000000000000000000000000000000000000000000000000000000000000000000000000000000000000000000000000000000000000000000000000000000000000000000000000000000000000000000000000000000000000000000000000000000000000000000000000000000000000000000000000000000000000000000000000000000000000000000000000000000000000000000000000000000000000000000000000000000000000000000000000000000000000000000000000000000000000000000000000000000000000000000000000000000000000000000000000000000000000000000000000000000000000000000000000000000000000000000000000000000000000000000000000000000000000000000000000000000000000000000000000000000000000000000000000000000000000000000000000000000000000000000000000000000000000000000000000000000000000000000000000000000000000000000000000000000000000000000000000000000000000000000000000000000000000000000000000000000000000000000000000000000000000000000000000000000000000000000000000000000000000000000000000000000000000000000000000000000000000000000000000000000000000000000000000000000000000000000000000000000000000000000000000000000000000000000000000000000000000000000000000000000000000000000000000000000000000000000000000000000000000000000000000000000000000000000000000000000000000000000000000000000000000000000000000000000000000000000000000000000000000000000000000000000000000000000000000000000000000000000000000000000000000000000000000000000000000000000000000000000000000000000000000000000000000000000000000000000000000000000000000000000000000000000000000000000000000000000000000000000000000000000000000000000000000000000000000000000000000000000000000000000000000000000000000000000000000000000000000000000000000000000000000000000000000000000000000000000000000000000000000000000000000000000000000000000000000000000000000000000000000000000000000000000000000000000000000000000000000000000000000000000000000000000000000000000000000000000000000000000000000000000000000000000000000000000000000000000000000000000000000000000000000000000000000000000000000000000000000000000000000000000000000000000000000000000000000000000000000000000000000000000000000000000000000000000000000000000000000000000000000000000000000000000000000000000000000000000000000000000000000000000000000000000000000000000000000000000000000000000000000000000000000000000000000000000000000000000000000000000000000000000000000000000000000540000000000000000000000000000000000000000000000000000000000000000000000000000000000000000000000000000000000000000000000000000000000000000000000000000000000000000000000000000000000000000000000000000000000000000000000000000000000000000000000000000000000000000000000000000000000000000000000000000000000000000000000000000000000000000000000000000000000000000000000000000000000000000000000000000000000000000000000000000000000000000000000000000000000000000000000000000000000000000005454240000000000000000000000000000000000000000000000000000000000000000000000000000000000000000000000000000000000000000000000000000000000000000000000000000000000000000000000000000000000000000000000000000000000000000000000000000000000000000000000000000000000000000000000000000000000000000000000000000000000000000000000000000000000000000000000000000000000000000000000000000000000000000000000000000000000000000000000000000000000000000000000000000000000000000000000000000000000000000000000000000000000000000000000000000000000000000000000000000000000000000000000000000000000000000000000000000000000000000000000000000000000000000000000000000000000000000000000000000000000000000000000000000000000000000000000000000000000000000000000000000000000000000000000000000000000000000000000000000000000000000000000000000000000000000000000000000000000000000000000000000000000000000000000000000000000000000000000000000000000000000000000000000000000000000000000000000000000000000000000
#063980:14
#0639a0:000000000000000000000000000000000000000000000000000000000000000000000000000000000000000000000000000000000000000000000000000000000000000000000000000000000000000000000000000000000000000000000000000000000000000000000000000000000000000000000000000000000000000000000000000000000000000000000000000000000000000000000000000000000000000000000000000000000000000000000000000000000000000000000000000000000000000000000000000000000000000000000000000000000000000000000000000000000000000000000000540000000000000000000000000000000000000000000000000000000000000000000000000000000000000000000000000000000000000000000000000000000000000000000000000000000000000000000000000000000000000000000000000000000000000000000000000000000000000000000000000000000000000000000000000000000000000000000000000000000000000000000000000000000000000000000000000000000000000000000000000000000000000000000000000000000000000000000000000000000000000000000000000000000000000000000000000000000000000000005454240000000000000000000000000000000000000000000000000000000000000000000000000000000000000000000000000000000000000000000000000000000000000000000000000000000000000000000000000000000000000000000000000000000000000000000000000000000000000000000000000000000000000000000000000000000000000000000000000000000000000000000000000000000000000000000000000000000000000000000000000000000000000000000000000000000000000000000000000000000000000000000000000000000000000000000000000000000000000000000000000000000000000000000000000000000000000000000000000000000000000000000000000000000000000000000000000000000000000000000000000000000000000000000000000000000000000000000000000000000000000000000000000000000000000000000000000000000000000000000000000000000000000000000000000000000000000000000000000000000000000000000000000000000000000000000000000000000000000000000000000000000000000000000000000000000000000000000000000000000000000000000000000000000000000000000000000000000000000000000000000000000000000000000000000000000000000000000000000000000000000000000000000000000000000000000000000000000000000000000000000000000000000000000000000000000000000000000000000000000000000000000000000000000000000000000000000000000000000000000000000000000000000000000000000000000000000000000000000000000000000000000000000000000000000000000000000000000000000000000000000000000000000000000000000000000000000000000000000000000000000000000000000000000000000000000000000000000000000000000000000000000000000000000000000000000000000000000000000000000000000000000000000000000000000000000000000000000000000000000000000000000000000000000000000000000000000000000000000000000000000000000000000000000000000000000000000000000000000000000000000000000000000000000000000000000000000000000000000000000000000000000000000000000000000000000000000000000000000000000000000000000000000000000000000000000000000000000000000000000000000000000000000000000000000000000000000000000000000000000000000000000000000000000000000000000000000000000000000000000000000000000000000000000000000000000000000000000000000000000000000000000000000000000000000000000000000000000000000000000000000000000000000000000000000000000000000000000000000000000000000000000000000000000000000000000000000000000000000000000000000000000000000000000000000000000000000000000000000000000000000000000000000000000000000000000000000000000000000000000000000000000000000000000000000000000000000000000000000000000000000000000000000000000000000000000000000000000000000000000000000000000000000000000000000000000000000000000000000000000000000000000000000000000000000000000000000000000000000000000000000000000000000000000000000000000000000000000000000000000000000000000000000000000000000000000000000000000000000000000000000000000000000000000000000000000000000000000000000000000000000000000000000000000000000000000000000000000000000000000000000000000000000000000000000000000000000000000000000000000000
#066980:0014
#0669a0:000000000000000000000000000000000000000000000000000000000000000000000000000000000000000000000000000000000000000000000000000000000000000000000000000000000000000000000000000000000000000000000000000000000000000000000000000000000000000000000000000000000000000000000000000000000000000000000000000000000000000000000000000000000000000000000000000000000000000000000000000000000000000000000000000000000000000000000000000000000000000000000000000000000000000000000000000000000000000000000000000000000000000000000000000000000000000000000000000000000000000000000000000000000000000000000000000000000000000000000000000000000000000000000000000000000000000000000000000000000000000000000000000000000000000000000000000000000000000000000000000000000000000000000000000000000000000000000000000000000000000000000000000000000000000000000000000000000000000000000000000000000000000000000000000000000000000000000000000000000000000000000000000000000000000000000000000000000000000000000000000000000000000000000000000000000000000000000000000000000000000000000000000000000000000000000000000000000000000000000000000000000000000000000000000000000000000000000000000000000000000000000000000000000000000000000000000000000000000000000000000000000000000000000000000000000000000000000000000000000000000000000000000000000000000000000000000000000000000000000000000000000000000000000000000000000000000000000000000000000000000000000000000000000000000000000000000000000000000000000000000000000000000000000000000000000000000000000000000000000000000000000000000000000000000000000000000000000000000000000000000000000000000000000000000000000000000000000000000000000000000000000000000000000000000000000000000000000000000000000000000000000000000000000000000000000000000000000000000000000000000000000000000000000000000000000000000000000000000000000000000000000000000000000000000000000000000000000000000000000000000000000000000000000000000000000000000000000000000000000000000000000000000000000000000000000000000000000000000000000000000000000000000000000000000000000000000000000000000000000000000000000000000000000000000000000000000000000000000000000000000000000000000000000000000000000000000000000000000000000000000000000000000000000000000000000000000000000000000000000000000000000000000000000000000000000000000000000000000000000000000000000000000000000000000000000000000000000000000000000000000000000000000000000000000000000000000000000000000000000000540000000000000000000000000000000000000000000000000000000000000000000000000000000000000000000000000000000000000000000000000000000000000000000000000000000000000000000000000000000000000000000000000000000000000000000000000000000000000000000000000000000000000000000000000000000000000000000000000000000000000000000000000000000000000000000000000000000000000000000000000000000000000000000000000000000000000000000000000000000000000000000000000000000000000000000000000000000000000000005454240000000000000000000000000000000000000000000000000000000000000000000000000000000000000000000000000000000000000000000000000000000000000000000000000000000000000000000000000000000000000000000000000000000000000000000000000000000000000000000000000000000000000000000000000000000000000000000000000000000000000000000000000000000000000000000000000000000000000000000000000000000000000000000000000000000000000000000000000000000000000000000000000000000000000000000000000000000000000000000000000000000000000000000000000000000000000000000000000000000000000000000000000000000000000000000000000000000000000000000000000000000000000000000000000000000000000000000000000000000000000000000000000000000000000000000000000000000000000000000000000000000000000000000000000000000000000000000000000000000000000000000000000000000000000000000000000000000000000000000000000000000000000000000000000000000000000000000000000000000000000000000000000000000000000000000000000000000000000000000000
#067940:14
#067920:000000000000000000000000000000000000000000000000000000000000000000000000000000000000000000000000000000000000000000000000000000000000000000000000000000000000000000000000000000000000000000000000000000000000000000000000000000000000000000000000000000000000000000000000000000000000000000000000000000000000000000000000000000000000000000000000000000000000000000000000000000000000000000000000000000000000000000000000000000000000000000000000000000000000000000000000000000000000000000000000540000000000000000000000000000000000000000000000000000000000000000000000000000000000000000000000000000000000000000000000000000000000000000000000000000000000000000000000000000000000000000000000000000000000000000000000000000000000000000000000000000000000000000000000000000000000000000000000000000000000000000000000000000000000000000000000000000000000000000000000000000000000000000000000000000000000000000000000000000000000000000000000000000000000000000000000000000000000000000005454240000000000000000000000000000000000000000000000000000000000000000000000000000000000000000000000000000000000000000000000000000000000000000000000000000000000000000000000000000000000000000000000000000000000000000000000000000000000000000000000000000000000000000000000000000000000000000000000000000000000000000000000000000000000000000000000000000000000000000000000000000000000000000000000000000000000000000000000000000000000000000000000000000000000000000000000000000000000000000000000000000000000000000000000000000000000000000000000000000000000000000000000000000000000000000000000000000000000000000000000000000000000000000000000000000000000000000000000000000000000000000000000000000000000000000000000000000000000000000000000000000000000000000000000000000000000000000000000000000000000000000000000000000000000000000000000000000000000000000000000000000000000000000000000000000000000000000000000000000000000000000000000000000000000000000000000000000000000000000000000000000000000000000000000000000000000000000000000000000000000000000000000000000000000000000000000000000000000000000000000000000000000000000000000000000000000000000000000000000000000000000000000000000000000000000000000000000000000000000000000000000000000000000000000000000000000000000000000000000000000000000000000000000000000000000000000000000000000000000000000000000000000000000000000000000000000000000000000000000000000000000000000000000000000000000000000000000000000000000000000000000000000000000000000000000000000000000000000000000000000000000000000000000000000000000000000000000000000000000000000000000000000000000000000000000000000000000000000000000000000000000000000000000000000000000000000000000000000000000000000000000000000000000000000000000000000000000000000000000000000000000000000000000000000000000000000000000000000000000000000000000000000000000000000000000000000000000000000000000000000000000000000000000000000000000000000000000000000000000000000000000000000000000000000000000000000000000000000000000000000000000000000000000000000000000000000000000000000000000000000000000000000000000000000000000000000000000000000000000000000000000000000000000000000000000000000000000000000000000000000000000000000000000000000000000000000000000000000000000000000000000000000000000000000000000000000000000000000000000000000000000000000000000000000000000000000000000000000000000000000000000000000000000000000000000000000000000000000000000000000000000000000000000000000000000000000000000000000000000000000000000000000000000000000000000000000000000000000000000000000000000000000000000000000000000000000000000000000000000000000000000000000000000000000000000000000000000000000000000000000000000000000000000000000000000000000000000000000000000000000000000000000000000000000000000000000000000000000000000000000000000000000000000000000000000000000000000000000000000000000000000000000000000000000000000000000000000000000000000000000
