This file was generated by Ched 2.7.0.0.
#TITLE ""
#ARTIST ""
#DESIGNER ""
#DIFFICULTY 0
#PLAYLEVEL
#SONGID ""
#WAVE ""
#WAVEOFFSET 0
#JACKET ""
#REQUEST "ticks_per_beat 480"
#00002: 4
#BPM01: 165
#00008: 01
#TIL00: ""
#VOLUME: ""
#HISPEED 00
#MEASUREHS 00
#00018:14
#00214:14
#0041a:14
#00412:0014
#00518:1414
#00514:00140000
#0321a:1414
#03212:14
#03210:0041
#03318:0014
#03314:14000014
#03414:0014
#0341a:14
#03418:00000014
#06112:0014
#06118:14000014
#0621a:0014
#06212:14
#06418:0014
#06412:00140014
#0641a:14
#06514:0014
#06518:14
#0651a:00000014
#00118:14
#00614:1414
#00618:00140000
#00812:14
#0081a:0014
#00810:41
#00914:1414
#00918:00140000
#01018:1414
#01014:00140000
#01818:1414
#01814:00140014
#02112:00140000
#02118:0014
#02114:00000014
#02214:00140014
#02218:0014
#0221a:24
#02210:41
#02318:14
#0231a:0034343400000000
#02418:00140014
#02414:0014
#02412:14
#02514:14
#0251a:00000014
#02512:0034343400000000
#02612:14
#02618:00140014
#02614:0014
#02712:14
#02714:0034343400000000
#0281a:14
#02814:00140014
#02818:0014
#0291a:1414
#02912:00140000
#03512:14
#0371a:0014
#03712:14
#03714:00000014
#03812:0014
#03818:14000014
#03914:14
#0391a:0024
#04614:0014
#04618:00000014
#04714:14
#04718:00140000
#04712:0025
#04719:00000025
#0491a:00000014
#05014:14
#05018:00140014
#05012:0024
#05010:0041
#05114:1414
#0511a:00140000
#05112:0000000000343434
#05214:00000014
#0521a:0014
#05318:1414
#05312:00140000
#0531a:0000000000343434
#05412:00140000
#0541a:0014
#05414:00000014
#05518:1400000000343434
#05512:00140000
#0551a:0014
#05612:0014
#05618:00000014
#05714:1414
#0571a:00140000
#05718:00000014
#05812:14
#05818:0024
#0581a:00000034
#06014:00000014
#0601f:0011
#06012:26
#06018:0026
#06614:14
#0661a:0014
#06312:14000014
#0631a:0014
#06712:14
#06718:0014
#06714:00000014
#06818:14
#07114:14
#07118:00140014
#07112:0014
#0711a:0000000000000034
#07110:00000041
#07318:14
#07314:00140014
#0731a:0014
#07312:0000000000000034
#07212:00000014
#0721a:3434240000000000
#0741a:0014
#07412:3434000000001400
#07518:14
#07514:0000140000000034
#0751a:0014
#07512:00000014
#0761a:00000014
#07614:3434240000000000
#07714:14
#07718:00140000
#07712:0014
#0771a:00000024
#07914:1400000014000034
#07918:0000140000140000
#07912:00000024
#08114:14001414
#08118:0000140000140000
#08112:0000000000000034
#0801a:00000014
#08014:3434000000000000
#0821a:0014
#08212:3434000000001400
#08318:1400000014000034
#08314:0000140000140000
#0831a:00000024
#08412:00000014
#08418:3434000000000000
#08518:1400000000000014
#08514:00140014
#0851a:0014
#08614:14000024
#0861a:00140000
#00314:24
#03014:24
#03012:00343434
#03118:0026
#0691a:24
#06916:0024
#01112:24
#01919:2525
#01912:00250025
#02018:26
#04812:2526
#04819:00250000
#0701a:00000024
#07012:24
#0701f:00000021
#0781a:24000024
#07812:00242400
#08818:00260000
#08812:00000024
#01514:2424
#01518:00240000
#0591a:34340000
#08712:34343400
#04010:0041
#03618:0000005400000000
#00354:0014
#02058:16
#02358:54
#0235a:0014
#02554:64
#02752:54
#02754:0014
#0295a:0014
#03152:16
#03158:0016
#04852:0016
#05154:0064
#05358:0054
#0555a:0064
#05852:14
#05858:0064
#06052:16
#05958:0016
#03054:64
#0625a:0014
#06352:14
#0665a:0014
#06752:14
#07158:00000054
#07354:00000064
#07552:00000054
#08154:00000064
#0865a:00140000
#08654:00000064
#08858:00160000
#08752:00000016
#05252:14
#05658:14
#0725a:00140000
#07654:00140000
#07952:00000054
#08054:00140000
#0835a:00000064
#08458:00140000
#003340:14000000343434342400000000000000
#0073a0:1424
#011320:1424
#012380:14
#0123a0:0024
#013340:14
#013320:0024
#014380:14
#0143a0:0024
#0163a0:14
#016380:0024
#017320:14
#017340:0024
#023380:14
#0233a0:0034343424000000
#025340:14
#025320:0034343424000000
#027320:14
#027340:0034343424000000
#030340:14
#030320:00343434
#031320:26
#0353a0:0014
#036380:3400002400000000
#0393a0:0014
#0403a0:24
#040340:0014
#041320:34
#041340:0034
#042320:24
#042380:0014
#0433a0:34
#043380:0034
#0443a0:24
#044340:0014
#045320:24
#045380:0014
#0463a0:24
#051340:0014
#051320:0000000000343434
#052320:24
#053380:0014
#0533a0:0000000000343434
#0543a0:24
#0553a0:0014
#055380:0000000000343434
#056380:24
#058380:0014
#0583a0:00000034
#0593a0:34340000
#059380:0026
#071380:00000014
#0713a0:0000000000000034
#0723a0:3434240000000000
#073340:00000014
#073320:0000000000000034
#074320:3434240000000000
#075320:00000014
#075340:0000000000000034
#076340:3434240000000000
#079320:00000014
#079340:0000000000000034
#080340:3434240000000000
#081340:00000014
#081320:0000000000000034
#082320:3434240000000000
#0833a0:00000014
#083380:0000000000000034
#084380:3434240000000000
#086340:00000014
#087320:34343426
#089380:14240000
