This file was generated by Ched 2.7.0.0.
#TITLE ""
#ARTIST ""
#DESIGNER ""
#DIFFICULTY 0
#PLAYLEVEL
#SONGID ""
#WAVE ""
#WAVEOFFSET 0
#JACKET ""
#REQUEST "ticks_per_beat 480"
#00002: 4
#BPM01: 148
#00008: 01
#TIL00: ""
#VOLUME: ""
#HISPEED 00
#MEASUREHS 00
#00518:14
#00714:14
#00914:14
#00910:41
#01018:14
#01114:14
#01218:14
#01312:14
#0141a:14
#01512:14
#0161a:14
#02514:14
#02510:41
#02618:14
#02712:14
#0281a:14
#03712:14
#03718:0014
#03710:41
#03812:14
#0391a:14
#03914:0014
#0401a:14
#04112:14
#04118:0014
#04212:14
#04512:2616
#04510:41
#04718:1616
#04912:1616
#05118:1616
#06118:2616
#0611f:21
#06312:1616
#06518:1616
#06712:1616
#06912:0016
#06918:26
#07118:0016
#07112:16
#07312:0016
#07318:16
#07518:0016
#07512:16
#0531f:11
#00818:26
#05218:26
#05714:24
#05718:0024
#05814:24
#05818:0024
#05914:24
#07612:26
#01710:41
#06210:41
#008380:16362600
#017340:14
#018340:24
#019380:14
#020380:24
#021320:14
#022320:24
#0233a0:14
#0243a0:24
#029320:14
#030320:24
#031380:14
#032380:24
#033340:14
#034340:24
#0353a0:14
#0363a0:24
#043380:14
#0443a0:24
#046320:1626
#048380:16362600
#050320:1626
#052380:16362600
#053340:14
#054320:24
#055380:14
#0563a0:24
#059340:14
#060320:24
#062380:1626
#064320:16362600
#066380:1626
#068320:16362600
#070380:1626
#072320:16362600
#074380:1626
#076320:16362600
#0773a0:14
#0783a0:34342400
