This file was generated by Ched 2.7.0.0.
#TITLE ""
#ARTIST ""
#DESIGNER ""
#DIFFICULTY 0
#PLAYLEVEL
#SONGID ""
#WAVE ""
#WAVEOFFSET 0
#JACKET ""
#REQUEST "ticks_per_beat 480"
#00002: 4
#BPM01: 148
#00008: 01
#TIL00: ""
#VOLUME: ""
#HISPEED 00
#MEASUREHS 00
#00716:0000000000000012
#00715:12
#00719:0012000000000000
#00714:0000001212000000
#00718:0000000000120000
#01212:1313
#0121b:00130013
#01218:1300000000130000
#01215:00000000000000000000001300000000
#0141b:1313000000000000
#01412:13130000
#01415:0000001300000000
#01418:00130000
#01417:00000013
#0161b:1313
#01612:13130013
#01615:0000000000130000
#01615:0000000000130000
#01618:00000000000000000000001300000000
#01818:0000000012000012
#01813:00001212
#01815:0000001200000000
#01817:00120000
#01819:0012000000000000
#0181b:12
#01918:12
#01919:0000001200120000
#01913:1212
#0191b:0012
#01915:0012000000000012
#01917:00120012
#0201b:12
#02016:0012001200000000
#02018:00121200
#02014:0012
#02013:12000013
#0291b:13001313
#02918:0000000000130000
#02915:00000000000013000000001300000000
#02912:0000000013000013
#02917:00000013000000000000000000000000
#02916:23
#0301b:0000000013000013
#03015:0013000000000000
#03018:0000001300000000
#03012:00000013
#03218:0013
#0321b:0000000000130000
#03216:0014001400000000
#03215:0013
#03212:0000000000130000
#03918:0013130013000000
#0391b:0000001300000000
#03912:13130000
#04014:14
#04012:0013000014000000
#04018:00140000
#0401b:0000001300000000
#04016:0000000000130000
#0401a:00000014
#04017:0000000000000013
#0431b:13
#04312:13
#04615:00000013
#04618:0000000000000013
#0461a:1424
#04616:1434003424000000
#04612:0013140000000000
#0461b:0000001300000000
#04712:1313
#04718:00000000130000001300001300001300
#04715:0000001300130000
#0471b:13
#04812:1313
#04814:0013000000000000
#04816:0000130000140000
#04819:0000001300000000
#0481b:13130000
#04817:0013
#0481a:00000014
#05018:0000000000000013
#05015:00000013
#05012:1400001324000000
#05016:1434003424000000
#0501a:00140000
#0501b:0013000000000000
#0511b:13001313
#05118:0013001300000013
#05115:0000000000130000
#05112:13001313
#05116:00130000
#07416:0000140000140014
#0741a:14002414
#07412:1414
#07414:0014000000000000
#07418:0000001400000000
#0771a:0000001200000000
#07718:0012
#07714:1200000000000012
#07716:0000000000120000
#07816:1200001200000000
#0781a:0012000000000000
#07818:00120000
#07814:00000052
#00516:12
#0051a:0012000000000000
#00514:0000000000000012
#00515:0000001212000000
#00519:0000000000120000
#00618:12
#00615:0012000000000000
#00619:0000001212000000
#00616:0000000000120000
#0061a:0000000000000012
#00816:00000000000000000000001200000000
#00818:1400000014001212
#00814:00140000
#00912:1313000000000000
#0091b:0000130000000013
#00915:00130000
#00918:0000001300130000
#00919:25
#00910:41
#01018:1313000000001300
#01012:1300001300000000
#01015:00130000
#0101b:00130000
#01112:1300130000000013
#0111b:0013000000000000
#01118:00130000
#01115:0000001300130000
#01312:1313000000000000
#0131b:0000130000130000
#01315:00130000
#01318:0000001300000013
#01316:25
#02216:0000000000000012
#02213:0012
#0221a:0012120000001200
#02214:1200001200000000
#02317:0012001200000000
#02418:00000000000000000000001200000000
#02416:0000000000001212
#0241b:1212
#02419:0012000000000000
#02417:00120000
#02415:0000001200000000
#02413:0012
#0281b:1313
#02812:13130013
#02815:0000000000130000
#02815:0000000000130000
#02818:00000000000000000000001300000000
#02518:2300001300000013
#0251b:0000130000130000
#02515:0013000000000000
#02512:00130000
#02510:41
#02615:1313001300000000
#02618:00130000
#02612:0013
#02617:00000013
#03115:0013
#03312:13001313
#03315:0000000000130000
#03318:00000000000013000000001300000000
#0331b:1300000013000013
#03316:00000013000000000000000000000000
#03418:0013000000000000
#03415:0000001300000000
#03412:00001314
#03416:00000014
#0341b:13
#0351b:0013000013000000
#03518:0000131300000000
#03512:1413000000000000
#03612:14
#03618:0014000013000000
#03614:00000014000000000000000000000013
#0361b:0000000000131300
#03717:13
#03716:00130000
#03718:0000000013130013
#03715:00000000000000000013001300130000
#0371b:00333333000000000000000013000000
#03712:00000000003333330000000000000013
#03710:41
#03812:00000000130000000000000000130000
#0381b:00130000000000001300000000000000
#03816:00000000003333330013000000000000
#03819:0000000000130000
#03814:00000000000000000000001300000000
#03817:0000000000001313
#03815:0013000000000000
#03818:00000013000000000000000000000000
#04118:0013000013000000
#04112:24000013000000000000000000001400
#0411b:00000000130013000033333300000000
#04115:00000000001300130000000000000000
#04116:0000000000001414
#0421b:13000013000000000000000000000000
#04212:1300131300000000
#04215:0013000000000000
#04218:00000000001300130000000000000000
#04216:0000000000140014
#04416:0000000014141400
#04419:0000002500000000
#04418:2323000000000000
#04415:00230023000000000000000000000000
#04412:0000002500000000
#04516:0024002400140014
#0451a:24
#04512:24240000
#04510:41
#0521a:1414
#05212:26142600
#05218:00000000260000000000001200000000
#05216:0014001400001212
#05313:12
#05316:0012
#05319:00120012
#0531f:11
#0531a:23
#0541b:12
#05418:0012
#05415:00120012
#05517:12120000
#05519:0012000000000000
#05515:0000001200000000
#05518:0012
#0551b:00000000000000000000001200000000
#05513:0012
#05516:0000000000000012
#05718:00140000
#05714:00000014
#05716:2424
#0571a:24
#05819:00140000
#05813:00000014
#05812:24
#0581a:0024
#05912:14
#05913:00001454540000000000000000000000
#05914:00000000000014545400000000000000
#05915:00000000000000000000145454000000
#05917:00240000
#05918:0024
#05919:00000024
#06216:1434003424001300
#06214:0000000000000013
#06212:1400001424000000
#0621a:0014140000000000
#06210:41
#06315:0000130000130000
#06318:00000000000013000000001300001300
#06312:13001313
#0631b:00001313
#06415:0013000013000000
#0641a:00000014
#06418:00131300
#06412:13130000
#0641b:1300001300000000
#06616:1434003424000013
#06612:0014140000001400
#0661a:1400001424001400
#06712:1313
#06719:0000001300000000
#0671b:13000013
#06717:00130000
#06716:0013000000140014
#0701a:1424
#07016:00140000
#07012:1424
#07018:0014000000001313
#07014:0000001400001300
#0711b:13
#07115:0000131300130000
#07116:0000000000000014
#07119:00130000
#07112:26001314
#07118:00000000000000002600001300000000
#0711a:00000014
#0721a:1424
#07212:2424
#07214:0024000000000000
#07216:00240000
#07218:0000002400000000
#07217:0000000000240000
#07215:000000000000000000000000000000000000000000000000000000000000000000000000000000000000000000000000000000000000000000000000000000000000000000000000000000000000000000000000000000000000000000000000000000000000000000000000000000000000000000000000000000000000000000000000000000000000000000000000000000000000000000000000000000000000000000000000000000000000000000000000000000000000000000000000000000000000000000000000000000000000000000000000000000000000000000000000000000000000000000000000000000000000000000000000000000000000000000000000000000000000000000000000000000000000000000000000000000000000000000000000000000000000000000000000000000000000000000000000000000000000000000000000000000000000000000000000000000000000000000000000000000000000000000000000000000000000000000000000000000000000000000000000000000000000000000000000000000000000000000000000000000000000000000000000000000000000000000000000000000000000000000000000000000000000000000000000000000000000000000000000000000000000000000000000000000000000000000000000000000000000000000000000000000000000000000000000000000000000000000000000000000000000000000000000000000000000000000000000000000000000000000000000000000000000000000000000000000000000000000000000000000000000000000000000000000000000000000000000000000000000000000000000000000000000000000000000000000000000000000000000000000000000000000000000000000000000000000000000000000000000000000000000000000000000000000000000000000000000000000000000000000000000000000000000000000000000000000000000000000000000000000000000000000000000000000000000000000000000000000000000000000000000000000000000000000000000000000000000000000000000000000000000000000000000000000000000000000000000000000000000000000000000000000000000000000000000000000000000000000000000000000000000000000000000000000000000000000000000000000000000000000000000000000000000000000000000000000000000000000000000000000000000000000000000000000000000000000000000000000000000000000000000000000000000000000000000000000000000000000000000000000000000000000000000000000000000000000000000000000000000000000000000000000000000000000000000000000000000000000000000000000000000000000000000000000000000000000000000000000000000000000000000000000000000000000000000000000000000000000000000000000000000000000000000000000000000000000000000000000000000000000000000000000000000000000000000000000000000000000000000000000000000000000000000000000000000000000000000000000000024000000000000000000000000000000000000000000000000000000000000000000000000000000000000000000000000000000000000000000000000000000000000000000000000000000000000000000000000000000000000000000000000000000000000000000000000000000000000000000000000000000000000000000000000000000000000000000000000000000000000000000000000000000000000000000000000000000000000000000000000000000000000000000000000000000000000000000000000000000000000000000000000000000000000000000000000000000000000000000000000000000000000000000000000000000000000000000000000000000000000000000000000000000000000000000000000000000000000000000000000000000000000000000000000000000000000000000000000000000000000000000000000000000000000000000000000000000000000000000000000000000000000000000000000000000000000000000000000000000000000000000000000000000000000000000000000000000000000000000000000000000000000000000000000000000000000000000000000000000000000000000000000000000000000000000000000000000000000000000000000000000000000000000000000000000000000000000000000000000000000000000000000000000000000000000000000000000000000000000000000000000000000000000000000000000000000000000000000000000000000000000000000000000000000000000000000000000000000000000000000000000000000000000000000000000000000000000000000000000000000000000000000000000000000000000000000000000000000000000000000000000000000000000000000000000000000000000000000000000000000000000000000000000000000000000000000000000000000000000000000
#07516:1400140014000014
#0751a:0000001400001400
#07512:2400000000140000
#0761a:1400240014141400
#07616:0014001400240014
#07612:24142400
#01512:1300130000130000
#0151b:0013000000000000
#01518:00130000
#01515:0000001300000013
#01713:00000012
#01718:00000012000000000000001200000000
#01714:0000001200000000
#01716:2300000000120000
#0171b:1212
#01710:41
#02116:00000012000000000000001200000000
#0211a:0000001200001200
#02118:0000000000120012
#02113:1212
#05614:12
#05616:0000121200001200
#05618:0000000012120012
#0561a:12
#06016:0000000014141400
#06012:0000002500000000
#06015:2323000000000000
#06018:00230023000000000000000000000000
#06019:0000002500000000
#06516:0024002400140014
#0651a:24
#06512:24240000
#0681a:14242400
#06812:24142400
#06815:0000000000240000
#06817:000000000000000000000000000000000000000000000000000000000000000000000000000000000000000000000000000000000000000000000000000000000000000000000000000000000000000000000000000000000000000000000000000000000000000000000000000000000000000000000000000000000000000000000000000000000000000000000000000000000000000000000000000000000000000000000000000000000000000000000000000000000000000000000000000000000000000000000000000000000000000000000000000000000000000000000000000000000000000000000000000000000000000000000000000000000000000000000000000000000000000000000000000000000000000000000000000000000000000000000000000000000000000000000000000000000000000000000000000000000000000000000000000000000000000000000000000000000000000000000000000000000000000000000000000000000000000000000000000000000000000000000000000000000000000000000000000000000000000000000000000000000000000000000000000000000000000000000000000000000000000000000000000000000000000000000000000000000000000000000000000000000000000000000000000000000000000000000000000000000000000000000000000000000000000000000000000000000000000000000000000000000000000000000000000000000000000000000000000000000000000000000000000000000000000000000000000000000000000000000000000000000000000000000000000000000000000000000000000000000000000000000000000000000000000000000000000000000000000000000000000000000000000000000000000000000000000000000000000000000000000000000000000000000000000000000000000000000000000000000000000000000000000000000000000000000000000000000000000000000000000000000000000000000000000000000000000000000000000000000000000000000000000000000000000000000000000000000000000000000000000000000000000000000000000000000000000000000000000000000000000000000000000000000000000000000000000000000000000000000000000000000000000000000000000000000000000000000000000000000000000000000000000000000000000000000000000000000000000000000000000000000000000000000000000000000000000000000000000000000000000000000000000000000000000000000000000000000000000000000000000000000000000000000000000000000000000000000000000000000000000000000000000000000000000000000000000000000000000000000000000000000000000000000000000000000000000000000000000000000000000000000000000000000000000000000000000000000000000000000000000000000000000000000000000000000000000000000000000000000000000000000000000000000000000000000000000000000000000000000000000000000000000000000000000000000000000000000000000000000024000000000000000000000000000000000000000000000000000000000000000000000000000000000000000000000000000000000000000000000000000000000000000000000000000000000000000000000000000000000000000000000000000000000000000000000000000000000000000000000000000000000000000000000000000000000000000000000000000000000000000000000000000000000000000000000000000000000000000000000000000000000000000000000000000000000000000000000000000000000000000000000000000000000000000000000000000000000000000000000000000000000000000000000000000000000000000000000000000000000000000000000000000000000000000000000000000000000000000000000000000000000000000000000000000000000000000000000000000000000000000000000000000000000000000000000000000000000000000000000000000000000000000000000000000000000000000000000000000000000000000000000000000000000000000000000000000000000000000000000000000000000000000000000000000000000000000000000000000000000000000000000000000000000000000000000000000000000000000000000000000000000000000000000000000000000000000000000000000000000000000000000000000000000000000000000000000000000000000000000000000000000000000000000000000000000000000000000000000000000000000000000000000000000000000000000000000000000000000000000000000000000000000000000000000000000000000000000000000000000000000000000000000000000000000000000000000000000000000000000000000000000000000000000000000000000000000000000000000000000000000000000000000000000000000000000000000000000000000000000000
#06816:0024002400000000
#0691a:24000014
#06916:0024002400140014
#06912:26240000
#07312:24000014
#07316:0024002400140014
#07318:26
#0731a:00240000
#02715:1300001300000013
#02712:0000130000130000
#02718:0013000000000000
#0271b:00130000
#04916:0024002400140014
#04912:24
#0491a:24240000
#06116:0024002400140014
#06112:24
#0611a:24240000
#0611f:21
#01252:63
#0125b:00530053
#0165b:53
#01652:00630063
#02058:0062
#02053:00000013
#0205a:00000013
#03258:00006314
#0325b:0000000000230000
#03255:0053
#03252:0000000000230000
#03254:00000014
#04054:64140000
#04052:0023000054001400
#04058:13541400
#0405b:0000002300000000
#04056:0000000000230000
#0405a:00000064
#04057:0000000000000023
#0435b:53
#04352:63
#0455a:54440000
#04552:34640000
#04556:0024002400000000
#04852:0053
#04856:0000000000240000
#0515b:63
#05158:0023000000000000
#01058:00000053
#01457:00000063
#01858:0062
#02253:0052
#02254:52
#0225a:00620000
#0285b:53
#02852:00630063
#0295b:53
#02957:00000023000000000000000000000000
#02956:13
#0305b:0053
#03352:63
#03356:00000023000000000000000000000000
#03452:00000014
#03456:00000054
#03552:0053000000000000
#03654:00000054000000000000000000000000
#03652:00000013
#0365b:00000013
#03757:53
#03756:00530000
#03852:00630000
#03857:0000000000000053
#0415a:00000014
#04152:0000000000000014
#04158:0053
#0465a:5414
#04656:0014
#04652:00640000
#05252:1616
#05258:00160000
#05356:00126200
#05353:52000012
#05359:00120012
#0545b:62000012
#05458:00125200
#05455:00120012
#05558:0062
#0555b:00000000000000000000005200000000
#0575a:44
#05756:5464
#05752:0014
#05852:64
#0585a:1454
#05856:0034
#05957:00440000
#05958:0044
#05959:00000044
#05956:44
#06455:0053
#06752:53
#06756:0023000000000000
#06852:1454
#0685a:00146400
#06855:0000000000240000
#06857:000000000000000000000000000000000000000000000000000000000000000000000000000000000000000000000000000000000000000000000000000000000000000000000000000000000000000000000000000000000000000000000000000000000000000000000000000000000000000000000000000000000000000000000000000000000000000000000000000000000000000000000000000000000000000000000000000000000000000000000000000000000000000000000000000000000000000000000000000000000000000000000000000000000000000000000000000000000000000000000000000000000000000000000000000000000000000000000000000000000000000000000000000000000000000000000000000000000000000000000000000000000000000000000000000000000000000000000000000000000000000000000000000000000000000000000000000000000000000000000000000000000000000000000000000000000000000000000000000000000000000000000000000000000000000000000000000000000000000000000000000000000000000000000000000000000000000000000000000000000000000000000000000000000000000000000000000000000000000000000000000000000000000000000000000000000000000000000000000000000000000000000000000000000000000000000000000000000000000000000000000000000000000000000000000000000000000000000000000000000000000000000000000000000000000000000000000000000000000000000000000000000000000000000000000000000000000000000000000000000000000000000000000000000000000000000000000000000000000000000000000000000000000000000000000000000000000000000000000000000000000000000000000000000000000000000000000000000000000000000000000000000000000000000000000000000000000000000000000000000000000000000000000000000000000000000000000000000000000000000000000000000000000000000000000000000000000000000000000000000000000000000000000000000000000000000000000000000000000000000000000000000000000000000000000000000000000000000000000000000000000000000000000000000000000000000000000000000000000000000000000000000000000000000000000000000000000000000000000000000000000000000000000000000000000000000000000000000000000000000000000000000000000000000000000000000000000000000000000000000000000000000000000000000000000000000000000000000000000000000000000000000000000000000000000000000000000000000000000000000000000000000000000000000000000000000000000000000000000000000000000000000000000000000000000000000000000000000000000000000000000000000000000000000000000000000000000000000000000000000000000000000000000000000000000000000000000000000000000000000000000000000000000000000000000000000000000000000000000000000024000000000000000000000000000000000000000000000000000000000000000000000000000000000000000000000000000000000000000000000000000000000000000000000000000000000000000000000000000000000000000000000000000000000000000000000000000000000000000000000000000000000000000000000000000000000000000000000000000000000000000000000000000000000000000000000000000000000000000000000000000000000000000000000000000000000000000000000000000000000000000000000000000000000000000000000000000000000000000000000000000000000000000000000000000000000000000000000000000000000000000000000000000000000000000000000000000000000000000000000000000000000000000000000000000000000000000000000000000000000000000000000000000000000000000000000000000000000000000000000000000000000000000000000000000000000000000000000000000000000000000000000000000000000000000000000000000000000000000000000000000000000000000000000000000000000000000000000000000000000000000000000000000000000000000000000000000000000000000000000000000000000000000000000000000000000000000000000000000000000000000000000000000000000000000000000000000000000000000000000000000000000000000000000000000000000000000000000000000000000000000000000000000000000000000000000000000000000000000000000000000000000000000000000000000000000000000000000000000000000000000000000000000000000000000000000000000000000000000000000000000000000000000000000000000000000000000000000000000000000000000000000000000000000000000000000000000000000000000000000000
#0695a:54
#06952:36640000
#06956:0024002400000000
#06958:00460000
#07456:0000000000240000
#07452:0054
#0745a:0044
#07556:54
#07552:34
#07656:0000000000240000
#07652:0054
#07754:52
#00858:1414
#00854:00140000
#01753:00000062
#01758:00000022000000000000000000000000
#0175b:52
#01756:13
#02156:00000022000000000000000000000000
#02153:62
#06356:14
#0665a:5414
#06652:00640000
#06656:0014
#0655a:54440000
#06552:34640000
#06556:0024002400000000
#0725a:0064
#07257:0000000000240000
#07252:0054
#07255:000000000000000000000000000000000000000000000000000000000000000000000000000000000000000000000000000000000000000000000000000000000000000000000000000000000000000000000000000000000000000000000000000000000000000000000000000000000000000000000000000000000000000000000000000000000000000000000000000000000000000000000000000000000000000000000000000000000000000000000000000000000000000000000000000000000000000000000000000000000000000000000000000000000000000000000000000000000000000000000000000000000000000000000000000000000000000000000000000000000000000000000000000000000000000000000000000000000000000000000000000000000000000000000000000000000000000000000000000000000000000000000000000000000000000000000000000000000000000000000000000000000000000000000000000000000000000000000000000000000000000000000000000000000000000000000000000000000000000000000000000000000000000000000000000000000000000000000000000000000000000000000000000000000000000000000000000000000000000000000000000000000000000000000000000000000000000000000000000000000000000000000000000000000000000000000000000000000000000000000000000000000000000000000000000000000000000000000000000000000000000000000000000000000000000000000000000000000000000000000000000000000000000000000000000000000000000000000000000000000000000000000000000000000000000000000000000000000000000000000000000000000000000000000000000000000000000000000000000000000000000000000000000000000000000000000000000000000000000000000000000000000000000000000000000000000000000000000000000000000000000000000000000000000000000000000000000000000000000000000000000000000000000000000000000000000000000000000000000000000000000000000000000000000000000000000000000000000000000000000000000000000000000000000000000000000000000000000000000000000000000000000000000000000000000000000000000000000000000000000000000000000000000000000000000000000000000000000000000000000000000000000000000000000000000000000000000000000000000000000000000000000000000000000000000000000000000000000000000000000000000000000000000000000000000000000000000000000000000000000000000000000000000000000000000000000000000000000000000000000000000000000000000000000000000000000000000000000000000000000000000000000000000000000000000000000000000000000000000000000000000000000000000000000000000000000000000000000000000000000000000000000000000000000000000000000000000000000000000000000000000000000000000000000000000000000000000000000000000000000024000000000000000000000000000000000000000000000000000000000000000000000000000000000000000000000000000000000000000000000000000000000000000000000000000000000000000000000000000000000000000000000000000000000000000000000000000000000000000000000000000000000000000000000000000000000000000000000000000000000000000000000000000000000000000000000000000000000000000000000000000000000000000000000000000000000000000000000000000000000000000000000000000000000000000000000000000000000000000000000000000000000000000000000000000000000000000000000000000000000000000000000000000000000000000000000000000000000000000000000000000000000000000000000000000000000000000000000000000000000000000000000000000000000000000000000000000000000000000000000000000000000000000000000000000000000000000000000000000000000000000000000000000000000000000000000000000000000000000000000000000000000000000000000000000000000000000000000000000000000000000000000000000000000000000000000000000000000000000000000000000000000000000000000000000000000000000000000000000000000000000000000000000000000000000000000000000000000000000000000000000000000000000000000000000000000000000000000000000000000000000000000000000000000000000000000000000000000000000000000000000000000000000000000000000000000000000000000000000000000000000000000000000000000000000000000000000000000000000000000000000000000000000000000000000000000000000000000000000000000000000000000000000000000000000000000000000000000000000000000000
#07352:64360000
#07358:46
#07356:0024002400000000
#0735a:00540000
#00959:45
#01356:45
#07052:0034
#0705a:0044
#07158:0046
#07152:36
#02657:00000063
#05052:6414
#0505a:00540000
#05056:0014
#04952:64340000
#0495a:44540000
#04956:0024002400000000
#06252:6414
#0625a:00540000
#06256:0014
#06152:64340000
#0615a:44540000
#06156:0024002400000000
#009320:0000000013230000
#009350:0000000000001323
#0103b0:0000000013230000
#010351:0000000000132300
#010380:00000013
#0113b0:23
#0113b0:0000000013230000
#011380:0000000000001323
#012320:13
#012360:00230000
#0123b1:00130000
#012371:0023
#0123b1:00000013
#013361:25
#013321:0013
#013351:0000000000230000
#013351:00000013
#013321:0000000000000023
#0143b1:0013
#014381:0000000000230000
#014350:0000000000130000
#014320:00000023
#014371:00000013
#0153b1:23
#0153b1:0013
#015381:0000000000230000
#015381:00000013
#0153b1:0000000000000023
#0163b1:13
#016371:00230000
#016320:00130000
#016360:0023
#016320:00000013
#017360:23
#0173b1:1200002200000000
#017381:00000052000000000000000000000000
#017331:00000012
#018361:22
#018381:0012
#0183b1:00000022
#020381:0012
#0203a1:00000023
#021331:1200002200000000
#021361:00000052000000000000000000000000
#022341:12
#022371:0022000000000000
#0223a1:00120000
#022371:0000002200000000
#022331:0012
#022371:00000022
#023391:12
#0233b1:0022000000000000
#023351:00120000
#023331:0000002200000000
#023381:0000000012220000
#023360:0000000000122200
#0233a1:0000000000001222
#023340:0000000000000012
#024340:22
#025350:0000000013230000
#025320:0000000000001323
#0263b0:0013
#026380:0000000000230000
#026351:0000000000130000
#026321:00000023
#026370:00000013
#0273b0:23
#027380:0000000013230000
#0273b0:0000000000001323
#0283b0:13
#028370:00230000
#028321:00130000
#028361:0023
#028321:00000013
#029361:23
#0293b0:1300002300000000
#029370:00000053000000000000000000000000
#0303b0:13230000
#030321:00132300
#0303b0:0013
#030370:00000023
#031320:13
#031360:0023000000000000
#031371:13
#0313b1:0023000000000000
#0313b1:00130000
#031371:0000002300000000
#031360:00130000
#031320:0000002300000000
#0313b0:0000000013230000
#031321:0000000000132300
#031380:0000000000001323
#031351:0000000000000013
#032351:23
#0323b0:1323000000000000
#032320:0000132300000000
#032380:00001324
#0323b0:0000000000530000
#032351:0013
#032321:0000000000530000
#032341:00000024
#033321:1300002300000000
#033361:00000053000000000000000000000000
#034321:13
#034351:0033230000000000
#0343b0:00130000
#034380:0000003323000000
#034360:00000014
#0353a0:24
#035320:0013000000000000
#035350:0000002300000000
#035320:0000000013230000
#035381:0000000000132300
#035350:0000000000001323
#0353b1:0000000000000013
#0363b1:23
#036341:00000014000000000000000000000000
#036321:00000023
#037371:13
#0373b1:00333333230000000000000000000000
#037360:00130000
#037320:00000000003333332300000000000000
#038320:00130000
#038360:00000000003333332300000000000000
#038370:0000000000000013
#0393b0:23
#039350:0000000013230000
#0393b1:0000000000132300
#039320:0000000000001323
#039381:0000000000000013
#040381:23
#040340:14240000
#040320:0053000000000000
#040381:00142400
#0403b1:0000005300000000
#040320:00001424
#040360:0000000000530000
#0403a1:00000014
#040371:0000000000000053
#0413a1:24
#041381:0013
#0413b1:00000000000000000033333300000000
#0413a1:00000024
#042351:0014
#042321:00000000000000000054240000000000
#042371:00000014
#0423a1:00000000000000000000000000542400
#0433b1:13
#043381:00000026
#043320:13000026
#0453a0:14240000
#045360:0054000000000000
#045321:00142400
#045361:0000005400000000
#0453b0:0000000013230000
#045320:0000000000001323
#0463a0:14
#046360:0034240000000000
#046321:00140000
#046361:0000003424000000
#047351:0000000000001323
#048321:00001324
#048361:0000000000540000
#049321:14240000
#049361:0054000000000000
#0493a0:00142400
#049360:0000005400000000
#049321:0000000013230000
#0493b1:0000000000001323
#050321:14
#050361:0034240000000000
#0503a0:00140000
#050360:0000003424000000
#0513b0:13230000
#051380:0053000000000000
#053330:12
#053360:00220000
#053360:0012
#053330:00000022
#0543b0:12
#054380:00220000
#054380:0012
#0543b0:00000022
#055380:0000000012000022
#0553b0:00000000000000000000003200000000
#057360:14
#057320:0024
#057361:0014
#0583a1:24
#058320:14
#058360:0024
#0583a1:0014
#059361:24
#061321:14240000
#061361:0054000000000000
#0613a0:00142400
#061360:0000005400000000
#061321:0000000014240000
#0613a1:0000000000001424
#062321:14
#062361:0034240000000000
#0623a0:00140000
#062360:0000003424000000
#0623a0:00000014
#062380:0000000000000034
#063360:24
#064350:0013
#064320:00000024
#0653a0:14240000
#065360:0054000000000000
#065321:00142400
#065361:0000005400000000
#0653a0:0000000014240000
#065320:0000000000001424
#0663a0:14
#066360:0034240000000000
#066321:00140000
#066361:0000003424000000
#067321:13230000
#067361:0053000000000000
#0673b1:0000000013230000
#067321:0000000000001323
#068321:00001424
#068351:0000000000540000
#0683a0:00001424
#068370:000000000000000000000000000000000000000000000000000000000000000000000000000000000000000000000000000000000000000000000000000000000000000000000000000000000000000000000000000000000000000000000000000000000000000000000000000000000000000000000000000000000000000000000000000000000000000000000000000000000000000000000000000000000000000000000000000000000000000000000000000000000000000000000000000000000000000000000000000000000000000000000000000000000000000000000000000000000000000000000000000000000000000000000000000000000000000000000000000000000000000000000000000000000000000000000000000000000000000000000000000000000000000000000000000000000000000000000000000000000000000000000000000000000000000000000000000000000000000000000000000000000000000000000000000000000000000000000000000000000000000000000000000000000000000000000000000000000000000000000000000000000000000000000000000000000000000000000000000000000000000000000000000000000000000000000000000000000000000000000000000000000000000000000000000000000000000000000000000000000000000000000000000000000000000000000000000000000000000000000000000000000000000000000000000000000000000000000000000000000000000000000000000000000000000000000000000000000000000000000000000000000000000000000000000000000000000000000000000000000000000000000000000000000000000000000000000000000000000000000000000000000000000000000000000000000000000000000000000000000000000000000000000000000000000000000000000000000000000000000000000000000000000000000000000000000000000000000000000000000000000000000000000000000000000000000000000000000000000000000000000000000000000000000000000000000000000000000000000000000000000000000000000000000000000000000000000000000000000000000000000000000000000000000000000000000000000000000000000000000000000000000000000000000000000000000000000000000000000000000000000000000000000000000000000000000000000000000000000000000000000000000000000000000000000000000000000000000000000000000000000000000000000000000000000000000000000000000000000000000000000000000000000000000000000000000000000000000000000000000000000000000000000000000000000000000000000000000000000000000000000000000000000000000000000000000000000000000000000000000000000000000000000000000000000000000000000000000000000000000000000000000000000000000000000000000000000000000000000000000000000000000000000000000000000000000000000000000000000000000000000000000000000000000000000000000000000000000000000000000054000000000000000000000000000000000000000000000000000000000000000000000000000000000000000000000000000000000000000000000000000000000000000000000000000000000000000000000000000000000000000000000000000000000000000000000000000000000000000000000000000000000000000000000000000000000000000000000000000000000000000000000000000000000000000000000000000000000000000000000000000000000000000000000000000000000000000000000000000000000000000000000000000000000000000000000000000000000000000000000000000000000000000000000000000000000000000000000000000000000000000000000000000000000000000000000000000000000000000000000000000000000000000000000000000000000000000000000000000000000000000000000000000000000000000000000000000000000000000000000000000000000000000000000000000000000000000000000000000000000000000000000000000000000000000000000000000000000000000000000000000000000000000000000000000000000000000000000000000000000000000000000000000000000000000000000000000000000000000000000000000000000000000000000000000000000000000000000000000000000000000000000000000000000000000000000000000000000000000000000000000000000000000000000000000000000000000000000000000000000000000000000000000000000000000000000000000000000000000000000000000000000000000000000000000000000000000000000000000000000000000000000000000000000000000000000000000000000000000000000000000000000000000000000000000000000000000000000000000000000000000000000000000000000000000000000000000000000000000000000000
#0693a0:14
#069360:0054000000000000
#069380:00260000
#069321:00142400
#069361:0000005400000000
#069360:0014
#0693a0:0000000000240000
#069360:00000014
#069320:0000000000000024
#0723a0:00001424
#072370:0000000000540000
#072321:00001424
#072351:000000000000000000000000000000000000000000000000000000000000000000000000000000000000000000000000000000000000000000000000000000000000000000000000000000000000000000000000000000000000000000000000000000000000000000000000000000000000000000000000000000000000000000000000000000000000000000000000000000000000000000000000000000000000000000000000000000000000000000000000000000000000000000000000000000000000000000000000000000000000000000000000000000000000000000000000000000000000000000000000000000000000000000000000000000000000000000000000000000000000000000000000000000000000000000000000000000000000000000000000000000000000000000000000000000000000000000000000000000000000000000000000000000000000000000000000000000000000000000000000000000000000000000000000000000000000000000000000000000000000000000000000000000000000000000000000000000000000000000000000000000000000000000000000000000000000000000000000000000000000000000000000000000000000000000000000000000000000000000000000000000000000000000000000000000000000000000000000000000000000000000000000000000000000000000000000000000000000000000000000000000000000000000000000000000000000000000000000000000000000000000000000000000000000000000000000000000000000000000000000000000000000000000000000000000000000000000000000000000000000000000000000000000000000000000000000000000000000000000000000000000000000000000000000000000000000000000000000000000000000000000000000000000000000000000000000000000000000000000000000000000000000000000000000000000000000000000000000000000000000000000000000000000000000000000000000000000000000000000000000000000000000000000000000000000000000000000000000000000000000000000000000000000000000000000000000000000000000000000000000000000000000000000000000000000000000000000000000000000000000000000000000000000000000000000000000000000000000000000000000000000000000000000000000000000000000000000000000000000000000000000000000000000000000000000000000000000000000000000000000000000000000000000000000000000000000000000000000000000000000000000000000000000000000000000000000000000000000000000000000000000000000000000000000000000000000000000000000000000000000000000000000000000000000000000000000000000000000000000000000000000000000000000000000000000000000000000000000000000000000000000000000000000000000000000000000000000000000000000000000000000000000000000000000000000000000000000000000000000000000000000000000000000000000000000000000000000000000000000000054000000000000000000000000000000000000000000000000000000000000000000000000000000000000000000000000000000000000000000000000000000000000000000000000000000000000000000000000000000000000000000000000000000000000000000000000000000000000000000000000000000000000000000000000000000000000000000000000000000000000000000000000000000000000000000000000000000000000000000000000000000000000000000000000000000000000000000000000000000000000000000000000000000000000000000000000000000000000000000000000000000000000000000000000000000000000000000000000000000000000000000000000000000000000000000000000000000000000000000000000000000000000000000000000000000000000000000000000000000000000000000000000000000000000000000000000000000000000000000000000000000000000000000000000000000000000000000000000000000000000000000000000000000000000000000000000000000000000000000000000000000000000000000000000000000000000000000000000000000000000000000000000000000000000000000000000000000000000000000000000000000000000000000000000000000000000000000000000000000000000000000000000000000000000000000000000000000000000000000000000000000000000000000000000000000000000000000000000000000000000000000000000000000000000000000000000000000000000000000000000000000000000000000000000000000000000000000000000000000000000000000000000000000000000000000000000000000000000000000000000000000000000000000000000000000000000000000000000000000000000000000000000000000000000000000000000000000000000000000000000
#073321:14260000
#073361:0054000000000000
#0733a0:00142400
#073360:0000005400000000
#073361:0014
#073321:0000000000240000
#073361:00000014
#0733a1:0000000000000024
#074321:00001424
#074361:0000000000540000
#075361:14
#0753a1:00240000
#076321:1424000000000000
#0763a1:0000142400000000
#076321:00001424
#076361:0000000000540000
#077341:12
#077361:00220000
#078341:00001222
#059930:0014240000000000
#059940:0000001424000000
#059950:0000000000142400
