This file was generated by Ched 2.7.0.0.
#TITLE ""
#ARTIST ""
#DESIGNER ""
#DIFFICULTY 0
#PLAYLEVEL
#SONGID ""
#WAVE ""
#WAVEOFFSET 0
#JACKET ""
#REQUEST "ticks_per_beat 480"
#00002: 4
#BPM01: 148
#00008: 01
#TIL00: ""
#VOLUME: ""
#HISPEED 00
#MEASUREHS 00
#00516:1200001200000000
#0051a:0012000000000000
#00518:0000000012000012
#00514:0000000000120000
#00718:0000000012000012
#00716:1200001200000000
#0071a:0012000000000000
#00714:0000000000120000
#0091b:2313000000000000
#00915:00130000
#0091a:0000001300000000
#00914:0013
#00919:0000000000130000
#00913:00000013
#00918:0000000000000013
#00910:41
#01012:1313001300000000
#01018:00130013
#0101b:0013
#01015:0000000000130000
#01112:1313000000000000
#01118:00130000
#01113:0000001300000000
#01119:0013
#0111a:00000013
#01114:0000000000130000
#01115:0000000000000013
#0121b:1313
#01215:00130000
#01218:00000000000000000000333300000000
#0171b:13
#01712:0013
#01718:0000000000130000
#01715:00000013
#01710:41
#0181b:1313
#01815:0013000000000000
#01818:00130000
#01812:0000001300000013
#01915:1300001300000013
#01918:0013000013000000
#0191b:00130013
#01912:0000000000130000
#02018:1300001300000000
#02015:0013130013000000
#02512:2313000000000000
#02516:00140000
#02513:0000001300000000
#02518:0014
#0251a:00000014
#02514:0000000000130000
#02515:0000000000000013
#02510:41
#0261b:1313001300000000
#02615:00130013
#02612:0013
#02618:0000000000130000
#02812:13000000000000000000333300000000
#02818:00130000
#02815:0013
#02918:1300000000130000
#02912:0013
#02915:00000013
#0291b:0000000000000013
#0301b:0000001300000013
#03012:1313
#03015:0013000000000000
#03018:00130000
#03212:13
#03218:0013001300000000
#03215:00130000
#0321b:0013
#03612:13
#03615:00003333000000000000000000000000
#03715:0013001300000000
#03718:00130013
#0371b:2313
#03712:0000000000130013
#03710:41
#0381b:1313
#03818:0013000000001300
#03815:0000130000000013
#03812:0000001300130000
#03918:0013130013000000
#03912:0000001300000000
#03915:0000000000130013
#0391b:00000013
#04012:13
#04018:13
#0401b:0013
#04015:0013
#04115:0013000000000000
#04118:00131300
#04112:0000001300000000
#0411b:2300000000333333
#04212:1313
#04218:0013000000000000
#04215:0000130000333333
#0421b:0000001300000000
#04318:13
#04415:0000000013131300
#04412:26666666000000000000000000000000
#04418:0000002400000000
#0461b:1313
#04615:00130013
#04618:0013000000000013
#04612:0000001300000000
#04712:13
#0471b:0000130000000013
#04715:0000001300131300
#04718:00000000000000001300001300000000
#04812:13
#04818:0013000000000000
#04815:00131300
#0481b:0000001300000000
#05018:0000130000000013
#05012:1313
#05015:0013000000000000
#0501b:0000001300000000
#05115:1313
#05118:0000001300000000
#0511b:0000000000130000
#05112:0000000000000013
#06112:2414
#06118:0000000000140000
#06114:00000014
#0611a:2400000000000014
#0611f:21
#06213:14
#06215:0014000000000013
#06217:00140000
#06219:0000001400000000
#06218:00000013
#06212:0024
#06210:41
#0631b:1300000000130000
#06315:00000000130000000000001300001300
#06318:0000001300001300
#06312:0013
#06412:13
#06415:0013000013000000
#06418:00130000
#0641b:0000001300000000
#0671b:0000001300000000
#06718:00001313
#06715:1300000000130000
#06712:0000000000000013
#07012:1424
#07016:0014001400000000
#0701a:00140000
#07018:00000013
#0701b:0000000000000033
#07115:00000000130000000000001300000000
#07118:0000001300131300
#07112:0000000013000013
#0721a:14
#07218:0014000000000000
#07216:00140000
#07212:0014
#07214:0000001400000000
#0751b:13
#07512:0000001300000000
#07518:0000000013000013
#07515:0000000000130000
#07615:0013000023000000
#0761b:0000001300000000
#07618:0000230000000013
#07612:23
#0771a:0000001200000012
#07718:0012
#07716:0000000000120000
#07714:12
#00616:1200001200000000
#0061a:0012000000000000
#00618:0000000012000012
#00614:0000000000120000
#00814:14141400
#01312:2313000000000000
#01318:00130000
#01313:0000001300000000
#01319:0013
#01314:0000000000130000
#0131a:00000013
#01315:0000000000000013
#0141b:1313001300000000
#01415:00130013
#01412:0013
#01418:0000000000130000
#0151b:1313000000000000
#01515:00130000
#0151a:0000001300000000
#01514:0013
#01513:00000013
#01519:0000000000130000
#01518:0000000000000013
#01612:1313
#01618:00130000
#01615:00000000000000000000333300000000
#02112:1300000000000013
#0211b:0013
#02115:0000000000130000
#02118:00000013
#02212:1313
#02218:0013000000000000
#02215:00130000
#0221b:0000001300000013
#02318:1300001300000013
#02315:0013000013000000
#02312:00130013
#0231b:0000000000130000
#02415:1300001300000000
#02418:0013130013000000
#0271b:1313000000000000
#02716:00140000
#0271a:0000001300000000
#02714:0014
#02712:00000014
#02719:0000000000130000
#02718:0000000000000013
#03116:1400001400000000
#0311b:0013000000130000
#03112:00131300
#03118:00000013
#03115:0000000000000013
#03315:1300000000130000
#0331b:0013
#03318:00000013
#03312:0000000000000013
#0341b:1313
#03418:0013000000000000
#03415:00130000
#03412:0000001300001300
#0351b:0013000000000000
#03515:00130013
#03518:0000001300130013
#03512:0013
#0451b:0013
#04515:2400000000130000
#04518:00000013
#04512:0000000000000013
#0451a:24
#04510:41
#04912:2413
#04918:0000000000130000
#04915:00000013
#0491b:0000000000000013
#04917:24
#05215:0014000000000000
#05213:0000001400000000
#0521a:24
#05218:00240000
#05216:0024
#05318:0000131300000000
#05315:0013
#0531f:11
#05313:23
#0531a:23
#05413:13
#05415:0000131300000000
#05418:00001313
#0541a:13
#0551a:13
#05518:0000131300000000
#05513:13
#05515:0013
#05613:13
#05615:0000131300001300
#0561a:13
#05618:0000000013130013
#06018:26666666000000001300130013000000
#06014:0000002400000000
#0651a:2414
#06514:0000000000140000
#06518:00000014
#06512:2400000000000014
#06619:14
#06617:0014000000000000
#06615:00140000
#06613:0000001400000000
#06618:0000000000000013
#0661a:0024
#0691a:00241400
#06914:0000240000140000
#06916:00000014
#06918:2400000000000014
#06912:24
#07312:00241400
#07318:0000240000140000
#07316:00000014
#07314:2400000000000014
#0731a:24
#07816:1212
#07818:0012001200000000
#07814:00120052
#07415:0000000000000013
#0741a:1424
#07416:0014001400000000
#07412:00140000
#05916:24
#05714:24
#05718:0024
#05815:24
#05817:0024
#0681a:2424
#06816:0024002400000000
#06812:00240000
#05956:64
#0125b:5353
#01255:00530000
#01258:00000013
#0175b:53
#02055:0053
#02852:63000013
#02858:00630000
#02855:0053
#02958:63
#0325b:0053
#03652:63
#04052:53000013
#04055:00136300
#04058:53000013
#0405b:00136300
#04158:0053
#04252:0053
#04358:53
#04555:54
#0455a:54
#04552:00140000
#04557:00140000
#04855:0053
#05155:63
#05754:54
#05758:0064
#05855:54
#05857:0064
#0615a:54
#06158:00140000
#06152:64
#06154:00140000
#06455:0053
#0685a:0054
#06952:14
#06958:14
#0695a:00140000
#06954:00140000
#07058:00000053
#07052:0034
#07252:0064
#0755b:63
#00854:14141400
#01058:00000013
#01652:6363
#01658:00630000
#01655:00000013
#01455:00000013
#02152:63
#02458:0063
#02655:00000013
#03052:0013
#03355:53
#0345b:0013
#03452:00000053
#03855:0000000000000013
#0465b:0043
#05052:0033
#04952:64
#04957:64
#0495a:00140000
#04955:00140000
#06552:64
#0655a:54
#06554:00140000
#06558:00140000
#06755:53
#0735a:14
#07354:14
#07358:00140000
#07352:00140000
#0715b:13
#07754:52
#07856:0052
#07655:0063
#04752:33
#06252:0034
#0665a:0044
#0635b:43
#0745a:0044
#0123b0:13
#012380:00230000
#012351:00130000
#012321:0023
#0123b0:0013
#012380:00000000000000000000333323000000
#016320:13
#016350:00230000
#016381:00130000
#0163b1:0023
#016320:0013
#016350:00000000000000000000333323000000
#0173b0:13
#017380:0000002300000000
#020350:0013
#020320:00000023
#021320:13
#021350:0000002300000000
#024380:0013
#0243b0:00000023
#028320:13
#028350:00230000
#028381:00130000
#0283b1:0023
#028350:0013
#028320:00000000000000000000333323000000
#029380:13
#0293b0:0000002300000000
#0323b0:0013
#032380:00000023
#033350:13
#033320:0000002300000000
#034320:00000013
#035350:23
#036320:13
#036350:00003333000000002300000000000000
#040320:13
#040350:00230000
#040381:13
#0403b1:00230000
#0403b1:0013
#040381:00000023
#040350:0013
#040320:00000023
#041380:0013
#0413b0:0000000000333333
#0423b0:23
#042320:0013
#042350:0000000000333333
#043350:23
#043381:13000026
#045351:14
#045321:00240000
#0453a0:14
#045370:00240000
#048350:0013
#048320:00000023
#049370:14
#0493a0:00240000
#049321:14
#049351:00240000
#051351:13
#051321:00230000
#057341:14
#057321:0024
#057380:0014
#0583a0:24
#058351:14
#058321:0024
#058370:0014
#0593a0:24
#059361:14
#060321:24
#0613a1:14
#061381:00240000
#061320:14
#061340:00240000
#064350:0013
#064320:00000023
#065320:14
#065340:00240000
#0653a1:14
#065381:00240000
#067351:13
#067321:00230000
#0683a1:0014
#068361:00000024
#070381:00000013
#0703b1:0000000000000033
#0713b1:23
#072321:0014
#072351:00000026
#0753b1:13
#075381:00230000
#076351:0013
#076321:00000023
#077341:12
#077361:00220000
#078361:0012
#078341:00000022
#044920:160000000000000000000000000000000000000000000000000000000000000000000000000000000000000000000000000000000000000000000000000000000000000000000000000000000000000000000000000000000000000000000000000000000000000000000000000000000000000000000000000000000000000000000000000000000000000000000000000000000000000000000000000000000000000000000000000000000000000000000000000000000000000000000000000000000000000000000000000000000000000000000000000000000000000000000000000000000000000000000000000000000000000000000000000000000000000000000000000000000000000000000000000000000000000000000000000000000000000000000000000000000000000000000000000000000000000000000000000000000000000000000000000000000000000000000000000000000000000000005656260000000000000000000000000000000000000000000000000000000000000000000000000000000000000000000000000000000000000000000000000000000000000000000000000000000000000000000000000000000000000000000000000000000000000000000000000000000000000000000000000000000000000000000000000000000000000000000000000000000000000000000000000000000000000000000000000000000000000000000000000000000000000000000000000000000000000000000000000000000000000000000000000000000000000000000000000000000000000000000000000000000000000000000000000000000000000000000000000000000000000000000000000000000000000000000000000000000000000000000000000000000000000000000000000000000000000000000000000000000000000000000000000000000000000000000000000000000000000000000000000000000000000000000000000000000000000000000000000000000000000000000000000000000000000000000000000000000000000000000000000000000000000000000000000000000000000000000000000000000000000000000000000000000000000000000000000000000000000000000000000000000000000000000000000000000000000000000000000000000000000000000000000000000000000000000000000000000000000000000000000000000000000000000000000000000000000000000000000000000000000000000000000000000000000000000000000000000000000000000000000000000000000000000000000000000000000000000000000000000000000000000000000000000000000000000000000000000000000000000000000000000000000000000000000000000000000000000000000000000000000000000000000000000000000000000000000000000000000000000000000000000000000000000000000000000000000000000000000000000000000000000000000000000000000000000000000000000000000000000000000000000000000000000000000000000000000000000000000000000000000000000000000000000000000000000000000000000000000000000000000000000000000000000000000000000000000000000000000000000000000000000000000000000000000000000000000000000000000000000000000000000000000000000000000000000000000000000000000000000000000000000000000000000000000000000000000000000000000000000000000000000000000000000000000000000000000000000000000000000000000000000000000000000000000000000000000000000000000000000000000000000000000000000000000000000000000000000000000000000000000000000000000000000000000000000000000000000000000000000000000000000000000000000000000000000000000000000000000000000000000000000000000000000000000000000000000000000000000000000000000000000000000000000000000000000000000000000000000000000000000000000000000000000000000000000000000000000000000000000000000000000000000000000000000000000000000000000000000000000000000000000000000000000000000000000000000000000000000000000000000000000000000000000000000000000000000000000000000000000000000000000000000000000000000000000000000000000000000000000000000000000000000000000000000000000000000000000000000000000000000000000000000000000000000000000000000000000000000000000000000000000000000000000000000000000000000000000000000000000000000000000000000000000000000000000000000000000000000000000000000000000000000000000000000000000000000000000000000000000000000000000000000000000000000000000000000000000000000000000000000000000000000000000000000000000000000000000000000000000000000000000000000000000000000000000000000000000000000000000000
#060980:160000000000000000000000000000000000000000000000000000000000000000000000000000000000000000000000000000000000000000000000000000000000000000000000000000000000000000000000000000000000000000000000000000000000000000000000000000000000000000000000000000000000000000000000000000000000000000000000000000000000000000000000000000000000000000000000000000000000000000000000000000000000000000000000000000000000000000000000000000000000000000000000000000000000000000000000000000000000000000000000000000000000000000000000000000000000000000000000000000000000000000000000000000000000000000000000000000000000000000000000000000000000000000000000000000000000000000000000000000000000000000000000000000000000000000000000000000000000000000005656260000000000000000000000000000000000000000000000000000000000000000000000000000000000000000000000000000000000000000000000000000000000000000000000000000000000000000000000000000000000000000000000000000000000000000000000000000000000000000000000000000000000000000000000000000000000000000000000000000000000000000000000000000000000000000000000000000000000000000000000000000000000000000000000000000000000000000000000000000000000000000000000000000000000000000000000000000000000000000000000000000000000000000000000000000000000000000000000000000000000000000000000000000000000000000000000000000000000000000000000000000000000000000000000000000000000000000000000000000000000000000000000000000000000000000000000000000000000000000000000000000000000000000000000000000000000000000000000000000000000000000000000000000000000000000000000000000000000000000000000000000000000000000000000000000000000000000000000000000000000000000000000000000000000000000000000000000000000000000000000000000000000000000000000000000000000000000000000000000000000000000000000000000000000000000000000000000000000000000000000000000000000000000000000000000000000000000000000000000000000000000000000000000000000000000000000000000000000000000000000000000000000000000000000000000000000000000000000000000000000000000000000000000000000000000000000000000000000000000000000000000000000000000000000000000000000000000000000000000000000000000000000000000000000000000000000000000000000000000000000000000000000000000000000000000000000000000000000000000000000000000000000000000000000000000000000000000000000000000000000000000000000000000000000000000000000000000000000000000000000000000000000000000000000000000000000000000000000000000000000000000000000000000000000000000000000000000000000000000000000000000000000000000000000000000000000000000000000000000000000000000000000000000000000000000000000000000000000000000000000000000000000000000000000000000000000000000000000000000000000000000000000000000000000000000000000000000000000000000000000000000000000000000000000000000000000000000000000000000000000000000000000000000000000000000000000000000000000000000000000000000000000000000000000000000000000000000000000000000000000000000000000000000000000000000000000000000000000000000000000000000000000000000000000000000000000000000000000000000000000000000000000000000000000000000000000000000000000000000000000000000000000000000000000000000000000000000000000000000000000000000000000000000000000000000000000000000000000000000000000000000000000000000000000000000000000000000000000000000000000000000000000000000000000000000000000000000000000000000000000000000000000000000000000000000000000000000000000000000000000000000000000000000000000000000000000000000000000000000000000000000000000000000000000000000000000000000000000000000000000000000000000000000000000000000000000000000000000000000000000000000000000000000000000000000000000000000000000000000000000000000000000000000000000000000000000000000000000000000000000000000000000000000000000000000000000000000000000000000000000000000000000000000000000000000000000000000000000000000000000000000000000000000000000000000000000000000000000000000000000
