This file was generated by Ched 2.7.0.0.
#TITLE ""
#ARTIST ""
#DESIGNER ""
#DIFFICULTY 0
#PLAYLEVEL
#SONGID ""
#WAVE ""
#WAVEOFFSET 0
#JACKET ""
#REQUEST "ticks_per_beat 480"
#00002: 4
#BPM01: 148
#00008: 01
#TIL00: ""
#VOLUME: ""
#HISPEED 00
#MEASUREHS 00
#00514:14
#00912:14
#00918:0014
#00910:41
#01014:14
#0101a:0014
#01112:14
#01118:0014
#0371a:14
#03714:00140014
#03718:0014
#03710:41
#0381a:14
#03814:00140014
#03818:0014
#0131a:14
#01314:0014
#01418:14
#01412:0014
#0151a:14
#01514:0014
#01818:1414
#01814:00140000
#01912:1414
#01918:00140000
#0201a:1414
#02014:00140000
#02214:1414
#02218:00140000
#0231a:1414
#02314:00140000
#02412:1414
#02418:00140000
#0251a:14
#02514:0014
#02510:41
#02618:14
#02612:0014
#0271a:14
#02714:0014
#03018:14
#03014:00140000
#0301a:0014
#03114:14
#03118:00140000
#03112:0014
#03218:14
#03214:00140000
#0321a:0014
#03414:14
#03418:00140000
#03412:0014
#03518:14
#03514:00140000
#0351a:0014
#04112:14
#04118:00140014
#04114:0014
#04212:14
#04218:00140014
#04214:0014
#04514:00140000
#04518:0014
#04512:00000014
#0451a:24
#04510:41
#04618:14
#04614:00000014
#0461a:0034343400000000
#0471a:14
#04712:00140000
#04718:0014
#04714:00000014
#0481a:14
#04818:0034343400000000
#04918:00140000
#04914:0014
#0491a:00000014
#04912:14
#05014:14
#05012:0034343400000000
#0511a:14
#05112:00140000
#05118:0014
#05114:00000014
#05312:00000014
#05314:14
#0531f:11
#0551a:00000014
#05518:14
#06118:00140000
#06114:0014
#0611a:00000014
#06112:24
#0611f:21
#06214:14
#06218:00000014
#06212:0034343400000000
#06210:41
#06312:14
#0631a:00140000
#06314:0014
#06318:00000014
#06412:14
#06414:0034343400000000
#06514:00140000
#06518:0014
#06512:00000014
#0651a:14
#06618:14
#0661a:0034343400000000
#06712:14
#0671a:00140000
#06714:0014
#06718:00000014
#06912:24140000
#06918:0014
#06914:00000014
#07018:14
#07012:00000014
#0701a:0034343400000000
#0711a:14140000
#07114:0014
#07118:00000014
#07214:14
#07212:0034343400000000
#0731a:24140000
#07314:0014
#07318:00000014
#07414:14
#07412:0034343400000000
#0751a:14140000
#07514:0014
#07518:00000014
#07612:14
#07614:0034343400000000
#07718:14
#07716:0014
#00618:14
#00714:14
#01714:14
#01710:41
#02118:14
#02914:14
#03318:14
#03612:14
#00818:26262600
#04412:24
#0441a:24
#05714:24
#05718:0024
#05814:24
#05818:0024
#05914:24
#05218:26262600
#06812:26260000
#06818:00002626
#07814:00340000
#0445a:14
#04452:14
#04658:54
#0485a:64
#04858:0014
#05054:64
#05352:00000024
#05354:54
#0555a:00000024
#05558:64
#05754:14
#05758:0014
#05858:0014
#05854:14
#05954:64
#06052:14
#06254:64
#06452:54
#06454:0014
#06658:54
#07058:54
#07254:64
#07252:0014
#07454:64
#07652:54
#01754:64
#02158:54
#02954:54
#03358:64
#03652:54
#012340:1424
#016380:1424
#017340:14
#017320:0024
#021380:14
#0213a0:0024
#028380:1424
#029340:14
#029320:0024
#033380:14
#0333a0:0024
#036320:14
#036340:0024
#039380:14
#0393a0:0034
#040380:34
#0403a0:0024
#043320:1424
#046380:14
#0463a0:0034343424000000
#0483a0:14
#048380:0034343424000000
#050340:14
#050320:0034343424000000
#053340:14
#053320:00000054
#054340:0024
#055380:14
#0553a0:00000054
#056380:0024
#059340:14
#060320:24
#062340:14
#062320:0034343424000000
#064320:14
#064340:0034343424000000
#066380:14
#0663a0:0034343424000000
#070380:14
#0703a0:0034343424000000
#072340:14
#072320:0034343424000000
#074340:14
#074320:0034343424000000
#076320:14
#076340:0034343424000000
#078340:14340000
#078320:0024
