This file was generated by Ched 2.7.0.0.
#TITLE ""
#ARTIST ""
#DESIGNER ""
#DIFFICULTY 0
#PLAYLEVEL
#SONGID ""
#WAVE ""
#WAVEOFFSET 0
#JACKET ""
#REQUEST "ticks_per_beat 480"
#00002: 4
#BPM01: 148
#00008: 01
#TIL00: ""
#VOLUME: ""
#HISPEED 00
#MEASUREHS 00
#00815:0000001300000013
#00818:1313
#00812:0000000000130000
#0081b:00130013
#00810:41
#0091b:0000001300000013
#00915:0013
#00918:0000000000130000
#00912:00000013
#01012:0013000000130000
#01018:00130013
#01015:0000001300000013
#0101b:0013
#01215:00001313
#0121b:0000000000130000
#01212:00130000
#01218:0000001300000013
#01612:0013000000130000
#01618:00130013
#0161b:0013
#01615:0000001300000013
#01610:41
#01715:00001313
#0171b:0000001300000013
#01718:0000000000130000
#01712:0000000000000013
#02012:00130000
#02015:00001313
#02018:0000001300000013
#0201b:0000000000130000
#02312:0000001300000013
#02318:0013
#02315:0000000000130000
#0231b:00000013
#02310:41
#0251b:0013
#02515:00000013
#02712:00130000
#02718:0000001300000013
#02715:00001313
#0271b:0000000000130000
#02915:0000001300000013
#02918:00001313
#02912:0000000000130000
#03612:0013000000000013
#03618:00130013
#03615:0000001300130000
#0361b:0013
#0361a:24
#0361f:21
#03718:00000013
#03715:0013000000000023
#0371b:0000000000130000
#03710:41
#03918:0013000000001300
#03912:0000000000000013
#03915:0000000000130000
#04215:0013
#04218:0000000000130000
#04212:00000013
#0421a:0000000000000014
#04314:0014000000000000
#04318:0000001400001300
#04315:0000000000130013
#05115:0013000000130013
#0511b:0013000000000000
#05118:0000001300001300
#05112:0000001300000000
#0191b:0000001300000000
#01918:0000000000130000
#01915:00130000
#02115:0000001300000000
#02118:0000000000000013
#0221b:00000000000000130000000000000000
#04112:00130000000000000000000000000000
#04118:0000002300000023
#04115:00000023
#00018:13
#00015:13
#0011a:13
#00113:13
#00215:13
#00313:13
#0031a:13
#00418:13
#0051a:13
#00513:13
#00615:13
#00713:13
#0071a:13
#01118:0000001300000000
#0111b:0000000000130000
#0131b:0013000000000013
#01318:0000001300000000
#01315:0000000000000013
#01418:00000000001300000000000000000000
#01412:00000000001300000000000000000000
#0181b:0013000000130000
#01815:00130013
#01812:0013
#01818:0000001300000013
#02415:0013000000000000
#02412:0000001300000000
#0241f:11
#02618:13
#0261b:0013
#0281b:0013000000000000
#02818:0000001300000000
#03012:0013000000000000
#03015:0000001300000000
#03118:00000013
#03115:0000000000000013
#03218:0000130000000013
#03215:0000001300003300
#03212:0000000000130000
#03312:0014
#03316:0000000000140000
#0331a:00000014
#0381b:0013000000000013
#03815:00130013
#03818:0000001300130000
#03812:0013
#0441b:0013000000000013
#04415:00130013
#04418:0000001300130000
#04412:2413
#04515:00000013
#04518:0013000000000023
#04512:0000000000130000
#04715:0013000000001300
#0471b:0000000000000013
#04718:0000000000130000
#04818:00000013
#04815:0000000000130013
#04912:0000000000000013
#04918:0000001300000000
#04910:41
#04612:0013000000000013
#04618:00130013
#04615:0000001300130000
#0461b:0013
#05015:0000130000000013
#05018:00000013
#05218:13
#0521a:00000014
#05418:0000000000000013
#05415:0000000000000013
#06616:0000001400000000
#0661a:0000000000343414
#06716:00003434140000000000000000000000
#0671a:0000000000140000
#06816:00000014
#06812:24
#07318:12
#07314:12
#0741a:12
#07518:12
#07516:12
#05315:0000000000000013
#03412:0000000024000024
#03414:24240000
#03418:0024002400000000
#03416:0000000000240000
#0341a:00000024
#05518:0000000000230000
#05515:00000023
#0551a:0000002400000024
#05512:0000002400000000
#06416:24
#06410:41
#06918:0000000000240000
#06914:00000024
#0691a:0000000000000024
#03518:0024000000000000
#03514:0000002400000000
#05615:0000000000230000
#05618:00000023
#05612:0000000000000024
#05718:0000000000230000
#05715:00000023
#0571a:0000000000000024
#05815:0000000000230000
#05818:00000023
#05812:0000000000000024
#05918:0000000000230000
#05915:00000023
#0591a:0000000000000024
#06015:0000000000230000
#06018:00000023
#06012:0000000000000024
#06118:0000000000230000
#06115:00000023
#0611a:0000000000000024
#06215:0000000000230000
#06218:00000023
#06212:0000000000000024
#06316:0024000000000000
#0651a:0000000000000024
#06518:0000000000240000
#06514:00000024
#07014:0000000000240000
#07018:00000024
#07012:0000000000000024
#04018:00000023
#04015:0000000000000023
#07214:22
#0721a:22
#07614:52
#0761a:52
#01553:0000000000000014
#01559:0000000000000014
#03452:0000000000000014
#03952:0000000000000053
#03958:0063000000000000
#0395b:0000001300000000
#0565a:0014000000000000
#00855:0000000000000053
#0095b:0000000000000013
#01055:0000000000000053
#01655:0000000000000053
#0195b:0000005300000013
#01958:0000000000530000
#02058:0000000000000063
#02155:0000006300000000
#02158:0000000000000053
#0225b:00000000000000230000000000000000
#04152:00230000000000000000000000000000
#04158:0000005300000053
#06456:54
#0645a:14
#06852:54
#06856:14000024
#0695a:0000000000000054
#07058:0014000000000000
#07052:0000000000000064
#00058:53
#0015a:23
#00255:63
#00353:23
#00458:53
#0055a:23
#00655:63
#00753:23
#01158:0000005300000013
#0115b:0000000000530000
#01258:0000000000000053
#0135b:0053000000000053
#01358:0000005300000000
#01355:0000000000000053
#01458:00000000002300000000000000000000
#01452:00000000002300000000000000000000
#01858:0000000000000063
#02455:0053000000001300
#02452:0000005300000000
#02352:0000000000000053
#02658:53000013
#0265b:0053
#0285b:0053000000001300
#02858:0000005300000000
#02758:0000000000000053
#02955:0000000000000063
#03052:0063000000001300
#03055:0000006300000000
#03255:0000005300000000
#03252:0000000000230000
#03258:0000000000000063
#0335a:00000014
#03558:0014000000000000
#03554:0000001400000000
#03652:0000000000000053
#03755:0053000000000013
#03752:0000001300000000
#0385b:0000000000000063
#0425a:0000000000000014
#04354:0014000000000000
#04358:0000001400000000
#0475b:0000000000000063
#04755:0053000000000000
#04752:0000001300000000
#04952:0000000000000063
#04958:0000005300000000
#0445b:0000000000000063
#04558:0063000000000013
#0455b:0000001300000000
#04652:0000000000000053
#04855:0000000000000053
#05055:00530000
#05258:53
#0525a:00000024
#05458:0000000000000053
#05455:0000000000000053
#05752:0014000000000000
#0585a:0014000000000000
#05952:0014000000000000
#0595a:0000000000000054
#06058:0014000000000000
#06052:0000000000000054
#06154:0014000000000000
#0615a:0000000000000054
#06258:0014000000000000
#06356:0054000000000000
#06656:0000005400000000
#0665a:0000000000000054
#0655a:0000000000000054
#06756:00540000
#0675a:0000000000540000
#07154:0014000000000000
#07556:52
#07558:52
#0745a:52
#07358:52
#07354:52
#0555a:0000001400000000
#05552:0000001400000000
#04055:0000000000000053
#0725a:52
#000380:13
#0013a0:33
#002380:23
#002351:13
#003331:33
#004351:23
#004380:13
#0053a0:33
#006380:23
#006351:13
#007331:33
#008351:23
#008351:0000000000000013
#009321:00230000
#010351:0000000000000013
#011321:00230000
#011381:0000001300000023
#0113b1:0000000000330000
#012381:0000000000000013
#0133b1:0033000000003333
#013381:0000003300000000
#014381:00000000005300000000000000000000
#0143b1:00000023
#013350:0000000000000013
#014320:00000000005300000000000000000000
#014350:00000023
#015330:0000000000140024
#015391:0000000000140024
#016351:0000000000000013
#017321:00230000
#018381:0000000000000013
#0193b1:0023000000000000
#0193b1:0000001300000023
#019381:0000000000330000
#020381:0000000000000013
#0213b1:00230000
#021351:0000001300000000
#021321:00000023
#021381:0000000000000013
#0223b1:00000000000000530000000000000000
#023381:23
#023321:0000000000000013
#024351:0033000000332300
#024321:0000003300000000
#026381:13000023
#0263b1:0000003333000000
#027381:0000000000000013
#0283b1:0033000000332300
#028381:0000003300000000
#029351:0000000000000013
#030321:0033000000332300
#030351:0000003300000000
#032351:0000001300003323
#032321:0000000000530000
#032380:0000000000000013
#0333b0:00230000
#036320:0000000000000013
#037350:0033000000000000
#037320:0000002300000000
#0383b0:0000000000000013
#039380:0033000000000000
#0393b0:0000002300000000
#039320:0000000000000013
#040350:0023
#040350:0000000000000013
#041320:00530000000000000000000000000000
#041350:00230000
#041380:0000001300000000
#0413b0:0000000000230000
#041380:0000000000000013
#0423b0:0000002300000000
#0443b0:0000000000000013
#045380:0033000000000000
#0453b0:0000002300000000
#046320:0000000000000013
#047350:0033000000000000
#047320:0000002300000000
#0473b0:0000000000000013
#048380:0023
#048350:0000000000000013
#049320:00230000
#049380:0000001300000000
#0493b0:00000023
#049320:0000000000000013
#050350:00330000
#050320:0023
#052380:13
#0523a0:00000054
#053380:0023
#054380:1300002300000000
#0543b0:00000033000000000000000000000000
#054351:0000001300003333
#055321:0000002400000000
#054380:0000000000001333
#0553a0:0000002400000000
#0553a0:0000000000000014
#0563a0:0024000000000000
#056320:0000000000000014
#057320:0024000000000000
#0573a0:0000000000000014
#0583a0:0024000000000000
#058320:0000000000000014
#059320:0024000000000000
#0593a0:0000000000000014
#060380:0024000000000000
#060320:0000000000000014
#061340:0024000000000000
#0613a0:0000000000000014
#062380:0024000000000000
#062320:0000000000000014
#063320:0024000000000000
#063361:0014000000000000
#0643a1:24
#064360:14
#065320:0024
#0653a0:0000000000000014
#066360:0000343400000000
#0663a0:0000000000343434
#067360:00003434340000000000000000000000
#0673a0:0000000000340000
#068360:24
#068321:14
#068361:00000054
#069321:0024
#0693a1:0000000000000014
#070381:0024000000000000
#070321:0000000000000014
#071341:0024000000000000
#0723a1:12
#073381:32
#0743a1:32
#075381:32
#0763a1:22
#072340:12
#073340:32
#074360:32
#075360:32
#076340:22
