This file was generated by Ched 2.7.0.0.
#TITLE ""
#ARTIST ""
#DESIGNER ""
#DIFFICULTY 0
#PLAYLEVEL
#SONGID ""
#WAVE ""
#WAVEOFFSET 0
#JACKET ""
#REQUEST "ticks_per_beat 480"
#00002: 4
#BPM01: 148
#00008: 01
#TIL00: ""
#VOLUME: ""
#HISPEED 00
#MEASUREHS 00
#00018:14
#0001a:0014
#00118:14
#0011a:0014
#00218:14
#0021a:0014
#00318:14
#00414:14
#00412:0014
#00514:14
#00512:0014
#00614:14
#00612:0014
#00714:14
#0081a:1414
#00814:00140000
#00810:41
#00912:1414
#00918:00140000
#01018:1414
#01014:00140000
#01114:1414
#01118:00140000
#0121a:14
#01214:00140000
#01218:0014
#01212:00000014
#0131a:14
#01314:00140000
#01318:0014
#01312:00000014
#0141a:14
#01418:00343414
#01612:1414
#01618:00140000
#01610:41
#0171a:1414
#01714:00140000
#01814:1414
#01818:00140000
#01918:1414
#01914:00140000
#02012:14
#02018:00140000
#02014:0014
#0201a:00000014
#02112:14
#02118:00140000
#02114:0014
#0211a:00000014
#02212:14
#02214:00343414
#02514:0014
#02518:00000014
#02718:0014
#02714:00000014
#02914:0014
#02918:00000014
#03118:0014
#03114:00000014
#03218:14
#03214:0014
#03318:14
#03314:0014
#03618:00140014
#03612:2414
#0361f:21
#03712:14
#03714:00343400
#03710:41
#03814:00140014
#0381a:1414
#0391a:14
#03918:00343434
#04012:00000014
#04118:14
#04114:00140000
#0411a:0014
#04112:00000014
#04218:14
#04214:00140000
#0421a:0014
#04212:00000014
#0431a:14
#04318:00343400
#0441a:00140014
#04414:2414
#04514:14
#04512:00343400
#04618:1414
#04612:00140014
#04812:0014
#04818:00000014
#05112:14
#05114:00343400
#04718:14
#0471a:00343434
#05218:14343400
#0521a:0000000000000014
#05414:1414
#05418:00140014
#05618:14
#05614:00140000
#0561a:0024
#05714:14
#05718:00140000
#05712:0024
#05818:14
#05814:00140000
#0581a:0024
#05914:14
#05918:00140000
#05912:0024
#06018:14
#06014:00140000
#0601a:0024
#06114:14
#06118:00140000
#06112:0024
#06218:14
#06214:00140000
#0621a:0024
#06314:14
#06318:00140000
#06312:0024
#06414:14
#06412:00000014
#06410:41
#0661a:0014
#06618:24
#06718:14
#0671a:0014
#06818:14
#0681a:00000014
#07012:0014
#07014:24
#07114:14
#07112:0014
#0241f:11
#0341a:24
#03418:0034343400000000
#03514:0024000000000000
#03518:0000002400000000
#05514:24
#07318:24
#07414:24
#01518:34340000
#02314:34340000
#02310:41
#05318:00343400
#04910:41
#07612:53
#00058:54
#0005a:0024
#00158:54
#0015a:0024
#00258:54
#0025a:0024
#00358:54
#00454:64
#00452:0024
#00554:64
#00552:0024
#00654:64
#00652:0024
#00754:64
#01458:00000024
#0145a:54
#02252:64
#02254:00000024
#03458:0000000000000014
#0345a:54
#03554:0014000000000000
#03558:0000001400000000
#03754:00000014
#03752:54
#0395a:64
#04058:14
#04358:00000014
#0435a:54
#04554:64
#04552:00000014
#05152:64
#04454:14
#04758:54
#0485a:14
#0525a:0000000000000024
#05258:54
#05554:0000001400000000
#0565a:0014
#05752:0014
#0585a:0014
#05952:0014
#0605a:0014
#06152:0014
#0625a:0014
#06452:00000024
#06454:54
#06352:0054
#06658:54
#0665a:0054
#06758:54
#0675a:0054
#06858:64
#0685a:00000024
#07052:0064
#07054:64
#07154:64
#07152:0064
#000380:14
#0003a0:0054
#001380:34
#0013a0:0054
#002380:34
#0023a0:0034
#003380:34
#0033a0:0024
#004340:14
#004320:0054
#005340:34
#005320:0054
#006340:34
#006320:0034
#007340:34
#007320:0024
#0143a0:14
#014380:00343434
#015380:34340000
#0153a0:0024
#022320:14
#022340:00343434
#023340:34340000
#023320:0024
#0243a0:14000024
#024380:0000003400000000
#026320:14000024
#026340:0000003400000000
#0283a0:14000024
#028380:0000003400000000
#030320:14000024
#030340:0000003400000000
#0343a0:14
#034380:0034343434343424
#037320:14
#037340:00343424
#0393a0:14
#039380:00343434
#040380:24
#0433a0:14
#043380:00343424
#045340:14
#045320:00343424
#047380:14
#0473a0:00343434
#0483a0:24
#049320:14240000
#049380:00001424
#050340:14240000
#0503a0:00001424
#051320:14
#051340:00343424
#052380:14343400
#0523a0:0000000000000034
#053380:00343424
#055340:1434342400000000
#063320:0014
#064340:34
#064320:00000054
#065340:0024
#066380:14
#0663a0:0034
#067380:34
#0673a0:0034
#068380:34
#0683a0:00000054
#069380:0024
#070340:14
#070320:0034
#071340:34
#071320:0034
#072340:24
#074340:14
#076320:23
