This file was generated by Ched 2.7.0.0.
#TITLE ""
#ARTIST ""
#DESIGNER ""
#DIFFICULTY 0
#PLAYLEVEL
#SONGID ""
#WAVE ""
#WAVEOFFSET 0
#JACKET ""
#REQUEST "ticks_per_beat 480"
#00002: 4
#BPM01: 130
#00008: 01
#TIL00: ""
#VOLUME: ""
#HISPEED 00
#MEASUREHS 00
#0011a:1400000000140000
#00116:0000001400001400
#00113:0013
#00112:5600000000000014
#00216:1400001313000000
#0021a:0000000000140000
#00312:14
#0031a:14
#0031b:00000013
#00316:00000013
#00317:0000000000000013
#00417:0013000000000000
#00416:00131324
#0041a:0000000000240000
#00412:0000000000000024
#00518:16
#00512:0000000000140000
#00516:0000001400001400
#0051a:0000000014000014
#00616:14
#00612:0000000000140000
#00617:0000001313000000
#0071a:14
#00712:1400000000000013
#0071b:00000013
#00716:00000013
#00812:0013000000000000
#0081b:00132300
#00816:00006314
#00819:00000000000000000000000000000000000000000000000000000000000000000063000000000000000000000000000000000000000000000000000000000000
#00814:00000000000000000000000000000000000000000000000000000000000000000063000000000000000000000000000000000000000000000000000000000000
#00917:2600001400000000
#00912:2400001400000000
#00915:00000014000000000000000000000000
#00916:00000000000000000000000000000013
#0091a:00000000000000000000000000000014
#00910:41
#01016:00000014
#01113:16
#01115:0000001400000000
#0111a:2400001400000000
#01117:00000014000000000000000000000000
#01112:0000000000000023
#0121b:0013000000130000
#01216:0013000000000000
#01219:00131300
#01214:00131300
#01212:0000001300000000
#01217:0000001300000000
#0131b:1313131300000000
#01316:2300131300000000
#01312:00000013
#01412:1313131313000000
#01417:0000131313000000
#01517:00130000000000000000000000000000
#01512:1313000013130000
#0151b:00000000130013000000000000130013
#01516:00000000001300000000000000000000
#01515:0000000000001313
#01518:00000000000000000013001300000000
#01612:1400000000000025
#01616:0014140014140000
#01619:00000025
#01719:15151500
#01717:0000000014000000000000000000000000550000000000000000130000000000
#01712:0000000000001313
#01710:41
#01718:00000000000000000000000000000000000000000000000000000000000000000055000000000000000000000000000000000000000000000000000000000000
#01812:13000000000000002600260000000015
#01817:13
#01818:0000262600000000
#01915:0014000000000000
#01912:00151500
#0191b:0000000000001313
#01916:00000000000000000000000000130013
#01919:25
#01913:00000000000000000000000000000000000000000000000000000000000000000055000000000000000000000000000000000000000000000000000000000000
#01914:0000000000000000000000000000000000550000000000000000000000000000
#0201b:13
#02015:0016001600000000
#02012:00132600
#02018:0026
#02112:00160000
#02115:0000001600000000
#02118:0016
#02119:00000015
#02116:0000000000000014
#02212:14140000
#02216:0014001400000000
#0221b:00001313
#02217:0000000000000013
#0231b:0000000000000013
#02312:0000000000000013
#02316:13131300
#02317:0013001300000000
#02414:14
#02418:0014000000000000
#02412:0000001500000000
#02419:0000000015001424
#02413:0000000000001424
#02515:0016000000160000
#02512:26161600
#02519:00000015
#02518:26
#02510:41
#02619:15150000
#02615:00001600000016000000160000000013
#02612:00151413
#0261b:00000013
#02618:0000000000000013
#0261a:0014
#0271a:14
#02712:00141400
#02719:00000015
#02715:0016000000160000
#02819:15150000
#02815:0016001600160016
#02812:00151616
#02818:00001616
#02912:16001514
#02916:0015000000140000
#02919:00151500
#02915:0000001600000016
#02918:26
#03012:14140000
#03015:0016001600000000
#0301a:14141400
#03016:00000024
#03017:00000000000000000000000000640000
#03018:0000000000000064
#03019:00000000000000000000000000000064
#03114:0014000000000000
#03112:0000140000140014
#03118:0000001400000000
#0311a:6414
#03116:24242400
#03215:1414240014000000
#0321a:2400141414000000
#03217:00000014
#03312:16000036000036000000360036000000
#03317:0022
#0331a:24
#03310:41
#03418:16000036000036000000360036000000
#03417:0022
#03512:16000036000036000000360036000000
#03517:0022
#03718:16
#03717:00000012000012000000120012000000
#0371a:0012
#03712:24
#03812:16
#03817:00000012000012000000120012000000
#03814:0012
#03918:1616000016160000
#03912:0000161600001616
#04018:160000000000150000000000140000000000130000000000120000520000520052005200520000000000000000000000
#04012:00160000000000000000000000000000
#04013:00000015000000000000000000000000
#04014:00000000001400000000000000000000
#04015:00000000000000130000000000000000
#04115:0000001400000000
#0411a:2400001400000000
#04117:00000014000000000000000000000013
#04112:00000000000000000000000000000014
#04113:26
#04110:41
#04317:1600001400000000
#04312:2400001400000000
#04315:00000014000000000000000000000000
#0431b:0000000000000023
#04412:0013000000130000
#04417:0013000000000000
#04415:00130000
#0441a:00130000
#04418:0000001300000000
#0441b:0013
#04413:0000001300000000
#04416:0000000013150000
#04512:1300001300000000
#04514:0013000000000000
#04516:00130000
#0451b:00130013
#04517:0000001300000000
#0461b:1313
#04619:0013001300000000
#04617:00130000
#04612:00130000
#04614:0000001300000000
#04616:0013
#04816:0014140014140000
#04812:0000000000002616
#0481a:24
#04818:00000000000000000000000000260026
#04214:00000013
#04219:00000013
#04715:00130013000000000000000000000000
#04718:2313000024140000
#04712:00000000001300130000000000140014
#0471b:0000231300000000
#04714:00000000000000000014001400000000
#0471a:0000000000002414
#04917:0012000000001200
#04919:00000000120000001200000000520000
#0491f:11
#0491b:0000000000000052
#05017:0000222200001200
#0501b:12
#05019:0000000022220000
#05117:0012000000001200
#05115:0000120012000052
#05116:00000000000000000000000000520000
#05114:00000000000000000000000000000052
#05213:5212000000000000
#05215:00120000
#05217:0000001200000000
#05218:0026
#05212:0026
#05318:00160000
#05315:0000001600000000
#05312:00001615
#05316:0000000000000014
#0541a:14140000
#05416:0014001400000013
#05412:00001313
#05512:0000000000000013
#0551b:0000000000000013
#05517:13131300
#05516:0013001300000000
#05613:0000000000001424
#05619:0000000025001424
#05614:24
#05618:0024000000000000
#05612:0000002500000000
#05716:00000016000000000000000013000000
#05718:2600001600000000
#05712:2600000013130000
#05717:00000000000000000013000000000000
#0571b:00000013
#05719:0000000000000013
#05714:0000000000000013
#0571f:21
#05814:00000016000000000000000000000000
#05812:2600001600001313
#0581b:0000000013130000
#05816:00000000000000000013000000000000
#05817:00000000000000000000000000130000
#05818:26
#05810:41
#0591a:14
#05916:0013000000000000
#05919:00140014
#05913:00140014
#05917:0000001300000000
#05918:0000000014000013
#05912:0014
#05915:0000000000130000
#05914:24
#06013:0014000000000000
#06012:00140000
#06014:14
#06016:0000241400000000
#0601a:2400001400000000
#06017:00000015
#06018:0024000000000015
#06119:15
#06115:00140000
#06114:0000001400000000
#06113:0014
#06117:00000013
#06118:0000000000000013
#06219:13
#06217:00120000
#06216:0000001200000000
#06215:0012
#0621a:00000022
#06214:00000022
#06415:0015000000000000
#06419:2500252500000000
#06412:2500652500000000
#06414:000055000000005858580000
#06413:000000000055000000000000000000000000000000000000
#03617:00000022
#00013:000000000000545454545454
#06317:0062
#00152:16
#00156:0000006400000000
#00153:0023
#0015a:0000001400000000
#00256:64
#00358:0000001300000000
#00355:0000001300000000
#00352:64
#0035a:54
#00558:16
#00656:54
#0075a:54
#00752:64
#00758:0000001300000000
#00755:0000001300000000
#00957:4600006400000000
#00952:6400006400000000
#00955:00000024000000000000000000000000
#0095a:00000000000000000000000000000024
#00956:00000000000000000000000000000023
#01153:36
#01155:0000005400000000
#0115a:5400005400000000
#01157:00000024000000000000000013000000
#01152:0000000000000013
#0125b:0000000000130000
#01356:1300006300000000
#0135b:0000006300000000
#01457:1363
#0145b:00000013
#01456:00000013
#01452:0063
#01752:1514
#01852:13
#01857:13
#0165a:00140000
#01652:0000000000140000
#01959:15
#0195a:0014
#0205b:13
#02052:00136600
#0205a:00000012
#02058:0066
#02054:0000000000000012
#02158:00160000
#02152:00000015
#02454:14
#02458:0014000000000000
#02452:0000001500000000
#02459:0015
#02558:16
#02552:0016
#02659:15
#02652:00150013
#0265a:0014
#0275a:14
#02752:0014
#02859:15
#02852:00150016
#02858:0016
#0225a:00140000
#02252:00000013
#02257:0000000000000063
#0235b:0013
#02352:0000000000130000
#02356:63636300
#02357:0063006300000000
#02958:16
#02952:56350000
#02956:0025000000240000
#02959:0065
#0295a:00000044
#03052:34000014
#0305a:00440000
#0315a:44
#03152:0000340000140000
#03255:0064
#03257:00000054
#0325a:0014
#03252:00000014
#03352:66
#0335a:14
#03458:56
#03552:66
#0365a:0012
#03654:0012
#03752:14
#03758:66
#0375a:0022
#03852:56
#03854:0022
#03952:16
#04058:00000012
#04155:0000005400000000
#0415a:5400005400000000
#04157:00000024000000000000000000000023
#04152:00000000000000000000000000000024
#04153:36
#04357:4600006400000000
#04352:6400006400000000
#04355:00000024000000000000000000000000
#04356:00000013
#0435b:0000000000000013
#04452:0000000000130000
#04456:0000000000650000
#04552:0000005300000000
#04557:1300005300000000
#0465b:0053
#04656:1353
#04657:00000013
#04652:00000013
#04852:00140000
#0485a:0000000000140000
#0505b:12
#05557:53535300
#05556:0053005300000000
#05552:0013
#0555b:0000000000130000
#05456:0000000000000053
#05452:00140000
#0545b:00000013
#05352:00160000
#05359:00000015
#05258:0056
#05252:0056
#05254:00000012
#0525a:0000000000000012
#05758:46
#05752:66
#05756:00000026000000000000000000000000
#05854:00000026000000000000000000000000
#05852:36
#05858:56
#0595a:14
#05953:00140014
#05958:0014
#06052:00640000
#06056:0000642400000000
#06054:0034
#06058:0034
#0605a:0000002400000000
#06159:15
#06154:15
#06157:0014
#06153:0014
#06259:13
#06256:13
#06257:0012
#06255:0012
#0625a:00000062
#06254:00000052
#06358:16
#06352:16
#06459:45
#06452:00350000
#0013a0:0014002400000000
#001361:0000001400240000
#001331:0053
#002361:14
#0023a1:0000005424000000
#002321:00000014
#003321:34
#003351:0000002300000000
#0033a0:14
#003380:0000002300000000
#003320:0000000000000013
#004320:0023000000000000
#0043b0:00132300
#005320:0014000024000000
#006360:14
#006320:0000005424000000
#0063a0:00000014
#0073a0:34
#007380:0000002300000000
#007321:14
#007351:0000002300000000
#007371:0000000000000013
#008371:0023000000000000
#008361:00132300
#009321:1400003400000000
#009351:00000054000000000000000000000000
#009361:00000000000000000000000000000053
#010321:0024
#009370:0000001400000000
#0093a0:00000000000000000000000000000054
#010370:0024
#0113a0:1400003400000000
#011370:00000054000000000000000023000000
#011351:0000001400000000
#011321:0000000000003323
#012361:0000000000130000
#013361:23
#013361:0000001300000000
#013321:0000000000230000
#0133b0:0000001300000000
#013370:0000000000230000
#013370:00000013
#014370:23
#014320:0013
#014360:00000023
#014371:0013
#0143b1:00000023
#0163a1:0000000000000000000000000000000014540000005300005400000054000000240000000000000000000000000000000000000000000000000000000000000000000000000000000000000000000000000000000000000000000000000000000000000000000000000000000000000000000000000000000000000000000000
#016391:00000000000000000055000000000000000000000000000000000000000000000000000000000000000000000000000000000000000000000000000000000000
#0163b1:00000000000000000000530000530000000000000000000000000000000000000000000000000000000000000000000000000000000000000000000000000000
#016321:0000000000000000000000000000000000000000000000000000000000000000000000000000000000000000000000000000000000000000000000000000000014000000005500530000540055540000240000000000000000000000000000000000000000000000000000000000000000000000000000000000000000000000
#016331:00000000000000000000000000000000000000000000000000000000000000000000005300000000000000000000000000000000000000000000000000000000
#016391:0000000000001525
#016320:0000000000000015
#017320:25
#017320:00142400
#018360:00000016
#018390:00000000000000000000000000550025
#0193a0:00142400
#020380:0016
#0203a0:0000000000522200
#020321:0016
#020341:0000000000520022
#021381:16260000
#021321:00001525
#0223a1:14240000
#022321:00001323
#022371:0000000000000013
#0233b1:23
#023360:13
#023320:0023000000000000
#023371:0013000000000000
#0233b1:00230000
#023360:00130000
#023320:0000002300000000
#023371:0000001300000000
#0233b1:0023
#023360:0013
#023320:0000000000230000
#025380:00162600
#025320:00000000000000000000000015343300
#026320:25
#0273a0:00142400
#027320:00000000000000000000000015343334
#028320:25
#029320:16250000
#029360:0055000000000000
#029390:0015
#029360:0000000000540000
#0293a0:00000024
#030320:00001424
#031370:0000000000140024
#032350:0014
#032320:0000000000542400
#032371:00000014
#0323a1:0000000000000054
#0333a1:24
#033320:16000036000036000000360036000000
#034340:22
#034381:16000036000036000000360036000000
#0353a1:22
#035320:16000036000036000000360036000000
#036340:22
#0363a1:1222
#036340:00122200
#037380:16
#0373a0:0032
#038380:26
#038321:16
#038341:0032
#039321:26
#0413a1:1400003400000000
#041371:00000054000000000000000000000053
#0423a1:0024
#041350:0000001400000000
#041320:00000000000000000000000000000054
#042350:0024
#043320:1400003400000000
#043350:00000054000000000000000000000000
#043360:00000023
#043371:0000001400000000
#0433b1:0000000000003323
#044361:0000000000150000
#045371:23
#045371:0000001300000000
#0453b1:0000000000230000
#045320:0000001300000000
#045360:0000000000230000
#045360:00000013
#046360:23
#0463b0:0013
#046370:00000023
#046361:0013
#046321:00000023
#048321:00001454240000000000000000000000
#048331:0000000000540054000000000000000000000000000000000000000000000000
#0483a1:00000000000000001454240000000000
#048391:0000000000000000000000000000000000540054000000000000000000000000
#049321:16
#049341:0052000000000000
#051341:22
#051380:16
#0513a0:0052000000000000
#0523a0:0000002200000000
#052320:0016
#052340:0000000000522200
#052381:0016
#0523a1:0000000000520022
#053321:16260000
#053391:00001525
#054321:14240000
#0543b1:00001323
#054361:0000000000000013
#055321:23
#055370:13
#0553b0:0023000000000000
#055361:0013000000000000
#055321:00230000
#055370:00130000
#0553b0:0000002300000000
#055361:0000001300000000
#055321:0023
#055370:0013
#0553b0:0000000000230000
#057320:1600002600000000
#057360:00000056000000000000000000000000
#058380:1600002600000000
#058340:00000056000000000000000000000000
#060360:00140000
#0603a0:0000005400000000
#060380:0024
#060321:00140000
#060361:0000005400000000
#060341:0024
#060321:00000015
#060331:0000000000000035
#061341:25
#061391:00140000
#061381:0000003400000000
#061371:0024
#061341:00000013
#061351:0000000000000033
#062361:23
#062391:00120000
#062381:0000003200000000
#062371:0022
#0623a1:00000012
#062381:0000000000000056
#063381:26
#062340:00000012
#062320:0000000000000056
#063320:26
#064340:00001828
#000930:000000000000145454545454
#000940:000000000000000000000000000000000000000000000000005200520052005200520052005200520052005200520052
#001920:26
#008960:0013
#008940:00000000000000000000000000000000000000000000000000000000000000000023000000000000000000000000000000000000000000000000000000000000
#0089b1:0013
#008991:00000000000000000000000000000000000000000000000000000000000000000023000000000000000000000000000000000000000000000000000000000000
#017991:0015
#017971:0000000000000000000000000000000000250000000000000000000000000000
#019921:0015
#019941:0000000000000000000000000000000000250000000000000000000000000000
#030961:00000014
#0309a1:000000000000000000000000000000000000000000000000000000000000000000000000000000000000000000000000000000000000000000000000000000000000000000000000000000000000000000000000000000000000000000000000000000000000000000000000000000000000000000000000000000000000000000000000000000000000000000000000000000000000000000000000000000000000000000000000000000000000000000000000000000000000000000000000000000000000000000000000000000000000000000000000000000000000000000000000000000000000000000000000000000000000000000000000000000000000000000000000000000000000000000000000000000000000000000000000000000000000000000000000000000000000000000000000000000000000000000000000000000000000000000000000000000000000000000000000000000000000000000000000000000000000000000000000000000000000000000000000000000000000000000000000000000000000000000000000000000000000000000000000000000000000000000000000000000000000000000000000000000000000000000000000000000000000000000000000000000000000000000000000000000000000000000000000000000000000000000000000000000000000000000000000000000000000000000000000000000000000000000000000000000000000000000000000000000000000000000000000000000000000000000000000000000000000000000000000000000000000000000000000000000000000000000000000000000000000000000000000000000000000000000000000000000000000000000000000000000000000000000000000000000000000000000000000000000000000000000000000000000000000000000000000000000000000000000000000000000000000000000000000000000000000000000000000000000000000000000000000000000000000000000000000000000000000000000000000000000000000000000000000000000000000000000000000000000000000000000000000000000000000000000000000000000000000000000000000000000000000000000000000000000000000000000000000000000000000000000000000000000000000000000000000000000000000000000000000000000000000000000000000000000000000000000000000000000000000000000000000000000000000000000000000000000000000000000000000000000000000000000000000000000000000000000000000000000000000000000000000000000000000000000000000000000000000000000000000000000000000000000000000000000000000000000000000000000000000000000000000000000000000000000000000000000000000000000000000000000000000000000000000000000000000000000000000000000000000000000000000000000000000000000000000000000000000000000000000000000000000000000000000000000000000000000000000000000000000000000000000000000000000000000000000000000000000000000000000000000000000000000000000000000000000000000000000000000000000000000000000000000000000000000000000000000000000000000000000000000000000000000000000000000000000000000000000000000000000000000000000000000000000000000000000000000000000000000000000000000000000000000000000000000000000000000000000000000000000000000000000000000000000000000000000000000000000000000000000000000000000000000000000000000000000000000000000000000000000000000000000000000000000000000000000000000000000000000000000000000000000000000000000000000000000000000000000000000000000000000000000000000000000000000000000000000000000000000000000000000000000000000000000000000000000000000000000000000000000000000000000000000000000000000000000000000000000000000000000000000000000000000000000000000000000000000000000000000000000000000000000000000000000000000000000000000000000000000000000000000000000000000000000000000000000000000000000000000000000000000000000000000000000000000000000000000000000000000000000000000000000000000000000000000000000000000000000000000000000000000000000000000000000000000000000000000000000000000000000000000000000000000000000000000000000000000000000000000000000000000000000000000000000000000000000000000000000000000000000000000000000000000000000000000000000000000000000000000000000000000000000000000000000000000000000000000000000000000000000000000000000000000000000000000000000000000000000000000000000000000000000000000000000000000000000000000000000000000000000000000000000000000000054
#0319a1:24
#040981:000000000000000000000000000000000000000000000000000000000000000000000000000000000000000000000000000000000000000000000000000000000000000000000000000000000000000000000000000000000000000000000000000000000000000000000000000000000000000000000000000000000000000000000000000000000000000000000000000000000000000000000000000000000000000000000000000000000000000000000000000000000000000000000000000000000000000000000000000000000000000000000000000000000000000000000000000000000000000000000000000000000000000000000000000000000000000000000000000000000000000000000000000000000000000000000000000000000000000000000000000000000000000000000000000000000000000000000000000000000000000000000000000000000000000000000000000000000000000000000000000000000000000000000000000000000000000000000000000000000000000000000000000000000000000000000000000000000000000000000000000000000000000000000000000000000000000000000000000000000000000000000000000000000000000000000000000000000000000000000000000000000000000000000000000000000000000000000000000000000000000000000000000000000000000000000000000000000000000000000000000000000000000000000000000000000000000000000000000000000000000000000000000000000000000000000000000000000000000000000000000000000000000000000000000000000000000000000000000000000000000000000000000000000000000000000000000000000000000000000000000000000000000000000000000000000000000000000000000000000000000000000000000000000000000000000000000000000000000000000000000000000000000000000000000000000000000000000000000000000000000000000000000000000000000000000000000000000000000000000000000000000000000000000000000000000000000000000000000000000000000000000000000000000000000000000000000000000000000000000000000000000000000000000000000000000000000000000000000000000000000000000000000000000000000000000000000000000000000000000000000000000000000000000000000000000000000000000000000000000000000000000000000000000000000000000000000000000000000000000000120000000000000000000000000000000000000000000000000000000000000000000000000000000000000000000000000000000000000000000000000000000000000000000000000000000000000000000000000000000000000000000000000000000000000000000000000000000000000000000000000000000000000000000000000000000000000000000000000000000000000000000000000000000000000000000000000000000000000000000000000000000000000000000000000000000000000000000000000000000000000000000000000000000000000000000000000000000000000000000000000000000000000000000000000000000000000000000000000000000000000000000000000000000000000000000000000000000000000000000000000000000000000000000000000000000000000000000000000000000000000000000000000000000000000000000000000000000000000000000000000000000000000000000000000000000000000000000000000000000000000000000000000000000000000000000000000000000000000000000000000000000000000000000000000000000000000000000000000000000000000000000000000000000000000000000000000000000000000000000052220000000000000000000000000000000000000000000000000000000000000000000000000000000000000000000000000000000000000000000000000000000000000000000000000000000000000000000000000000000000000000000000000000000000000000000000000000000000000000000000000000000000000000000000000000000000000000000000000000000000000000000000000000000000000000000000000000000000000000000000000000000000000000000000000000000000000000000000000000000000000000000000000000000000000000000000000000000000000000000000000000000000000000000000000000000000000000000000000000000000000000000000000000000000000000000000000000000000000000000000000000000000000000000000000000000000000000000000000000000000000000000000000000000000000000000000000000000000000000000000000000000000000000000000000000000000000000000000000000000000000000000000000000000000000000000000000000000000000000000000000000000000000000000000000000000000000000000000000000000000000000000000000000000000000000000000000000000000000000000000
#049971:00000012
#0499b1:000000000000000000000000000000000000000000000000000000000000000000000000000000000000000000000000000000000000000000000000000000000000000000000000000000000000000000000000000000000000000000000000000000000000000000000000000000000000000000000000000000000000000000000000000000000000000000000000000000000000000000000000000000000000000000000000000000000000000000000000000000000000000000000000000000000000000000000000000000000000000000000000000000000000000000000000000000000000000000000000000000000000000000000000000000000000000000000000000000000000000000000000000000000000000000000000000000000000000000000000000000000000000000000000000000000000000000000000000000000000000000000000000000000000000000000000000000000000000000000000000000000000000000000000000000000000000000000000000000000000000000000000000000000000000000000000000000000000000000000000000000000000000000000000000000000000000000000000000000000000000000000000000000000000000000000000000000000000000000000000000000000000000000000000000000000000000000000000000000000000000000000000000000000000000000000000000000000000000000000000000000000000000000000000000000000000000000000000000000000000000000000000000000000000000000000000000000000000000000000000000000000000000000000000000000000000000000000000000000000000000000000000000000000000000000000000000000000000000000000000000000000000000000000000000000000000000000000000000000000000000000000000000000000000000000000000000000000000000000000000000000000000000000000000000000000000000000000000000000000000000000000000000000000000000000000000000000000000000000000000000000000000000000000000000000000000000000000000000000000000000000000000000000000000000000000000000000000000000000000000000000000000000000000000000000000000000000000000000000000000000000000000000000000000000000000000000000000000000000000000000000000000000000000000000000000000000000000000000000000000000000000000000000000000000000000000000000000000000000000000000000000000000000000000000000000000000000000000000000000000000000000000000000000000000000000000000000000000000000000000000000000000000000000000000000000000000000000000000000000000000000000000000000000000000000000000000000000000000000000000000000000000000000000000000000000000000000000000000000000000000000000000000000000000000000000000000000000000000000000000000000000000000000000000000000000000000000000000000000000000000000000000000000000000000000000000000000000000000000000000000000000000000000000000000000000000000000000000000000000000000000000000000000000000000000000000000000000000000000000000000000000000000000000000000000000000000000000000000000000000000000000000000000000000000000000000000000000000000000000000000000000000000000000000000000000000000000000000000000000000000000000000000000000000000000000000000000000000000000000000000000000000000000000000000000000000000000000000000000000000000000000000000000000000000000000000000000000000000000000000000000000000000000000000000000000000000000000000000000000000000000000000000000000000000000000000000000000000000000000000000000000000000000000000000000000000000000000000000000000000000000000000000000000000000000000000000000000000000000000000000000000000000000000000000000000000000000000000000000000000000000000000000000000000000000000000000000000000000000000000000000000000000000000000000000000000000000000000000000000000000000000000000000000000000000000000000000000000000000000052220000000000000000000000000000000000000000000000000000000000000000000000000000000000000000000000000000000000000000000000000000000000000000000000000000000000000000000000000000000000000000000000000000000000000000000000000000000000000000000000000000000000000000000000000000000000000000000000000000000000000000000000000000000000000000000000000000000000000000000000000000000000000000000000000000000000000000000000000000000000000000000000000000000000000000000000000000000000000000000000
#051971:00000012
#051931:000000000000000000000000000000000000000000000000000000000000000000000000000000000000000000000000000000000000000000000000000000000000000000000000000000000000000000000000000000000000000000000000000000000000000000000000000000000000000000000000000000000000000000000000000000000000000000000000000000000000000000000000000000000000000000000000000000000000000000000000000000000000000000000000000000000000000000000000000000000000000000000000000000000000000000000000000000000000000000000000000000000000000000000000000000000000000000000000000000000000000000000000000000000000000000000000000000000000000000000000000000000000000000000000000000000000000000000000000000000000000000000000000000000000000000000000000000000000000000000000000000000000000000000000000000000000000000000000000000000000000000000000000000000000000000000000000000000000000000000000000000000000000000000000000000000000000000000000000000000000000000000000000000000000000000000000000000000000000000000000000000000000000000000000000000000000000000000000000000000000000000000000000000000000000000000000000000000000000000000000000000000000000000000000000000000000000000000000000000000000000000000000000000000000000000000000000000000000000000000000000000000000000000000000000000000000000000000000000000000000000000000000000000000000000000000000000000000000000000000000000000000000000000000000000000000000000000000000000000000000000000000000000000000000000000000000000000000000000000000000000000000000000000000000000000000000000000000000000000000000000000000000000000000000000000000000000000000000000000000000000000000000000000000000000000000000000000000000000000000000000000000000000000000000000000000000000000000000000000000000000000000000000000000000000000000000000000000000000000000000000000000000000000000000000000000000000000000000000000000000000000000000000000000000000000000000000000000000000000000000000000000000000000000000000000000000000000000000000000000000000000000000000000000000000000000000000000000000000000000000000000000000000000000000000000000000000000000000000000000000000000000000000000000000000000000000000000000000000000000000000000000000000000000000000000000000000000000000000000000000000000000000000000000000000000000000000000000000000000000000000000000000000000000000000000000000000000000000000000000000000000000000000000000000000000000000000000000000000000000000000000000000000000000000000000000000000000000000000000000000000000000000000000000000000000000000000000000000000000000000000000000000000000000000000000000000000000000000000000000000000000000000000000000000000000000000000000000000000000000000000000000000000000000000000000000000000000000000000000000000000000000000000000000000000000000000000000000000000000000000000000000000000000000000000000000000000000000000000000000000000000000000000000000000000000000000000000000000000000000000000000000000000000000000000000000000000000000000000000000000000000000000000000000000000000000000000000000000000000000000000000000000000000000000000000000000000000000000000000000000000000000000000000000000000000000000000000000000000000000000000000000000000000000000000000000000000000000000000000000000000000000000000000000000000000000000000000000000000000000000000000000000000000000000000000000000000000000000000000000000000000000000000000000000000000000000000000000000000000000000000000000000000000000000000000000000000000000000000000000000000000000000000000000000000000000000000000000000000000000000000000000000000000000000000000000000000000000000000000000000000000000000000000000000000000000000000000000000000000000000000000000000000000000000000000000000000000000000000000000000000000000000000000000000000000000000000000000000000000000000000000000000000000000000000000000000000000000000000000000000000000000000000000000000000000000000000000000000000000000000000000000000000000000000000000000000000000000000000000000052
#052931:22
#064951:0015000000000000
#064921:00250000
