This file was generated by Ched 2.7.0.0.
#TITLE ""
#ARTIST ""
#DESIGNER ""
#DIFFICULTY 0
#PLAYLEVEL
#SONGID ""
#WAVE ""
#WAVEOFFSET 0
#JACKET ""
#REQUEST "ticks_per_beat 480"
#00002: 4
#BPM01: 130
#00008: 01
#TIL00: ""
#VOLUME: ""
#HISPEED 00
#MEASUREHS 00
#00112:0016000000000000
#00118:1600001300000013
#00115:00000013
#00212:13
#0021b:0000001300000000
#00218:0013
#00215:0000000000130000
#00312:13
#00317:13
#0031b:00000013
#00315:0000000000000013
#00412:0013000000000000
#00418:00130000
#00518:0016000013001300
#00515:0000001300000013
#00512:1600000000130000
#0061b:13
#00612:0000001300000000
#00615:0013
#00618:0000000000130000
#0071b:13
#00716:13
#00712:00000013
#00718:0000000000000013
#0081b:0013000000000000
#00815:00130000
#00813:0024
#00819:0024
#0101a:00000014
#01112:14
#01116:0000001400000000
#01218:0013001300130000
#01215:00131300
#01315:0013001300001300
#01318:00130000
#01312:0000000000130000
#0131b:23
#01418:0013000000000000
#01415:00130000
#0141b:0000001300000000
#01412:0024
#0141a:00000024
#01714:0014000000000000
#01718:2600160000001313
#01712:0014
#0171a:0014
#01715:00000000000000000000000000130000
#01710:41
#01812:14
#01918:00001400000000000000000000130013
#01912:26161400
#0191a:0014
#01915:0000000000001313
#02012:1400000000001616
#0201a:0014000000000000
#02014:0000141400000000
#02018:0000000026160000
#02118:16
#02119:0014000000000000
#02114:0000001400000000
#02112:0000000000000014
#0221a:1414
#02214:0014000000001400
#02218:0000140000000014
#02212:0000001400000000
#02313:14141400
#02312:0014000000000000
#02314:0000001400000000
#02318:0000000000000014
#02412:0000000000001626
#02515:0013000000001300
#02518:26000000000000000000000000130000
#02510:41
#0261b:00000013
#02618:00000000240000000000000000001333
#02614:0000002400000000
#0261a:0024
#02612:0000000000240000
#02715:0013000000001313
#02718:26000000000000000000000000130013
#02815:1300001300000000
#0281b:0013000000130000
#02812:00130000
#02818:0000000013000024
#02814:00000024
#02918:0000140000000014
#02914:0000001400001400
#0291a:0014
#02912:26
#03012:1400003400000000
#03015:0034140000000013
#03018:00000013
#0311a:14140000
#03118:0014001400001400
#03112:0000000000140000
#03114:0000000000000014
#03218:14140000
#0321a:0014001400000000
#03312:0013
#03314:24
#03310:41
#03516:12
#03514:0000000000000012
#03418:0012
#0341a:00000012
#03616:1212
#03614:00120000
#03718:16
#03815:0012
#03819:0012
#03816:0000000000000012
#0401b:13
#04018:000000330000330000330000330000330000130000330000330000330000330033003300000000000000000000000000
#04012:13
#04015:000000330000330000330000330000330000130000330000330000330000330033003300000000000000000000000000
#03918:12
#0391c:0032323232323232
#04212:00000014
#04418:0013000013000000
#04415:0000130000130000
#0441b:0000001300000000
#04518:0013001300130000
#04515:00130000
#0451b:00001313
#04615:0013000000000000
#0461b:00130000
#04612:0000001300000000
#04618:0024
#04614:00000024
#04316:0000001400000000
#04312:0000000000000014
#0431a:14
#04918:0012000000001200
#04916:00121200
#0491f:11
#04912:26
#04919:00000000000000000000000000520000
#0491a:0000000000000052
#05014:1200000000120000
#0501a:00120000
#05018:0000001200001200
#05016:00000000000000001200000000000012
#05116:0012000000001200
#05118:26121200
#05115:00000000000000000000000000520052
#05114:0000000000000052
#0521a:0012000000000012
#05216:52120012
#05218:0000001200120000
#05214:0012
#05312:16
#05313:0014000000000000
#05318:0000001400000000
#0531a:0000000000000014
#05412:1414
#05418:0014000000001400
#05414:0000140000000014
#0541a:0000001400000000
#05519:14141400
#0551a:0014000000000000
#05518:0000001400000000
#05514:0000000000000014
#05618:0000000000001626
#05716:00000014000000000000000000000000
#05718:0014
#05714:00000014
#05712:2600000000000054
#0571f:21
#05719:00000000000000000054000000000000
#0571a:0000000000540000
#05816:00000014000000000000000000000000
#05814:0014
#05818:26000014
#05810:41
#05813:00000000000000000054000000000000
#05812:0000000000540000
#0581a:0000000000000054
#05918:0013000000130000
#0591b:00130013
#05915:0000001300000013
#05912:2613
#06012:14000016
#06016:0014000000000000
#0601a:00140000
#06017:0000001400000000
#06013:0000000000000034
#06118:00150000
#06114:00000014
#06119:0000003300000000
#06115:0000000000000032
#06218:00130000
#06215:0000001300000000
#01515:23
#01518:23
#01618:0023230000000000
#01615:0000000023230000
#01619:000000000000000000000000006300000000000000000000006300000000000000000000000000000000000000000000000000000000000000000000000000000000000000000000000000000000000000000000000000000000000000000000
#0161a:000000000000006300000000006300000000000000000000000000000000000000000000000000000000000000000000
#0161b:0000000000630000006300000000000000000000000000000000000000000000
#01614:000000000000000000000000000000000000000000000000000000000000000000000000000000000000000000000000006300000000000000000000006300000000000000000000000000000000000000000000000000000000000000000000
#01613:000000000000000000000000000000000000000000000000006300000000006300000000000000000000000000000000
#01612:0000000000000000000000000000000000630000006300000000000000000000
#04712:23
#0471b:23
#04112:24
#04110:41
#04819:0025000000000000
#06412:25250055
#06419:25250055
#00910:41
#00158:0000006300000000
#00252:13
#00352:63
#00357:63
#00356:0000001300000000
#0035b:0000001300000000
#0065b:13
#0075b:53
#00756:53
#00757:0000001300000000
#00752:0000001300000000
#01152:6400000000000014
#01156:0000006400000000
#0135b:13
#01355:0000006300006300
#01352:0000000000630000
#01258:0000000000630000
#01558:63
#01555:63
#01852:14
#0185a:00000014
#01758:16
#01952:16
#02158:66160000
#02159:0024000000000000
#0225a:0014
#02353:54546400
#02352:0024000000140000
#02354:0000002400000000
#02452:0016000000000000
#02458:0016
#02558:16
#0255b:0013
#02652:13
#0265b:00000063
#02658:0000000000000023
#02758:1613
#02855:13
#02952:16
#0295a:0014
#03052:6414
#03055:00640000
#0315a:64641400
#03158:0064006400000000
#03152:0000000000140000
#03258:64640000
#0325a:0024002400000000
#03354:64
#03352:0023
#03556:62
#03554:0000000000000062
#03654:00620012
#03656:6262
#03458:0062
#0345a:00000062
#03758:66
#0405b:63
#04058:0000002300000000
#04059:00000045
#04052:53000035
#04055:0000002300000000
#03958:62
#04455:0000000000530000
#04558:0000005300530000
#0455b:00002353
#04552:14
#04752:53
#0475b:53
#04356:0000006400000000
#04352:0000000000000014
#0435a:64000014
#04859:00000015
#05352:56160000
#05353:0024000000000000
#05452:0014
#05559:64646400
#0555a:0024000000140000
#05558:0000002400000000
#05658:0016000000000000
#05652:0016
#05752:66
#05756:00000024000000000000000000000000
#05856:00000024000000000000000000000000
#05858:56
#0605a:00644400
#06057:0000002400000000
#06052:00000066
#06158:00550000
#06153:14
#06159:0013
#06154:00000064
#06255:12
#06352:14
#0635a:14
#06459:15150000
#06452:15150000
#001380:0000001300000000
#0013b0:0000000000230000
#002320:00000013
#003320:33
#003360:0000002300000000
#003371:13
#0033b1:0000002300000000
#004331:00001424
#004390:00001424
#0063b0:00000013
#0073b0:33
#007370:0000002300000000
#007361:13
#007321:0000002300000000
#008391:00001424
#008330:00001424
#0093a0:1400003400000000
#010370:0024
#009351:0000001400000000
#010321:0024
#011321:1400000000003424
#011361:0000003400000000
#012381:0000000000130000
#0133b1:23
#013351:0000001300003300
#013321:0000000000330000
#014321:23
#015351:13
#016321:23
#015380:13
#0163b0:23
#0183a0:00143424
#018370:0000003400340000
#021380:16260000
#021390:0054000000000000
#021380:00001424
#023330:14343400
#023320:0034000000240000
#023340:0000003400000000
#024320:1626000000000000
#024380:0000001626000000
#025380:00130000
#0253b0:00000000005300002300000000000000
#025350:0000000000000013
#025320:00000000000000000000000000000053
#026320:23
#0263b0:00000013
#026380:00000000000000000000000000005333
#027380:26
#0273b0:00130000
#027380:00000000005300002300000000000000
#030320:1400003424000000
#030350:0034340000000000
#0313a0:14342400
#031380:0034003400000000
#032380:14342400
#0323a0:0054005400000000
#032341:00001424
#032380:00000014
#033380:24
#033341:14
#033321:0053
#034361:22
#034381:0012
#0343a1:00000032
#035381:22
#035360:12
#035340:0000000000000032
#036360:3232
#036340:00320022
#037380:16
#0383a0:22
#039380:12
#0393c0:0032323232323232
#0403b0:33
#040380:000000330000330000330000330000330000330000330000330000330000330033003300000000000000000000000000
#040390:00000025
#040321:13000025
#040351:000000330000330000330000330000330000330000330000330000330000330033003300000000000000000000000000
#041321:1400003400000000
#042351:0024
#041370:0000001400000000
#0423a0:0024
#0433a0:14000024
#043360:0000003400000000
#044350:0000000000130000
#045320:24
#045380:0000001300330000
#0453b0:00005333
#046380:23
#047320:13
#048350:23
#0473b1:13
#048381:23
#048391:000000155555355555000000355555355555250000000000
#048371:000000000000005500550000005500550000000000000000005500550000005500550000000000000000000000000000
#053321:16260000
#053331:0054000000000000
#053341:00001424
#055391:14343400
#0553a1:0034000000240000
#055381:0000003400000000
#056381:1626000000000000
#056321:0000001626000000
#057321:1600002400000000
#057361:00000054000000000000000000000000
#058381:16
#058361:00000054000000000000000000000000
#0583a1:0000002400000000
#0603a1:00142400
#060371:0000005400000000
#060321:00000016
#060331:0000000000000034
#061331:24
#061381:00150000
#061391:0000003323000000
#061341:00000014
#061351:0000000000000032
#062351:22
#0623a1:0014
#0633a1:24
#062320:00000014
#063320:24
#064390:000000000000153535250000
#064321:000000000000153535250000
#016980:0013000000000000
#0169b0:0000000000230000000000000000000000000000000000000000000000000000
#016980:00130000
#0169b0:0000000000000000002300000000000000000000000000000000000000000000
#016950:0013
#016920:0000000000000000000000000000000000230000000000000000000000000000
#016950:0000000000130000
#016920:0000000000000000000000000000000000000000002300000000000000000000
#049980:00000012
#0499a0:000000000000000000000000000000000000000000000000000000000000000000000000000000000000000000000000000000000000000000000000000000000000000000000000000000000000000000000000000000000000000000000000000000000000000000000000000000000000000000000000000000000000000000000000000000000000000000000000000000000000000000000000000000000000000000000000000000000000000000000000000000000000000000000000000000000000000000000000000000000000000000000000000000000000000000000000000000000000000000000000000000000000000000000000000000000000000000000000000000000000000000000000000000000000000000000000000000000000000000000000000000000000000000000000000000000000000000000000000000000000000000000000000000000000000000000000000000000000000000000000000000000000000000000000000000000000000000000000000000000000000000000000000000000000000000000000000000000000000000000000000000000000000000000000000000000000000000000000000000000000000000000000000000000000000000000000000000000000000000000000000000000000000000000000000000000000000000000000000000000000000000000000000000000000000000000000000000000000000000000000000000000000000000000000000000000000000000000000000000000000000000000000000000000000000000000000000000000000000000000000000000000000000000000000000000000000000000000000000000000000000000000000000000000000000000000000000000000000000000000000000000000000000000000000000000000000000000000000000000000000000000000000000000000000000000000000000000000000000000000000000000000000000000000000000000000000000000000000000000000000000000000000000000000000000000000000000000000000000000000000000000000000000000000000000000000000000000000000000000000000000000000000000000000000000000000000000000000000000000000000000000000000000000000000000000000000000000000000000000000000000000000000000000000000000000000000000000000000000000000000000000000000000000000000000000000000000000000000000000000000000000000000000000000000000000000000000000000000000000000000000000000000000000000000000000000000000000000000000000000000000000000000000000000000000000000000000000000000000000000000000000000000000000000000000000000000000000000000000000000000000000000000000000000000000000000000000000000000000000000000000000000000000000000000000000000000000000000000000000000000000000000000000000000000000000000000000000000000000000000000000000000000000000000000000000000000000000000000000000000000000000000000000000000000000000000000000000000000000000000000000000000000000000000000000000000000000000000000000000000000000000000000000000000000000000000000000000000000000000000000000000000000000000000000000000000000000000000000000000000000000000000000000000000000000000000000000000000000000000000000000000000000000000000000000000000000000000000000000000000000000000000000000000000000000000000000000000000000000000000000000000000000000000000000000000000000000000000000000000000000000000000000000000000000000000000000000000000000000000000000000000000000000000000000000000000000000000000000000000000000000000000000000000000000000000000000000000000000000000000000000000000000000000000000000000000000000000000000000000000000000000000000000000000000000000000000000000000000000000000000000000000000000000000000000000000000000000000000000000000000000000000000000000000000000000000000000000000000000000000000000000000000000000000000000000000000000000000000000000000000000000000000000000000000000000000000000000000000000000000052220000000000000000000000000000000000000000000000000000000000000000000000000000000000000000000000000000000000000000000000000000000000000000000000000000000000000000000000000000000000000000000000000000000000000000000000000000000000000000000000000000000000000000000000000000000000000000000000000000000000000000000000000000000000000000000000000000000000000000000000000000000000000000000000000000000000000000000000000000000000000000000000000000000000000000000000000000000000000000000000
#051960:000000000000000000000000000000000000000000000000000000000000000000000000000000000000000000000000000000000000000000000000000000000000000000000000000000000000000000000000000000000000000000000000000000000000000000000000000000000000000000000000000000000000000000000000000000000000000000000000000000000000000000000000000000000000000000000000000000000000000000000000000000000000000000000000000000000000000000000000000000000000000000000000000000000000000000000000000000000000000000000000000000000000000000000000000000000000000000000000000000000000000000000000000000000000000000000000000000000000000000000000000000000000000000000000000000000000000000000000000000000000000000000000000000000000000000000000000000000000000000000000000000000000000000000000000000000000000000000000000000000000000000000000000000000000000000000000000000000000000000000000000000000000000000000000000000000000000000000000000000000000000000000000000000000000000000000000000000000000000000000000000000000000000000000000000000000000000000000000000000000000000000000000000000000000000000000000000000000000000000000000000000000000000000000000000000000000000000000000000000000000000000000000000000000000000000000000000000000000000000000000000000000000000000000000000000000000000000000000000000000000000000000000000000000000000000000000000000000000000000000000000000000000000000000000000000000000000000000000000000000000000000000000000000000000000000000000000000000000000000000000000000000000000000000000000000000000000000000000000000000000000000000000000000000000000000000000000000000000000000000000000000000000000000000000000000000000000000000000000000000000000000000000000000000000000000000000000000000000000000000000000000000000000000000000000000000000000000000000000000000000000000000000000000000000000000000000000000000000000000000000000000000000000000000000000000000000000000000000000000000000000000000000000000000000000000000000000000000000000000000000000000000000000000000000000000000000000000000000000000000000000000000000000000000000000000000000000000000000000000000000000000000000000000000000000000000000000000000000000000000000000000000000000000000000000000000000000000000000000000000000000000000000000000000000000000000000000000000000000000000000000000000000000000000000000000000000000000000000000000000000000000000000000000000000000000000000000000000000000000000000000000000000000000000000000000000000000000000000000000000000000000000000000000000000000000000000000000000000000000000000000000000000000000000000000000000000000000000000000000000000000000000000000000000000000000000000000000000000000000000000000000000000000000000000000000000000000000000000000000000000000000000000000000000000000000000000000000000000000000000000000000000000000000000000000000000000000000000000000000000000000000000000000000000000000000000000000000000000000000000000000000000000000000000000000000000000000000000000000000000000120000000000000000000000000000000000000000000000000000000000000000000000000000000000000000000000000000000000000000000000000000000000000000000000000000000000000000000000000000000000000000000000000000000000000000000000000000000000000000000000000000000000000000000000000000000000000000000000000000000000000000000000000000000000000000000000000000000000000000000000000000000000000000000000000000000000000000000000000000000000000000000000000000000000000000000000000000000000000000000000000000000000000000000000000000000000000000000000000000000000000000000000000000000000000000000000000000000000000000000000000000000000000000000000000000000000000000000000000000000000000000000000000000000000000000000000000000000000000000000000000000000000000000000000000000000000000000000000000000000000000000000000000000000000000000000000000000000000000000000000000000000000000000000000000000000000000000000000000000000000000000000000000000000000000000000000000000000000000000005252
#051940:0000000000000052
#052960:22
#057980:0014
#0579a0:000000000000000000000000000000000000000000000000000000000000000000000000000000000000000000000000000000000000000000000000000000000000000000000000000000000000000000000000000000000000000000000000000000000000000000000000000000000000000000000000000000000000000000000000000000000000000000000000000000000000000000000000000000000000000000000000000000000000000000000000000000000000000000000000000000000000000000000000000000000000000000000000000000000000000000000000000000000000000000000000000000000000000000000000000000000000000000000000000000000000000000000000000000000000000000000000000000000000000000000000000000000000000000000000000000000000000000000000000000000000000000000000000000000000000000000000000000000000000000000000000000000000000000000000000000000000000000000000000000000000000000000000000000000000000000000000000000000000000000000000000000000000000000000000000000000000000000000000000000000000000000000000000000000000000000000000000000000000000000000000000000000000000000000000000000000000000000000000000000000000000000000000000000000000000000000000000000000000000000000000000000000000000000000000000000000000000000000000000000000000000000000000000000000000000000000000000000000000000000000054240000000000000000000000000000000000000000000000000000000000000000000000000000000000000000000000000000000000000000000000000000000000000000000000000000000000000000000000000000000000000000000000000000000000000000000000000000000000000000000000000000000000000000000000000000000000000000000000000000000000000000000000000000000000000000000000000000000000000000000000000000000000000000000000000000000000000000000000000000000000000000000000000000000000000000000000000000000000000000000000000000000000000000000000000000000000000000000000000000000000000000000000000000000000000000000000000000000000000000000000000000000000000000000000000000000000000000000000000000000000000000000000000000000000000000000000000000000000000000000000
#057940:00000014
#057920:000000000000000000000000000000000000000000000000000000000000000000000000000000000000000000000000000000000000000000000000000000000000000000000000000000000000000000000000000000000000000000000000000000000000000000000000000000000000000000000000000000000000000000000000000000000000000000000000000000000000000000000000000000000000000000000000000000000000000000000000000000000000000000000000000000000000000000000000000000000000000000000000000000000000000000000000000000000000000000000000000000000000000000000000000000000000000000000000000000000000000000000000000000000000000000000000000000000000000000000000000000000000000000000000000000000000000000000000000000000000000000000000000000000000000000000000000000000000000000000000000000000000000000000000000000000000000000000000000000000000000000000000000000000000000000000000000000000000000000000000000000000000000000000000000000000000000000000000000000000000000000000000000000000000000000000000000000000000000000000000000000000000000000000000000000000000000000000000000000000000000000000000000000000000000000000000000000000000000000000000000000000000000000000000000000000000000000000000000000000000000000000000000000000000000000000000000000000000000000000000000000000000000000000000000000000000000000000000000000000000000000000000000000000000000000000000000000000000000000000000000000000000000000000000000000000000000000000000000000000000000000000000000000000000000000000000000000000000000000000000000000000000000000000000000000000000000000000000000000000000000000000000000000000000000000000000000000000000000000000000000000000000000000000000000000000000000000000000000000000000000000000000000000000000000000000000000000000000000000000054240000000000000000000000000000000000000000000000000000000000000000000000000000000000000000000000000000000000000000000000000000000000000000000000000000000000000000000000000000000000000000000000000000000000000000000000000000000000000000000000
#058940:0014
#058920:000000000000000000000000000000000000000000000000000000000000000000000000000000000000000000000000000000000000000000000000000000000000000000000000000000000000000000000000000000000000000000000000000000000000000000000000000000000000000000000000000000000000000000000000000000000000000000000000000000000000000000000000000000000000000000000000000000000000000000000000000000000000000000000000000000000000000000000000000000000000000000000000000000000000000000000000000000000000000000000000000000000000000000000000000000000000000000000000000000000000000000000000000000000000000000000000000000000000000000000000000000000000000000000000000000000000000000000000000000000000000000000000000000000000000000000000000000000000000000000000000000000000000000000000000000000000000000000000000000000000000000000000000000000000000000000000000000000000000000000000000000000000000000000000000000000000000000000000000000000000000000000000000000000000000000000000000000000000000000000000000000000000000000000000000000000000000000000000000000000000000000000000000000000000000000000000000000000000000000000000000000000000000000000000000000000000000000000000000000000000000000000000000000000000000000000000000000000000000000000054240000000000000000000000000000000000000000000000000000000000000000000000000000000000000000000000000000000000000000000000000000000000000000000000000000000000000000000000000000000000000000000000000000000000000000000000000000000000000000000000000000000000000000000000000000000000000000000000000000000000000000000000000000000000000000000000000000000000000000000000000000000000000000000000000000000000000000000000000000000000000000000000000000000000000000000000000000000000000000000000000000000000000000000000000000000000000000000000000000000000000000000000000000000000000000000000000000000000000000000000000000000000000000000000000000000000000000000000000000000000000000000000000000000000000000000000000000000000000000000000
#058980:00000014
#0589a0:000000000000000000000000000000000000000000000000000000000000000000000000000000000000000000000000000000000000000000000000000000000000000000000000000000000000000000000000000000000000000000000000000000000000000000000000000000000000000000000000000000000000000000000000000000000000000000000000000000000000000000000000000000000000000000000000000000000000000000000000000000000000000000000000000000000000000000000000000000000000000000000000000000000000000000000000000000000000000000000000000000000000000000000000000000000000000000000000000000000000000000000000000000000000000000000000000000000000000000000000000000000000000000000000000000000000000000000000000000000000000000000000000000000000000000000000000000000000000000000000000000000000000000000000000000000000000000000000000000000000000000000000000000000000000000000000000000000000000000000000000000000000000000000000000000000000000000000000000000000000000000000000000000000000000000000000000000000000000000000000000000000000000000000000000000000000000000000000000000000000000000000000000000000000000000000000000000000000000000000000000000000000000000000000000000000000000000000000000000000000000000000000000000000000000000000000000000000000000000000000000000000000000000000000000000000000000000000000000000000000000000000000000000000000000000000000000000000000000000000000000000000000000000000000000000000000000000000000000000000000000000000000000000000000000000000000000000000000000000000000000000000000000000000000000000000000000000000000000000000000000000000000000000000000000000000000000000000000000000000000000000000000000000000000000000000000000000000000000000000000000000000000000000000000000000000000000000000000000000000054240000000000000000000000000000000000000000000000000000000000000000000000000000000000000000000000000000000000000000000000000000000000000000000000000000000000000000000000000000000000000000000000000000000000000000000000000000000000000000000000
