This file was generated by Ched 2.7.0.0.
#TITLE ""
#ARTIST ""
#DESIGNER ""
#DIFFICULTY 0
#PLAYLEVEL
#SONGID ""
#WAVE ""
#WAVEOFFSET 0
#JACKET ""
#REQUEST "ticks_per_beat 480"
#00002: 4
#BPM01: 150
#00008: 01
#TIL00: ""
#VOLUME: ""
#HISPEED 00
#MEASUREHS 00
#00112:0016
#00118:26
#00312:16
#00318:0016
#00412:16
#0051a:14
#00614:14
#00718:14
#00812:14
#0091a:14
#00910:41
#01014:14
#01118:14
#01212:14
#0131a:14
#0141a:14
#01514:14
#01614:14
#01718:14
#01710:41
#01818:14
#01912:14
#02012:14
#02912:0016
#02918:26
#03018:16
#03012:0016
#03312:0016
#03318:26
#03310:41
#03418:16
#03412:0016
#03718:1616
#03812:1616
#03918:16
#03912:0016
#04118:0016
#04112:26
#04110:41
#04318:16
#04312:0016
#04418:16
#05818:0016
#05812:26
#0581f:21
#05912:16
#05918:0016
#05910:41
#06218:0016
#06212:26
#06312:16
#06318:0016
#06612:1616
#06718:1616
#06812:16
#06818:0016
#07118:14
#07214:14
#0731a:14
#0491f:11
#02119:00353500
#02219:00353500
#02319:00353500
#02512:00353500
#02510:41
#02612:00353500
#02712:0035
#002380:1626
#021390:15353500
#022370:35
#022390:00353500
#023390:35353500
#024370:25
#025320:15353500
#026340:35
#026320:00353500
#027320:3535
#028340:25
#031380:1626
#032320:1626
#035380:1626
#036320:1626
#040380:1626
#042320:1626
#045320:1636003636003636
#046320:0036360026000000
#047380:1636003636003636
#048380:0036360026000000
#049320:14
#050320:24
#051380:14
#052380:24
#053340:14
#054340:24
#0553a0:14
#0563a0:24
#060320:1626
#061380:1626
#064320:1626
#065380:1626
#069320:16363636
#070320:26
