This file was generated by Ched 2.7.0.0.
#TITLE ""
#ARTIST ""
#DESIGNER ""
#DIFFICULTY 0
#PLAYLEVEL
#SONGID ""
#WAVE ""
#WAVEOFFSET 0
#JACKET ""
#REQUEST "ticks_per_beat 480"
#00002: 4
#BPM01: 150
#00008: 01
#TIL00: ""
#VOLUME: ""
#HISPEED 00
#MEASUREHS 00
#00118:00130013000000000013001300000000
#00115:0013000023130000
#00112:23000000001300000000000000130000
#0011b:0000001300000013
#00212:13
#00218:00130000000000130000000000000000
#00215:00000013000013000000000000000000
#0021b:00130000
#00216:0000000000140014
#0041a:1212
#00414:1200000000000012
#00418:0000120000120000
#00416:0000001200001200
#0051a:1212
#00519:0012001200120012
#00518:00120012
#00514:00120012
#00516:2212
#0061a:00120012
#00618:0012
#00615:0012001200120012
#00614:00120012
#00616:1212
#00719:0012001200120012
#0071a:00120012
#00718:1212
#00716:00120012
#00714:0012
#00818:00120000
#0081a:0012
#00918:0013000000000000
#00915:00000013000000000000000000000000
#00912:1300001300000013
#0091b:23131313
#00916:0000000000130000
#00910:41
#0101b:13131313
#01016:0013000000001300
#01012:0000001313000000
#01014:0000000000000013
#01112:13131313
#01117:1300000013000033
#01119:0013001300000000
#0111b:00130013
#01212:13131300
#01218:00140000
#01219:0015
#0121b:0000000000000013
#01216:0000000000000023
#01319:1323
#01317:0013002300000000
#01314:2313
#01312:0023001300000000
#01316:0000000000130013
#0131b:0000000000230000
#01417:00000013
#0151b:1313130000000000
#01516:00130013000000000000000000000000
#01515:0000001300000000
#01518:00000000000000130000000000001300
#01512:0000000013131300
#01517:00000000000000000013001300000000
#0161a:141400
#01616:001400140014000000000000
#01612:000000001400000000000000140000000000000000130000
#01617:0000000000000023
#01714:1323
#01716:0013002300000000
#01719:2313
#0171b:0023001300000000
#01717:0000000000130000
#01712:0000000000230013
#01710:41
#0181b:00000013
#01912:1300000000130000
#0191b:0000130000000013
#01918:0000001300001300
#01915:0013
#02015:1313
#02012:00130000
#0201b:00130000
#02018:0013
#02117:00120000
#0211b:2213
#02118:000000000000001300000000
#02115:000013
#02212:13001313
#02215:001300130000001300000000
#02218:001313001300
#0221b:000000000013000000000000
#02313:00120000
#0231b:0013
#02318:000000000000001300000013
#02315:000000001313
#02312:00000013
#02317:22120000
#02412:00000013
#02415:0013
#0241b:00000013
#02517:00120000
#02512:0013
#02515:000000000000001300000000
#02518:000013
#02513:22
#02510:41
#0261b:13001313
#02618:001300130000001300000000
#02615:001313001300
#02612:000000000013000000130000
#02818:0012
#02816:00000012
#02817:22
#02813:00730000
#02918:0013000000001300
#02915:0000130000000013
#02912:2400001300000000
#02916:0000000000130000
#02917:00000000000000130000000000000000
#0291a:24
#0301b:13
#03018:00001300000000000000000000130000
#0301a:00000000001300000000000000000000
#03015:00000000000000000000000013000013
#03012:24
#03014:00000024000000000000000000000000
#03016:0000002400000000
#0311b:0013000000000000
#03118:00000000130000130000000000001300
#03115:00000000001300000000000013000000
#03112:0000000000130000
#0321b:13
#03215:0013001300000000
#03218:00000013001300000000000000000000
#03212:13000024
#03216:0000000000240014
#0321a:00002424
#03315:0013000000001300
#03318:0000130000000013
#0331b:0000001300000000
#03317:0000000000130000
#03316:00000000000000130000000000000000
#03312:24
#03310:41
#03412:13
#03415:00001300000000000000000000130000
#03413:00000000001300000000000000000000
#03418:00000024000000000000000013000013
#0341a:24
#03416:0000002400000000
#03512:0013000000000000
#03515:00000000130000130000000000001300
#03518:00000000001300000000000013000000
#0351b:0000000000130000
#03612:1300000024000024
#03618:0013001300000000
#03615:00000013001300000000000000000000
#0361b:13
#0361a:00000000000000002400002400000000
#03716:00000013000000000000000000000000
#03712:2300001300000000
#03717:00000000000000000000001300000000
#0371b:0000000023000013
#03812:13
#03818:0013000000001300
#03814:00000013000000000000000000000000
#0381a:00000000001300000000000000000000
#03816:0000001300000000
#0381b:0000000000130000
#03815:0000000000000013
#0391b:00000013000000001300000000000000
#03917:2300001300000000
#03912:00000013
#03916:0013
#04018:00000000000000000000000000130000
#04016:00240000
#04017:0022
#04015:00000023
#04118:00130000000013000000130000130000
#04115:00001300001300130013000000001300
#0411b:00000013000000002300000000000000
#04112:23000000000000000000001300000000
#04110:41
#0421b:13
#04215:00130000000000130000000000000000
#04218:00000013000013000000000000000000
#04212:00130000
#04216:0000000000140014
#04315:00130000000013000000130000130013
#04318:00001300001300130013000000001300
#04312:00000013000000002300000000000000
#0431b:23000000000000000000001300000000
#04615:0000000013131300
#04618:00000000000000000013001300000000
#0461b:0023230000000000
#04616:0023230000000000
#04812:0024240000001300
#04816:0013
#04817:0024240000000000
#04813:00000000000000000000000000530000
#04814:0000000000000053
#04815:00000000000000000000000000000053
#0491a:12525200
#04916:53120000
#04914:00001252
#04918:00000012
#0491f:11
#0501b:12
#05017:00120012
#05013:0012
#05014:52
#05019:00520000
#05015:00000052
#0511a:12520000
#05116:00125200
#05118:00001252
#05114:12000012
#05217:1212
#05216:00120000
#05218:00000012
#0521a:0012
#05214:52
#05219:00520000
#05215:00000052
#05318:00001400000000140000000000001400
#05314:0000001400140000
#05312:2424
#0531a:24
#05316:00240024
#05414:00001400000000140000000000001400
#05418:0000001400140000
#0541a:2424
#05412:24
#05416:00240024
#05518:00001300001300000000000000000000
#05515:00130000
#0551b:00000000000000130000130000001300
#05512:24000000000000130000000013000000
#05517:00000013
#0551a:24
#05612:13
#05618:0013000000000000
#05615:00000013001300000000000000000000
#05818:0013000000001300
#05815:0000130000000013
#0581a:0000001400000000
#05816:00000000000000140000000000000000
#05812:2500000000000000000000000000000000140000000000000000000000000000
#0581b:0000000000130000
#05819:25
#0581f:21
#05918:00000013
#05915:00000000000000000000000000130000
#0591b:00000000000000000000000000000013
#05912:13000000000000000000000000000014
#05917:0013000000000000
#05916:00000000001300000000000000000000
#0591a:24
#05919:0000002400000000
#05913:00000024000000000000000000000000
#05910:41
#0601b:0013000000000000
#06015:00130000
#06018:00000000001300000000000000000000
#06012:00000000000000130000130013000000
#0601a:00000000000000140000000000000000
#06016:00000014
#06116:1300000000240014
#06112:0013000024002400
#06117:00000014000000000000000000000000
#06115:00000000001300000000000000000000
#0611a:0000001400002400
#06215:0013000000001300
#06218:0000130000000013
#06212:2500001400130000
#06216:00000000000000140000000000000000
#0621a:0000000000000000000000000000000000140000000000000000000000000000
#06315:00000013
#06318:00000000000000000000000000130000
#06312:24000000000000000000000000000013
#0631a:00000000000000000000000000000014
#0631b:13
#06316:0013000000000000
#06317:00000000001300000000000000000000
#06313:0000002400000000
#06319:00000024000000000000000000000000
#06412:00001300000000140000000000000000
#06418:00130013
#06415:00000000001300000000000000001300
#0641b:00000000000000130000130000000000
#06512:1300001424000024
#0651b:1313000000000000
#06515:00000014000000000000000000000000
#06518:00000000001300000000000000000000
#0651a:00000000000000002400002400000000
#06612:13000000000013002400002400002400
#06616:0013000000000000
#06617:0000000013000013
#0661b:00000000000000000000001300000000
#0661a:24000024000024000000000000000000
#06716:00001300001300000000000000002300
#06717:0000000000130000
#06719:00000013
#0671b:0000000000000013
#0671a:24000024000024000000000000000000
#06712:0000000000230000
#06714:00000023
#06817:2300002313000000
#06816:00000013
#06812:0013
#0681b:00000023000000000000000000000000
#0691b:00130013
#06912:0013
#06916:24242424
#07012:13
#07016:00000000000000000000001400000000000000000000000000000000000000000000000000000000000000000000000000000000000000000000000000000000
#07116:00000000000000000000001400000000000000000000000000000000000000000000000000000000000000000000000000000000000000000000000000000000
#07216:00000000000000000000001400000000000000000000000000000000000000000000000000000000000000000000000000000000000000000000000000000000
#04418:0000130000130000
#04415:0000001300001300
#0441b:2313
#04412:0000000000000013
#00315:00130013000000002300130000000000
#00318:00001300000000000013001300000000
#0031b:23000000001300130000000000001300
#00312:00000000000013000000000000130000
#02717:22222222
#04512:2323000000002323
#04517:2323000000002323
#0451b:0000002323000000
#04516:0000002323000000
#0471a:2424000000002424
#04715:2424000000002424
#04712:0000002424000000
#04717:0000002424000000
#05718:0053
#07317:62
#0045a:12
#00454:12
#00559:0052005200520052
#00558:00220022
#0055a:2222
#00759:0062006200620062
#0075a:00220022
#00758:2222
#00655:0052005200520052
#00654:00220022
#00656:2222
#00854:0012
#0085a:0012
#01052:0013
#01157:0053
#0115b:00000053
#01257:13
#01258:00140000
#01259:0015
#01352:0013000000000000
#0135b:0000000000130000
#01452:00000013
#01457:00000013
#0155b:00130000
#01552:00000013
#01652:0014
#0175b:0013000000000000
#01752:0000000000130000
#0185b:00000053
#01957:13
#01952:1300000000230000
#01955:0053
#01958:00000063
#0195b:0000000000000023
#02055:1313
#02058:1313
#0205b:00130000
#02052:00130000
#02252:00000013
#02458:0013
#02455:0013
#0265b:00000013
#02957:00000000000000530000000000000000
#02952:34
#03055:00000000000000000000000000000053
#03056:0000001400000000
#03152:0013000000000000
#03158:00000000000000630000000000000000
#0315b:0000000000130000
#0325b:13
#03255:0000001300000000
#0325a:00000064
#03256:0000000000000024
#0335a:44
#03356:00000000000000630000000000000000
#03458:00000000000000000000000000000063
#03456:0000001400000000
#03555:00000000000000530000000000000000
#0355b:0013000000000000
#03552:0000000000130000
#03652:1300000054000014
#03658:0000001300000000
#03656:0000000000000014
#0365a:00000000000000000000005400000000
#03856:0000005300000000
#0395b:0053
#03952:00000053
#0445b:13
#04557:0013000000000013
#04552:0013000000000013
#04556:0013
#0455b:0013
#04656:00130000
#0465b:00130000
#04755:0014000000000014
#0475a:0014000000000014
#04757:0014
#04752:0014
#05352:14
#0545a:14
#05552:00000000000000530000000000000000
#05557:00000053
#0555b:0000000000000023
#05859:45
#05852:3500000000000000000000000000000000240000000000000000000000000000
#05856:00000000000000540000000000000000
#05952:00000000000000000000000000000054
#05959:0000001400000000
#06056:0014000000145400
#0605a:00000000000000640000000000000000
#0615a:0000001400005400
#06156:0000000000000024
#06259:45
#06256:00000000000000640000000000000000
#0625a:0000000000000000000000000000000000240000000000000000000000000000
#06252:35
#0635a:00000000000000000000000000000064
#06353:0000001400000000
#06452:00000000000000540000000000000000
#06456:0014000000140000
#06552:0000001454000000
#0655a:00000000000000000000006400000000
#06857:0053
#06856:00000053
#07256:00000000000000000000005400000000000000000000000000000000000000000000000000000000000000000000000000000000000000000000000000000000
#07156:00000000000000000000005400000000000000000000000000000000000000000000000000000000000000000000000000000000000000000000000000000000
#07056:00000000000000000000005400000000000000000000000000000000000000000000000000000000000000000000000000000000000000000000000000000000
#06956:14141414
#04857:00140000
#04852:00140000
#04058:13
#04055:13
#002320:0000000013230000
#0023b0:0000000000001323
#0053a0:1232
#005390:0052005200520052
#005380:00320032
#0063a0:22
#006361:1232
#006351:0052005200520052
#006341:00320032
#007361:22
#007380:1232
#007390:0052005200520052
#0073a0:00320032
#008380:22
#008341:12322200
#008361:0032003200000000
#011371:0000000013000033
#0113b1:00000033
#012371:23
#0133b1:0000000000000013
#014371:23
#014320:13
#014360:0023000000000000
#0143b1:0013000000000000
#014371:00230000
#014320:00130000
#014360:0000002300000000
#0143b1:0000001300000000
#014371:0023
#014320:00001323
#017370:0000000000000013
#0183b0:23
#018361:13
#018321:0023000000000000
#018370:0013000000000000
#0183b0:00230000
#018361:00130000
#018321:0000002300000000
#018370:0000001300000000
#0183b0:0023
#018361:00001323
#0183b0:00000013
#019370:23
#019350:00001323
#019320:0000000000530000
#019381:00000013
#0193b1:0000000000000053
#020381:23
#021331:123200323200220000000000
#021381:00000013
#022381:23
#0223b1:00000013
#0233b1:23
#0243b1:13
#024381:002300000000
#024350:001300000000
#024320:002300
#0243b1:001300
#024381:0023
#0253b1:123200323200220000000000
#025351:00000013
#026351:23
#027331:1353535353535353230000000000000000000000000000000000000000000000
#027341:00530053005300530053005300530053000000000000000000000000000000000000000000000000000000000000000000000000000000000000000000000000
#0273a1:0000000000000000000000000000000013535353535353532300000000000000
#027391:00000000000000000000000000000000000000000000000000000000000000000053005300530053005300530053005300000000000000000000000000000000
#028331:1353535353535353230000000000000000000000000000000000000000000000
#028341:00530053005300530053005300530053000000000000000000000000000000000000000000000000000000000000000000000000000000000000000000000000
#029371:00000000000000130000000000000000
#0293b1:0000000000230000
#030351:00000000000000000000000000000013
#031321:0023000000000000
#031381:00000000000000130000000000000000
#0313b1:0000000000230000
#0323a1:00000014
#032361:0000000000000054
#0333a1:24
#033361:00000000000000130000000000000000
#033321:0000000000230000
#034381:00000000000000000000000000000013
#0353b1:0023000000000000
#035351:00000000000000130000000000000000
#035321:0000000000230000
#036321:0014
#036361:00000000000000000000002400000000
#0363a0:00000000000000000000001400000000
#036360:0000000000000024
#037370:1300002300000000
#0373b0:00000033000000000000000000000000
#037360:0000000013000023
#037320:00000000000000000000003300000000
#038360:0000001300000000
#038320:0000000000230000
#039320:1300002300000000
#039360:00000033000000000000000000000000
#0393b0:0013
#039380:0000000000533300
#040380:23
#039321:00000013
#039351:0000000000000053
#040351:23
#0423b1:0000000013230000
#042321:0000000000001323
#0483b1:0013
#048371:00000023
#055321:00000000000000130000000000000000
#055361:0000000000230000
#055371:00000013
#0553b1:0000000000000053
#056371:23
#056381:0000000000000000000000001354000000000000000000000000000000000000
#056371:00000000000000000000000000000000000000000000000000530000560057005700570057005700570057005700570057005700570057005700570057005700
#056361:00000000000000000000000000000000000000000000000000000055000000000000000000000000000000000000000000000000000000000000000000000000
#056351:00000000000000000000000000000000000000000000000000000000005600000000000000000000000000000000000000000000000000000000000000000000
#056341:00000000000000000000000000000000000000000000000000000000000000570000000000000000000000000000000000000000000000000000000000000000
#056331:00000000000000000000000000000000000000000000000000000000000000000058000000000000000000000000000000000000000000000000000000000000
#056321:00000000000000000000000000000000000000000000000000000000000000000000005900590059005900590059005900590059005900590059005900590059
#057371:57005700570057005700570057005700570057005700570057005700560000530000000000000000000000000000000000000000000000000000000000000000
#057321:00590059005900590059005900590059005900590059000000000000000000000000000000000000000000000000000000000000000000000000000000000000
#057331:00000000000000000000000000000000000000000000005800000000000000000000000000000000000000000000000000000000000000000000000000000000
#057341:00000000000000000000000000000000000000000000000000570000000000000000000000000000000000000000000000000000000000000000000000000000
#057351:00000000000000000000000000000000000000000000000000000056000000000000000000000000000000000000000000000000000000000000000000000000
#057361:00000000000000000000000000000000000000000000000000000000005500000000000000000000000000000000000000000000000000000000000000000000
#057381:0000000000000000000000000000005423000000000000000000000000000000
#058361:00000000000000140000240000000000
#058321:0000000000000000000000000000000000540000000000000000000000000000
#059321:00000000000000000000000000000014
#060361:0024000000000000
#0603a1:00000000000000140000000000000000
#060361:0000000000240000
#060361:00000014
#0613a1:24
#0613a1:00000014
#061361:0000000000000054
#062391:25
#062361:00000000000000140000240000000000
#0623a1:0000000000000000000000000000000000540000000000000000000000000000
#0633a1:00000000000000000000000000000014
#064361:0024000000000000
#064321:00000000000000140000000000000000
#064361:0000000000240000
#065321:0014
#065361:00000000000000000000002400000000
#0653a0:00000000000000000000001400000000
#065360:0000000000000024
#068320:1300002300000000
#068360:00000033000000000000000000000000
#068370:0013
#0683b0:00000023
#068361:00000013
#069321:23
#070361:14000054000000003400005400000000000000000000000000000000000000000000000000000000000000000000000000000000000000000000000000000000
#070371:000000540000000000000000000000000000000000000000000000540000000000000000000000000000000000000000000000000000000000000000000000000000000000000000000000000000000000000000000000000000000000000000000000000000000000000000000000000000000000000000000000000000000000000000000000000000000000000000000000000000000000000000000000000000000000000000000000000000000000000000000000000000000000000052
#070351:0054000000540000000000000000000000000000000000000000000000000000
#071361:34000054000000003400005400000000000000000000000000000000000000000000000000000000000000000000000000000000000000000000000000000000
#071371:000000540000000000000000000000000000000000000000000000540000000000000000000000000000000000000000000000000000000000000000000000000000000000000000000000000000000000000000000000000000000000000000000000000000000000000000000000000000000000000000000000000000000000000000000000000000000000000000000000000000000000000000000000000000000000000000000000000000000000000000000000000000000000000052
#071351:0054000000540000000000000000000000000000000000000000000000000000
#072361:34000054000000003400005400000000000000000000000000000000000000000000000000000000000000000000000000000000000000000000000000000000
#072371:00540000000000000054000000000000000000000000000000000000000000000000000000000000000000000000000000000000000000000000000000000000
#072351:0054000000540000000000000000000000000000000000000000000000000000
#073371:22
#048920:00000013
#049960:23
#0499a1:120000000000000000000000000000000000000000000000000000000000000000000000000000000000000000000000000000000000000000000000000000000000000000000000000000000000000000000000000000000000000000000000000000000000000000000000000000000000000000000000000000000000000000000000000000000000000000000000000000000000000000000000000000000000000000000000000000000000000000000000000000000000000000000000000000000000000000000000000000000000000000000000000000000000000000000000000000000000000000000052220000000000000000000000000000000000000000000000000000000000000000000000000000000000000000000000000000000000000000000000000000000000000000000000000000000000000000000000000000000000000000000000000000000000000000000000000000000000000000000000000000000000000000000000000000000000000000000000000000000000000000000000000000000000000000000000000000000000000000000000000000000000000000000000000000000000000000000000000000000000000000000000000000000000000000000000000000000000000000000000
#049940:000000000000000000000000000000000000000000000000000000000000000000000000000000000000000000000000000000000000000000000000000000000000000000000000000000000000000000000000000000000000000000000000000000000000000000000000000000000000000000000000000000000000000000000000000000000000000000000000000000000000000000000000000000000000000000000000000000000000000000000000000000000000000000000000000000000000000000000000000000000000000000000000000000000000000000000000000000000000000000000000120000000000000000000000000000000000000000000000000000000000000000000000000000000000000000000000000000000000000000000000000000000000000000000000000000000000000000000000000000000000000000000000000000000000000000000000000000000000000000000000000000000000000000000000000000000000000000000000000000000000000000000000000000000000000000000000000000000000000000000000000000000000000000000000000000000000000000000000000000000000000000000000000000000000000000000000000000000000000000000052
#050940:22
#0509b1:12
#050991:000000000000000000000000000000000000000000000000000000000000000000000000000000000000000000000000000000000000000000000000000000000000000000000000000000000000000000000000000000000000000000000000000000000000000000000000000000000000000000000000000000000000000000000000000000000000000000000000000000000000000000000000000000000000000000000000000000000000000000000000000000000000000000000000000000000000000000000000000000000000000000000000000000000000000000000000000000000000000000000052220000000000000000000000000000000000000000000000000000000000000000000000000000000000000000000000000000000000000000000000000000000000000000000000000000000000000000000000000000000000000000000000000000000000000000000000000000000000000000000000000000000000000000000000000000000000000000000000000000000000000000000000000000000000000000000000000000000000000000000000000000000000000000000000000000000000000000000000000000000000000000000000000000000000000000000000000000000000000000000000000000000000000000000000000000000000000000000000000000000000000000000000000000000000000000000000000000000000000000000000000000000000000000000000000000000000000000000000000000000000000000000000000000000000000000000000000000000000000000000000000000000000000000000000000000000000000000000000000000000000000000000000000000000000000000000000000000000000000000000000000000000000000000000000000000000000000000000000000000000000000000000000000000000000000000000000000000000000000000000000000000000000000000000000000000000000000000000000000000000000000000000000000000000000000000000000000000000000000000000000000000000000000000000000000000000000000000000000000000000000000000000000000000000000000000000000000000000000000000000000000000000000000000000000000000000000000000000000000000000000000000000000000000000000000000000000000000000000000000000000000000000000000000000000000000000000000000000000000000000000000000000000000000000000000000000000000000000000000000000000
#050931:0012
#050951:000000000000000000000000000000000000000000000000000000000000000000000000000000000000000000000000000000000000000000000000000000000000000000000000000000000000000000000000000000000000000000000000000000000000000000000000000000000000000000000000000000000000000000000000000000000000000000000000000000000000000000000000000000000000000000000000000000000000000000000000000000000000000000000000000000000000000000000000000000000000000000000000000000000000000000000000000000000000000000000000000000000000000000000000000000000000000000000000000000000000000000000000000000000000000000000000000000000000000000000000000000000000000000000000000000000000000000000000000000000000000000000000000000000000000000000000000000000000000000000000000000000000000000000000000000000000000000000000000000000000000000000000000000000000000000000000000000000000000000000000000000000000000000000000000000000000000000000000000000000000000000000000000000000000000000000000000000000000000000000000000000000000000000000000000000000000000000000000000000000000000000000000000000000000000000000000000000000000000000000000000000000000000000000000000000000000000000000000000000000000000000000000000000000000000000000000000000000000000000000000000000000000000000000000000000000000000000000000000000000000000000000000000000000000000000000000000000000000000000000000000000000000000000000000000000000000000000000000000000000000000000000000000000000000000000000000000000000000000000000052220000000000000000000000000000000000000000000000000000000000000000000000000000000000000000000000000000000000000000000000000000000000000000000000000000000000000000000000000000000000000000000000000000000000000000000000000000000000000000000000000000000000000000000000000000000000000000000000000000000000000000000000000000000000000000000000000000000000000000000000000000000000000000000000000000000000000000000000000000000000000000000000000000000000000000000000000000000000000000000000
#0519a1:120000000000000000000000000000000000000000000000000000000000000000000000000000000000000000000000000000000000000000000000000000000000000000000000000000000000000000000000000000000000000000000000000000000000000000000000000000000000000000000000000000000000000000000000000000000000000000000000000000000000000000000000000000000000000000000000000000000000000000000000000000000000000000000000000000000000000000000000000000000000000000000000000000000000000000000000000000000000000000000052220000000000000000000000000000000000000000000000000000000000000000000000000000000000000000000000000000000000000000000000000000000000000000000000000000000000000000000000000000000000000000000000000000000000000000000000000000000000000000000000000000000000000000000000000000000000000000000000000000000000000000000000000000000000000000000000000000000000000000000000000000000000000000000000000000000000000000000000000000000000000000000000000000000000000000000000000000000000000000000000000000000000000000000000000000000000000000000000000000000000000000000000000000000000000000000000000000000000000000000000000000000000000000000000000000000000000000000000000000000000000000000000000000000000000000000000000000000000000000000000000000000000000000000000000000000000000000000000000000000000000000000000000000000000000000000000000000000000000000000000000000000000000000000000000000000000000000000000000000000000000000000000000000000000000000000000000000000000000000000000000000000000000000000000000000000000000000000000000000000000000000000000000000000000000000000000000000000000000000000000000000000000000000000000000000000000000000000000000000000000000000000000000000000000000000000000000000000000000000000000000000000000000000000000000000000000000000000000000000000000000000000000000000000000000000000000000000000000000000000000000000000000000000000000000000000000000000000000000000000000000000000000000000000000000000000000000000000000000000000000
#051960:000000000000000000000000000000000000000000000000000000000000000000000000000000000000000000000000000000000000000000000000000000000000000000000000000000000000000000000000000000000000000000000000000000000000000000000000000000000000000000000000000000000000000000000000000000000000000000000000000000000000000000000000000000000000000000000000000000000000000000000000000000000000000000000000000000000000000000000000000000000000000000000000000000000000000000000000000000000000000000000000120000000000000000000000000000000000000000000000000000000000000000000000000000000000000000000000000000000000000000000000000000000000000000000000000000000000000000000000000000000000000000000000000000000000000000000000000000000000000000000000000000000000000000000000000000000000000000000000000000000000000000000000000000000000000000000000000000000000000000000000000000000000000000000000000000000000000000000000000000000000000000000000000000000000000000000000000000000000000000000052220000000000000000000000000000000000000000000000000000000000000000000000000000000000000000000000000000000000000000000000000000000000000000000000000000000000000000000000000000000000000000000000000000000000000000000000000000000000000000000000000000000000000000000000000000000000000000000000000000000000000000000000000000000000000000000000000000000000000000000000000000000000000000000000000000000000000000000000000000000000000000000000000000000000000000000000000000000000000000000000000000000000000000000000000000000000000000000000000000000000000000000000000000000000000000000000000000000000000000000000000000000000000000000000000000000000000000000000000000000000000000000000000000000000000000000000000000000000000000000000000000000000000000000000000000000000000000000000000000000000000000000000000000000000000000000000000000000000000000000000000000000000000000000000000000000000000000000000000000000000000000000000000000000000000000000000000000000000000000000000
#051981:000000000000000000000000000000000000000000000000000000000000000000000000000000000000000000000000000000000000000000000000000000000000000000000000000000000000000000000000000000000000000000000000000000000000000000000000000000000000000000000000000000000000000000000000000000000000000000000000000000000000000000000000000000000000000000000000000000000000000000000000000000000000000000000000000000000000000000000000000000000000000000000000000000000000000000000000000000000000000000000000000000000000000000000000000000000000000000000000000000000000000000000000000000000000000000000000000000000000000000000000000000000000000000000000000000000000000000000000000000000000000000000000000000000000000000000000000000000000000000000000000000000000000000000000000000000000000000000000000000000000000000000000000000000000000000000000000000000000000000000000000000000000000000000000000000000000000000000000000000000000000000000000000000000000000000000000000000000000000000000000120000000000000000000000000000000000000000000000000000000000000000000000000000000000000000000000000000000000000000000000000000000000000000000000000000000000000000000000000000000000000000000000000000000000000000000000000000000000000000000000000000000000000000000000000000000000000000000000000000000000000000000000000000000000000000000000000000000000000000000000000000000000000000000000000000000000000000000000000000000000000000000000000000000000000000000000000000000000000000000052220000000000000000000000000000000000000000000000000000000000000000000000000000000000000000000000000000000000000000000000000000000000000000000000000000000000000000000000000000000000000000000000000000000000000000000000000000000000000000000000000000000000000000000000000000000000000000000000000000000000000000000000000000000000000000000000000000000000000000000000000000000000000000000000000000000000000000000000000000000000000000000000000000000000000000000000000000000000000000000000
#051940:000000000000000000000000000000000000000000000000000000000000000000000000000000000000000000000000000000000000000000000000000000000000000000000000000000000000000000000000000000000000000000000000000000000000000000000000000000000000000000000000000000000000000000000000000000000000000000000000000000000000000000000000000000000000000000000000000000000000000000000000000000000000000000000000000000000000000000000000000000000000000000000000000000000000000000000000000000000000000000000000000000000000000000000000000000000000000000000000000000000000000000000000000000000000000000000000000000000000000000000000000000000000000000000000000000000000000000000000000000000000000000000000000000000000000000000000000000000000000000000000000000000000000000000000000000000000000000000000000000000000000000000000000000000000000000000000000000000000000000000000000000000000000000000000000000000000000000000000000000000000000000000000000000000000000000000000000000000000000000000000000000000000000000000000000000000000000000000000000000000000000000000000000000000000000000000000000000000000000000000000000000000000000000000000000000000000000000000000000000000000000000000000000000000000000000000000000000000000000000000000000000000000000000000000000000000000000000000000000000000000000000000000000000000000000000000000000000000000000000000000000000000000000000000000000000000000000000000000000000000000000000000000000000000000000000000000000000000000000000000000120000000000000000000000000000000000000000000000000000000000000000000000000000000000000000000000000000000000000000000000000000000000000000000000000000000000000000000000000000000000000000000000000000000000000000000000000000000000000000000000000000000000000000000000000000000000000000000000000000000000000000000000000000000000000000000000000000000000000000000000000000000000000000000000000000000000000000000000000000000000000000000000000000000000000000000000000000000000000000000052
#052940:22
#052971:12
#052991:000000000000000000000000000000000000000000000000000000000000000000000000000000000000000000000000000000000000000000000000000000000000000000000000000000000000000000000000000000000000000000000000000000000000000000000000000000000000000000000000000000000000000000000000000000000000000000000000000000000000000000000000000000000000000000000000000000000000000000000000000000000000000000000000000000000000000000000000000000000000000000000000000000000000000000000000000000000000000000000052220000000000000000000000000000000000000000000000000000000000000000000000000000000000000000000000000000000000000000000000000000000000000000000000000000000000000000000000000000000000000000000000000000000000000000000000000000000000000000000000000000000000000000000000000000000000000000000000000000000000000000000000000000000000000000000000000000000000000000000000000000000000000000000000000000000000000000000000000000000000000000000000000000000000000000000000000000000000000000000000000000000000000000000000000000000000000000000000000000000000000000000000000000000000000000000000000000000000000000000000000000000000000000000000000000000000000000000000000000000000000000000000000000000000000000000000000000000000000000000000000000000000000000000000000000000000000000000000000000000000000000000000000000000000000000000000000000000000000000000000000000000000000000000000000000000000000000000000000000000000000000000000000000000000000000000000000000000000000000000000000000000000000000000000000000000000000000000000000000000000000000000000000000000000000000000000000000000000000000000000000000000000000000000000000000000000000000000000000000000000000000000000000000000000000000000000000000000000000000000000000000000000000000000000000000000000000000000000000000000000000000000000000000000000000000000000000000000000000000000000000000000000000000000000000000000000000000000000000000000000000000000000000000000000000000000000000000000000000000000000
#052971:0012
#052951:000000000000000000000000000000000000000000000000000000000000000000000000000000000000000000000000000000000000000000000000000000000000000000000000000000000000000000000000000000000000000000000000000000000000000000000000000000000000000000000000000000000000000000000000000000000000000000000000000000000000000000000000000000000000000000000000000000000000000000000000000000000000000000000000000000000000000000000000000000000000000000000000000000000000000000000000000000000000000000000000000000000000000000000000000000000000000000000000000000000000000000000000000000000000000000000000000000000000000000000000000000000000000000000000000000000000000000000000000000000000000000000000000000000000000000000000000000000000000000000000000000000000000000000000000000000000000000000000000000000000000000000000000000000000000000000000000000000000000000000000000000000000000000000000000000000000000000000000000000000000000000000000000000000000000000000000000000000000000000000000000000000000000000000000000000000000000000000000000000000000000000000000000000000000000000000000000000000000000000000000000000000000000000000000000000000000000000000000000000000000000000000000000000000000000000000000000000000000000000000000000000000000000000000000000000000000000000000000000000000000000000000000000000000000000000000000000000000000000000000000000000000000000000000000000000000000000000000000000000000000000000000000000000000000000000000000000000000000000000000052220000000000000000000000000000000000000000000000000000000000000000000000000000000000000000000000000000000000000000000000000000000000000000000000000000000000000000000000000000000000000000000000000000000000000000000000000000000000000000000000000000000000000000000000000000000000000000000000000000000000000000000000000000000000000000000000000000000000000000000000000000000000000000000000000000000000000000000000000000000000000000000000000000000000000000000000000000000000000000000000
