This file was generated by Ched 2.7.0.0.
#TITLE ""
#ARTIST ""
#DESIGNER ""
#DIFFICULTY 0
#PLAYLEVEL
#SONGID ""
#WAVE ""
#WAVEOFFSET 0
#JACKET ""
#REQUEST "ticks_per_beat 480"
#00002: 4
#BPM01: 150
#00008: 01
#TIL00: ""
#VOLUME: ""
#HISPEED 00
#MEASUREHS 00
#00118:00000000001300000000005300001300
#00115:00000053000013000000000000130000
#00112:23
#0011b:0023
#00113:00530000000000000000000000000000
#00114:0053000000000000
#0011a:00000000000000000053000000000000
#00119:0000000000530000
#00215:00000013000013000000000000000000
#00218:00130000000000130000000000000000
#00212:13
#0021b:00130000
#0151b:13130000
#01515:0013000000130000
#01512:0000001300000013
#01518:00001313
#01915:00131300
#01918:0000001300000000
#01912:00000013
#02018:00140000
#02014:0014
#02915:0013000000000013
#02918:00130013
#02912:00000000000013330000000000000000
#0291a:24
#03015:00000013
#03018:00003333000000000000000000130000
#0301b:23
#03115:00000000001300000000000013000000
#03118:0000130000000013
#0321b:0013000000000000
#03215:00000013000000000000000000000000
#03218:00000000001300000000000000000000
#03212:1300001300000000
#03812:13
#03818:00001300001300000000000000001300
#03815:00000013000013000000000013000000
#0381b:0000000000130000
#04018:00000000000000002300000000130000
#04012:23
#04015:00230023
#00318:00000000001300002300000000001300
#00315:23000000000013000000000000130000
#00314:00530000000000000000000000000000
#00313:0053000000000000
#00312:00000053000000000000000000000000
#00319:00000000000000000053000000000000
#0031a:0000000000530000
#0031b:00000000000000000000005300000000
#00412:1300000000000013
#00418:00130013
#00415:0000001300130000
#0041b:0013
#00515:0013000000001300
#00518:0000130000130000
#00512:0000001300000013
#0051b:2313
#0061b:1313
#00615:0013001300000013
#00618:00130000
#00612:00000013
#00718:1313
#00715:0013000000001300
#0071b:00130000
#00712:0000001300000000
#00819:14141400
#00813:0014001400000000
#00918:0013000000001300
#00915:0000130000130000
#0091b:0000001300000013
#00912:2313
#00910:41
#01012:1313
#01018:0013001300000013
#01015:00130000
#0101b:00000013
#01115:1300000013000013
#01118:0013000000001300
#01112:00130000
#0111b:0000001300000000
#0121a:14
#01216:00140000
#01212:0014
#01218:0000000000000013
#01315:1300001300000000
#01318:0013
#0131b:0000000000000013
#0131a:0024000000000000
#01312:0000000000240000
#01415:1313
#01418:0013001300000000
#01412:00130000
#01615:0000000000000013
#0161a:003434003434000000000000
#01718:1300001300000000
#01715:0013
#01712:0024000000000013
#0171a:0000000000240000
#01710:41
#01818:1313
#01815:0013001300000000
#0181b:00130013
#0211b:133300000000000000000000
#02318:13
#02315:000000130000003333003333
#0231b:00130000
#02312:23
#0241b:133333000000
#02818:0013
#02815:00000013
#02813:22
#03318:0013000000000013
#03315:00130013
#0331b:00000000000013330000000000000000
#03312:24
#03310:41
#03418:00000013
#03415:00003333000000000000000000130000
#03412:23
#03518:00000000001300000000000013000000
#03515:0000130000000013
#03612:0013000000000000
#03618:00000013000000000000000000000000
#03615:00000000001300000000000000000000
#0361b:1300001300000000
#03918:0013
#0391b:00000013
#03912:13
#04118:00000000001300000000005300001300
#04115:00000053000013000000000000130000
#04112:23
#0411b:0023
#04110:41
#04113:00530000000000000000000000000000
#04114:0053000000000000
#0411a:00000000000000000053000000000000
#04119:0000000000530000
#04215:00000013000013000000000000000000
#04218:00130000000000130000000000000000
#04212:13
#0421b:00130000
#04318:00000000001300002300000000001300
#04315:23000000000013000000000000130000
#04314:00530000000000000000000000000000
#04313:0053000000000000
#04312:00000053000000000000000000000000
#04319:00000000000000000053000000000000
#0431a:0000000000530000
#0431b:00000000000000000000005300000000
#04418:00130013
#04415:0000001300130000
#0441b:0013
#04412:2300000000000013
#04616:00000000000000001454545454000000
#04612:0024240000000000
#04812:0016
#04818:0026260000000000
#0491a:12
#04918:00120000
#04916:0012
#04914:00000012
#0491f:11
#05016:12
#05018:00120012
#0501a:0012
#05116:12
#05118:0012
#05214:12
#05218:0012
#05216:00000012
#05315:0013001300001300
#05318:0000130000130013
#05312:2323
#0531b:2323
#05415:0013001300001300
#05418:0000130000130013
#05412:2323
#0541b:2323
#05516:00140014
#05512:23
#0551b:23
#05612:13
#05715:0013
#05718:00000013
#05818:0013000000000013
#05815:00130013
#0581b:00000000000013330000000000000000
#05812:24
#0581f:21
#05918:00000000001300000000000013000000
#05915:00000023000000000000000000130000
#0591a:00000000000000000000000000000014
#0591b:0013000000000000
#05912:2300002300000000
#05910:41
#06018:00000000001300000000000013000000
#06015:0000130000000013
#06012:00000000000000140000000000000000
#06112:0013000000000000
#06118:00000013000000000000000000000000
#06115:00000000001300000000000000000000
#0611b:1300001300000000
#06215:0013000000000013
#06218:00130013
#06212:00000000000013330000000000000000
#0621a:24
#06315:00000000001300000000000013000000
#06318:00000023000000000000000000130000
#06312:00001300000000000000000000000014
#0631b:2300002300000000
#06415:00000000001300000000000013000000
#06418:0000130000000013
#0641a:00000000000000140000000000000000
#0651b:0013000000000000
#06515:00000013000000000000000000000000
#06518:00000000001300000000000000000000
#06512:1300001300000000
#0671b:13
#06715:00001300001300000000000023000000
#06718:00000013000013000000000000002300
#06712:0000000000230000
#02512:133300000000000000000000
#02510:41
#0271b:22
#02719:00220000
#02717:0022
#02715:00000022
#03716:00000024000000000000002400000000
#0371a:0000002400000024
#03712:2424
#0451a:2424000000002424
#04512:0000002424000000
#04712:2626000000002626
#04718:0000002626000000
#06616:00000024000000000000002400000000
#06612:0000002400000024
#0661a:2424
#0681b:23
#06815:0023
#0691b:23
#06918:00230000
#06915:0023
#06912:00000023
#07319:63
#0135a:0014000000000000
#01352:0000000000140000
#0155b:00130000
#01558:00000013
#02058:00140000
#02054:1414
#03152:0013000000000000
#0315b:0000000000130000
#03252:0000001300000000
#00452:13
#0065b:0013
#00758:0013
#00755:00000013
#00859:0014
#01052:0013
#01155:0013
#0125a:14
#01256:00140000
#01252:0014
#01455:0053
#0165a:0014
#01858:0063
#0185b:00000053
#01752:0014000000000000
#0175a:0000000000140000
#01958:13
#01955:0053
#01952:00000063
#0215b:53
#02158:00130000
#02258:00000013
#0245b:53
#02456:0014
#02655:00000013
#02952:0000005300000000
#0295a:14
#0365b:0000001300000000
#0355b:0013000000000000
#03552:0000000000130000
#03952:53
#03958:0053
#0395b:00000053
#0455a:0014000000000014
#04552:0014
#04652:00140000
#04752:0016000000000016
#04758:0016
#04852:0056
#04856:00000014
#04858:00160000
#05156:52
#05158:0052
#05254:52
#0585b:0000006300000000
#05852:14
#0615b:0000001300000000
#06058:0014000000000000
#06054:0000000000140000
#06052:00000000000000540000000000000000
#0595a:00000000000000000000000000000054
#05952:0000001300000000
#06252:0000005300000000
#0625a:14
#06552:0000001300000000
#06352:00000000000000000000000000000064
#0635b:0000001300000000
#0645a:00000000000000640000000000000000
#06454:0014000000000000
#06458:0000000000140000
#0685b:53
#06855:0053
#02552:63
#02555:00130000
#03352:14
#0335b:0000006300000000
#03058:0000001300000000
#0305b:53
#03452:63
#03455:0000001300000000
#04452:13
#0695b:13
#06958:00130000
#06955:0013
#06952:00000013
#002350:00001323
#002330:0000000000330000
#002381:00000013
#0023a1:0000000000000033
#003381:23
#014351:0013
#014321:00000023
#0163a1:143434003434240000000000
#016361:00340000
#018381:0013
#0183b1:00000033
#019381:23
#019351:0013
#019321:00000033
#020341:24
#0213b1:133300000000000000000000
#021381:00230000
#021321:0013
#021331:000000000000003300000000
#021341:000033
#021351:00000023
#0223b1:133333230000000000000000
#022350:000000133333230000000000
#022381:000000000000133333230000
#023351:000000000000133333003333
#023321:00000033
#024351:23
#0243b0:133333000000
#024360:0024
#025320:133300000000000000000000
#025350:00230000
#0253b0:0013
#0253a0:000000000000003300000000
#025390:000033
#025380:00000023
#026320:133333230000000000000000
#026381:000000133333230000000000
#026350:000000000000133333230000
#029320:00000000000013330000000000000000
#029350:0000000000332300
#0303b0:13
#030380:00003333003323000000000000000000
#030320:00000000000000000000000000000013
#031320:0023000000000000
#0313b0:00000000000000130000230000000000
#0333b0:00000000000013330000000000000000
#033380:0000000000332300
#034320:13
#034350:00003333003323000000000000000000
#0343b0:00000000000000000000000000000013
#0353b0:0023000000000000
#035320:00000000000000130000230000000000
#039320:13
#039350:00000033000033002300000000000000
#039381:0013
#0393b1:00000033
#040381:23
#042351:00001323
#042331:0000000000330000
#042380:00000013
#0423a0:0000000000000033
#043380:23
#048320:0016
#048360:00000024
#051360:12
#051340:00220000
#051380:0012
#0513a0:00000022
#052340:12
#052360:00220000
#055320:1323
#0553b1:0013
#0563b1:23
#0583b1:00000000000013330000000000000000
#058381:0000000000332300
#0593a1:00000000000000000000000000000014
#060381:0024000000000000
#060321:00000000000000140000000000000000
#060341:0000000000240000
#062321:00000000000013330000000000000000
#062351:0000000000332300
#063321:00000000000000000000000000000014
#064341:0024000000000000
#0643a1:00000000000000140000000000000000
#064381:0000000000240000
#0683b1:13
#068381:00000033000033002300000000000000
#068350:0013
#068320:00000023
#070390:13000053000000003300005300000000000000000000000000000000000000000000000000000000000000000000000000000000000000000000000000000000
#0703a0:00530000000000000053000000000000000000000000000000000000000000000000000000000000000000000000000000000000000000000000000000000000
#070380:0053000000530000000000000000000000000000000000000000000000000000
#071390:33000053000000003300005300000000000000000000000000000000000000000000000000000000000000000000000000000000000000000000000000000000
#0713a0:00530000000000000053000000000000000000000000000000000000000000000000000000000000000000000000000000000000000000000000000000000000
#071380:0053000000530000000000000000000000000000000000000000000000000000
#072390:33000053000000003300005300000000000000000000000000000000000000000000000000000000000000000000000000000000000000000000000000000000
#0723a0:00530000000000000053000000000000000000000000000000000000000000000000000000000000000000000000000000000000000000000000000000000000
#072380:0053000000530000000000000000000000000000000000000000000000000000
#073390:23
#001920:13
#001950:00000023000000000000000000000000
#0019b0:0013
#001980:00000000000000000000002300000000
#003950:13
#003920:00000023000000000000000000000000
#003980:0013
#0039b0:00000000000000000000002300000000
#041920:13
#041950:00000023000000000000000000000000
#0419b0:0013
#041980:00000000000000000000002300000000
#043950:13
#043920:00000023000000000000000000000000
#043980:0013
#0439b0:00000000000000000000002300000000
#046960:00001424
