This file was generated by Ched 2.7.0.0.
#TITLE ""
#ARTIST ""
#DESIGNER ""
#DIFFICULTY 0
#PLAYLEVEL
#SONGID ""
#WAVE ""
#WAVEOFFSET 0
#JACKET ""
#REQUEST "ticks_per_beat 480"
#00002: 4
#BPM01: 150
#00008: 01
#TIL00: "56'0:10000, 57'840:0.01, 57'870:0.2, 57'900:0.3, 57'930:0.4, 57'960:0.4, 57'990:0.6, 57'1020:0.7, 57'1050:0.8, 57'1080:0.9, 57'1110:1"
#VOLUME: ""
#HISPEED 00
#MEASUREHS 00
#00116:0000001400000014
#00118:00001300000000000013000000000000
#00115:00130000000000000000130000000000
#00112:23000000001400140000001300000000
#0011a:24000000000000000000000000140014
#0011b:00000013000000002300000000000000
#00212:14180000000014001313000000000000
#00216:00000000180000140000000000000000
#00218:00000000000000000000131300000000
#00215:00000000000000000000000013130000
#0021b:00000000000000000000000000001313
#0021a:00000014000000000000000000000000
#00315:00130000000000000000130000000000
#00318:00001300000000000013000000000000
#0031b:00000013000000002300000000000000
#00312:23000000001400140000001300000000
#00316:0000001400000000
#00319:00000000000000000000000000131300
#00314:00000000000000000000000000131300
#0041c:12120012
#00412:1212
#00414:0000001200120012
#00418:0012
#0041a:0000001200120012
#00416:00120012
#00512:12
#00514:00120012
#00516:2400000012000014
#00519:00001313000000000000130000000000
#0051b:0000001300000000
#0061a:00120012
#00618:0012
#00612:1200001300000000
#0061c:12
#00614:0013000000130000
#00616:0000000000000014
#00714:00120012
#00716:0000000012000014
#0071c:12
#00712:12
#00719:0013000000130000
#0071b:0000001300000000
#01618:001200000000000000160000
#01615:001200000000
#01614:001a
#01612:00000000000000000013001500170019
#01616:000000000000000012000000000000180000000000000000
#0161a:0000000000000014
#01613:000000000012000000000000
#0161b:22
#01619:00220000
#02916:00130013000000000000000000000000
#02912:2400001400140000
#02915:0000000000001313
#0291b:0013000000000000
#0291a:24000000140000000000001400000000
#02917:00000000000000130013000000000000
#02914:0000000000000000000000000000000000000000000000000000000000000000000000000000000000000000000000000000000000000000000000000000000013000000000000000000000000000000000000000000000000000000000000000053000000000000000000000000000000000000000000000000000000000000
#02918:00000000000000000000000000000000005400000000000000000000000000000000000000000000000000000000000000000000130000000000000013000000
#02919:0000000000000000000000000000000000000000000000000000000000000000005400000000000000000000000000000000000000000000000000000000000000000000000000000000000000000000000000000000000000000000000000000000000000000000000000000000000000000000000000000000000000000000
#02913:00000000000000000000000000000000000000000000000000000000000000000000000000000000000000000000000000530000000000000000000000000000
#03015:00000000000000000013001300000000
#03018:00001313
#0301a:14000000000000000000000014000000000000000000000024000000000000000000000000000000000000000000000000530000000000000000000014000000
#03012:24000025000026000000000000140000
#03016:00005400005400000000000000001400
#03014:0000000000000000000000000000000000000000000000000000000000000000000000000000000000000000000000000000000000000000000000000000000000000000000000000053000000000000000000000000000000000000000000000000000000000000000000000000000000000000000000000000000000000000
#03013:00000000000000000000000000000000000000000000000000000000000000000000000000530000000000000000000000000000000000000000000000000000
#03019:0000000000000000000000000000000000000000000000000000000000000000000000000000000000000000000000000000000000000000000000000000000000000000000000000000000000000000000000000000000000000000000000000053000000000000000000000000000000000000000000000000000000000000
#0321b:13000000001300001300530000000000
#03212:0013000013130000
#03216:13000014000014000000000000000000
#03215:0000000000002323
#03218:00000000000000000000000000230023
#03219:0000000000000000000000000000000000530053000000000000000000000000
#03217:00000000000000000053000000000000
#03716:00000013000000001300000000001300
#03712:24000000000000000000000000000000000000000000000013000000000000000053000000000000000000000000000000000000000000000000000000000000
#03717:13000000000013000000001300000000
#0371b:0000000000000013
#0371a:0013000024000000
#03713:0000000000130000
#03714:0000000000000000000000000000000000000000000000000000000000000000000000000000000000000000000000000000000000000000000000000000000000530000000000000000000000000000000000000000000000000000000000000000000000000000000000000000000000000000000000000000000000000000
#03812:1313000014140000
#03817:00000000130000000000000013000000000000000000000000000000000000000053000000000000000000000000000000000000000000000000000000000000
#0381b:00000000001300000000000000000000
#0381a:0000000014140000
#03818:0000000000001313
#03816:0000001300000000
#03815:00000000000000000000000000130013
#03819:0000000000000000000000000000000000000000000000000000000000000000000000000000000000000000000000000000000000000000000000000000000000530000000000000000000000000000000000000000000000000000000000000000000000000000000000000000000000000000000000000000000000000000
#0391b:00000013000000001300000000000000
#03917:0000001300000000
#03916:0013
#03912:00000000000000000000000000000000000000000000000000000000000000000053000000000000000000001300000000000000000000001300000000000000
#0391a:24
#03914:0000000000000000000000000000000000000000000000000000000000000000000000000000000000000000000000000000000000000000000000000000000000530000000000000000000000000000000000000000000000000000000000000000000000000000000000000000000000000000000000000000000000000000
#04018:00000000000000000000000000120000
#04013:22
#04017:00220000
#0401b:0022
#04016:00000022
#05316:0014000000140014
#05315:0000001300000000
#05318:00000000000000130000000000000000
#0531a:24141414
#05312:24242424
#0691b:00130013
#06912:1313
#06917:22222222
#0701c:1212000000000000
#0701a:00000000000000520000000000000000
#07017:00000000000000005200000000000052
#00818:00120012001200120000000000000000
#00816:0012121200000000
#00813:0012
#00812:14
#0081a:14
#00912:1300001313000000
#00916:24141414
#00915:00001212000000000000000000000000
#00919:0000000000130000
#00914:0000000000000013
#0091b:00000013
#00910:41
#01016:14141414
#0101b:1300000000130000
#01019:0013000000000000
#01012:00000013
#01014:0000000000000013
#01116:14141414
#01119:0013001300000000
#0111b:00130052
#01114:0000000000000013
#01216:14141400
#0121b:1313
#01212:00130000
#01217:0012001200000000
#01316:00140014000000000013001300141400
#01319:0013000000000000
#01315:00000000001300000000000000000000
#01318:0000001300140000
#01312:24000000000000130000000000000014
#0131a:24242424
#01415:00160000260000130000000000000000
#01418:2600001300000000
#0141b:00001353
#01412:00000016000000000000000013555755
#01419:00000000000000000055005500000000
#01417:0000000000570000
#0151b:13000000000000000000001300000000
#01518:00130000000000000000130000000000
#01515:00001300000000000013000000000000
#01512:53000013000014001300000024000014
#01516:00000000001400000000000000140000
#0151a:00000000240000140000000000001400
#02014:180015181500130013000000
#02017:001500000015000000000000
#02018:000000000000000000000000001300000013000000130000
#02015:000000000000001300000000
#02019:0000000000000000000000000000000000000000000000000000000000000000005400000000000000000000000000000000000000000000000000000000000000000000000000000000000000000000130000000000000000000000000000000000000000000000000000000000000000000000000000000000000000000000
#02013:0054000000000000000000000000000000000000000000000000000000000000000000000000000000000000000000000000000000000000000000000000000000000000000000000000000000000000000000000000000000000000000000000000000000000000000000000000000000000000000000000000000000000000
#02012:00540000000000000000000000000000000000000000000000000000000000000000000000000000000000000000000000000000000000000000000000000000
#0201a:00000000000000000000000000000000005400000000000000000000000000000000000000000000000000000000000000000000000000000000000000000000
#01718:2616000000000013
#01716:00140014000014000014001400000000
#01712:00000000001400002600160013000000
#0171a:00000000000000140000000000000000
#01715:00000000000000000000000000130000
#0171b:00000000000000000000000000000013
#01710:41
#01812:24180000000013000013000000000000
#0181a:00000014000000000000000000000000
#0181b:00000000000000130000001300000000
#01815:00000000000000000000000000130000
#01818:00000000000000000000000000000013
#01813:00002424
#01819:0000000000240024
#01816:00280000
#01912:13000000000000001300001300000000
#01915:00130013001300000000130000001300
#01918:00001300000013000013000000130000
#0191b:00000000130000130000000013000013
#02112:1313
#02115:00130053
#0211c:2262
#02113:000000000000005300000000
#02114:000053
#0211b:006200000062006200000062
#0211a:006262006262
#02119:00620062
#02318:00130053
#0231b:0013
#02312:2262
#0231a:000000000000005300000053
#02319:000000005353
#0231c:62
#02313:006200000062006200000062
#02314:006262006262
#02315:00620062
#0241a:001400000000
#02419:001500
#02418:0016
#0241b:53
#02412:6262
#02413:006200000062006200000062
#02414:006262006262
#02415:00620062
#02515:00130053
#02512:6313
#02519:2262
#02510:41
#02513:000000000000005300000000
#02514:000053
#0251a:006200000062006200000062
#0251b:006262006262
#0251c:00620062
#0261b:00130053
#02618:6313
#02615:2262
#02619:000000000000005300000000
#0261a:000053
#02614:006200000062006200000062
#02613:006262006262
#02612:00620062
#02713:00120000
#0271b:00000012
#02717:22222222
#02715:62000000000000000000000000000000000000000000000000000000000000000000000000000000000000000000000000620000000000000000000000000000
#02718:0000000000000000000000000000000000000000000000000000000000000000006200000000000000000000000000000000000000000000000000000000000000000000000000000000000000000000000000000000000000000000000000000000000000000000000000000000000000000000000000000000000000000000
#02719:00000000000000000000000000000000006200000000000000000000000000000000000000000000000000000000000000000000000000000000000000000000
#02716:0000000000000000000000000000000000000000000000000000000000000000000000000000000000000000000000000000000000000000000000000000000000000000000000000000000000000000000000000000000000000000000000000062000000000000000000000000000000000000000000000000000000000000
#03117:0000000000000013
#03116:0000001400001300
#0311b:0013000013001300
#03112:13000000000000140000130000001300
#03115:0000000000000000000000000000000000000000000000000000000000000000130000000000000000000000000000000000000000000000000000000000000000000000000000000000000000000000000000000000000000000000000000000053000000000000000000000000000000000000000000000000000000000000
#0311a:00000000001400000000000000000000
#03114:0000000000000000000000000000000000000000000000000000000000000000005300000000000000000000000000000000000000000000000000000000000000000000000000000000000000000000000000000000000000000000000000000000530000000000000000000000000000000000000000000000000000000000
#03113:00000000000000000000000000000000005300000000000000000000000000000000000000000000000000000000000000000000000000000000000000000000
#03118:0000000000000000000000000000000000000000000000000000000000000000000000000000000000000000000000000000000000000000000000000000000000000000000000000000000000000000000000000000000000000000000000000000000000000000000000000000000000530000000000000000000000000000
#03119:00000000000000000000000000000000000000000000000000000000000000000000000000000000000000000000000000000000000000000053000000000000
#03612:13000000001300000014002400000000
#03617:13
#0361b:0013000000000000
#03616:00000014000014000000140000140000
#0361a:0000000024001424
#04116:0000001400000014
#04112:24000016000000002400000000140014
#04115:00130000000000000000130000000000
#04118:00001300000000000013001600000000
#0411a:00000000001400140000000000000000
#0411b:23
#04110:41
#0421a:14000000000014001414000000000000
#04216:00180000000000140000000000000000
#04212:00000014180000000000000000001414
#04214:00000000000000000000141400000000
#04218:00000000000000000000000014140000
#04412:22120012
#0441a:0000001200120012
#04416:0012
#04414:0000001200120012
#04418:00120012
#0441c:2212
#04618:00000000000000001414141400000000
#04614:00000000000000000000000000000000006400000000000000000000000000000000000000000000000000000000000014000000140000001400000014000000
#04616:0024240000000000
#04612:0022620000000000
#04619:0000000000000000000000000000000000000000000000000000000000000000006300000000000000000000000000000000000000000000000000000000000000000000000000000000000000000000000000000000000000000000000000000000000000000000000000000000000000000000000000000000000000000000
#0461b:00000000000000000000000000000000006300000000000000000000000000000000000000000000000000000000000000000000000000000000000000000000
#04613:0000000000000000000000000000000000000000000000000000000000000000006300000000000000000000000000000000000000000000000000000000000000000000000000000000000000000000000000000000000000000000000000000000000000000000000000000000000000000000000000000000000000000000
#04816:0000000000001212
#04818:00000000000000000000000000000000006400000000000000000000000000000000000000000000000000000000000053000000120000000000000012000000
#04812:00000000000000000000000000000000006300000000000000000000000000001300000000000000000000000000000000000000000000000000000000000000
#0481b:0000000000130000
#04817:0025250000000000
#0481c:0022620000000000
#04813:000000000000000000000000005300000000000000000000
#04814:000000000000000000000000000000000000000000000000000000000000000000000000000000000000000000000000000000000000000000000000000000000000000000000000000000000000000000000000000000000000000000000000000000640000000000000000000000000000000000000000000000000000000000000000000000000000000000000000000000000000000000000000000000000000000000000000000000000000000000000000000000000000000000000000000000000000000000000000000000000000000000000000000000000000000053000000000000000000000000000000000000000000000000000000000000000000000000000000000000000000000000000000000000000000000000000000000000000000000000000000000000000000000000000000000000000000000000000000000000000000000000000000000000000000000000000000000000000000000000000000000000000000000000000000000000000000000000000000
#04815:0000000000530000
#0481a:000000000000000000000000000000000000000000000000000000000000000000000000000000000000000000000000000000000000000000000000000000000000000000000000000000000000000000000000000000000000000000000000000000630000000000000000000000000000000000000000000000000000000000000000000000000000000000000000000000000000000000000000000000000000000000000000000000000000000000000000000000000000000000000000000000000000000000000000000000000000000000000000000000000000000000000000000000000000000000000000000000000000000000000000000000005300000000000000000000000000000000000000000000000000000000000000000000000000000000000000000000000000000000000000000000000000000000000000000000000000000000000000000000000000000000000000000000000000000000000000000000000000000000000000000000000000000000000000
#04819:000000000000000000000000000000000053000000000000
#05416:0014000000140014
#05418:0000001300000000
#05415:00000000000000130000000000000000
#05412:24141414
#0541a:24242424
#05815:00150015000000000000000000130013
#05819:0000000000000000000000000000000000000000000000000000000000000000000000000000000000000000000000001500000000000000000000000000000000000000000000000000000000000000150000000000000000000000000000000053000000000000000000000000000000000000000000000000000000000000
#05818:0000000013001313
#05813:0000000000000000000000000000000013000000000000000000000000000000005400000000000000000000000000000000000000000000000000000000000000000000000000000000000000000000000000000000000000000000000000000000000000000000000000000000000000000000000000000000000000000000
#05812:24000000140000000000001400000000
#05816:00000000000000130013000000000000
#0581a:24000000000000000000000000000000000000000000000000000000000000000000000000000000000000000000000000530000000000000000000000000000
#0581f:21
#05814:00000000000000000000000000000000005400000000000000000000000000000000000000000000000000000000000000000000000000000000000000000000
#05917:00000027000000000000001500000000
#05914:00000000000000000015000013000000
#05919:0013
#05912:14000000000000000000000014000000000000000000000024000000000000000000000000540000000000000000000000530000000000000000000014000000
#0591a:00000000000000000000000000140000
#05916:00005600005628000000000000001400
#05918:26
#05910:41
#05913:0000000000000000000000000000000000000000000000000000000000000000000000000000000000000000000000000000000000000000000000000000000000000000000000000054000000000000000000000000000000000000000000000053000000000000000000000000000000000000000000000000000000000000
#06112:130000000000000000000000000000130000000000000000000000000000240000001400000000260000000000260000
#0611b:0013000000000000
#06115:00000016000000000000000000000000
#06114:0000001800000000
#06116:140000000000000000000000001400001400000000000000
#0611a:000000000000241400000000
#06118:0000000000002626
#06617:00000013000000000000000000001300
#0661a:14000000000000130000141400000000
#06616:13000000000013002400001300000000
#06613:00000000000000000000000000000013
#06612:00000000000000001400000014000000000000000000000000000000000000000053000000000000000000000000000000000000000000000000000000000000
#06614:0000000000000000000000000000000000000000000000000000000000000000000000000000000000000000000000000000000000000000000000000000000000530000000000000000000000000000000000000000000000000000000000000000000000000000000000000000000000000000000000000000000000000000
#0671b:1300000000131300
#06718:0000000000000000130000000000000000000000000000000000000000000000000000000000000000000000000000001400000000000000000000000000000000530000000000000000000000000000000000000000000000000000000000000000000000000000130000000000000000000000000000001300000000000000
#06712:00000013000000001300000013000000
#06716:0000000024140000
#06715:0013000000000013
#06714:00000000001400000000000000000000
#0671a:00000000000000000000000000000000000000000000000000000000000000000053000000000000000000000000000000000000000000000000000000000000
#06812:14000000000000000000000013000000000000000000000000000000000000000053000000000000000000001300000000000000000000001300000000000000
#06816:0000001324000000
#0681b:0013
#06814:0000000000000000000000000000000000000000000000000000000000000000000000000000000000000000000000000000000000000000000000000000000000530000000000000000000000000000000000000000000000000000000000000000000000000000000000000000000000000000000000000000000000000000
#06016:0000001400001414
#06012:00001300001400001400000013000000
#0601a:14000000000000000000000000000000000000000000000000000000140000000000000000000000000000000000000000530000000000000000000000000000
#06019:00130000
#0601b:0000000000130013
#06018:0000000000000000000000000000000000000000000000000000000000000000000000000000000000000000000000000000000000000000000000000000000000000000000000000000000000000000000000000000000000000000000000000053000000000000000000000000000000000000000000000000000000000000
#06015:0000000000000000000000000000000000000000000000000000000000000000000000000000000000000000000000000000000000000000000000000000000000000000000000000000000000000000000000000000000000000000000000000000000000000000000000000000000000530000000000000000000000000000
#06013:00000000000000000000000000000000000000000000000000000000000000000000000000000000000000000000000000000000000000000053000000000000
#06512:00001300000000000014002800000000
#06516:14000000000000002800140000142800
#0651a:00000014
#0651b:13000000001300000000000000000000
#06515:00000016000000000000000000000000
#06514:0000001800000000
#06216:00150015000000000000000000000000
#0621a:00001300140000000000001400000000
#06212:0000001500150000
#06215:0000000013001313
#06217:00000000000000130013000000000000
#06218:26000000000000000000000000000000005400000000000000000000000000000000000000000000000000000000000000000000130000000000000013000000
#06219:0000000000000000000000000000000000000000000000000000000000000000005400000000000000000000000000000000000000000000000000000000000000000000000000000000000000000000000000000000000000000000000000000000000000000000000000000000000000000000000000000000000000000000
#06214:0000000000000000000000000000000000000000000000000000000000000000000000000000000000000000000000000000000000000000000000000000000000000000000000000000000000000000000000000000000000000000000000000053000000000000000000000000000000000000000000000000000000000000
#06213:00000000000000000000000000000000000000000000000000000000000000000000000000000000000000000000000000530000000000000000000000000000
#07113:0012
#07114:52
#07212:12
#07213:0012
#04314:00000000000000000000000000140014
#04318:00001300000000000013001600001400
#04316:0000001400000000
#04315:00130000000000000000130000000000
#04312:00000016000000002400000000000000
#0431a:24000000001400140000000000000000
#02215:1313
#02212:00130053
#02214:000000000000005300000000
#02213:000053
#0221c:6262
#0221b:006200000062006200000062
#0221a:006262006262
#02219:00620062
#03317:00130013000000000000000000000000
#0331a:00000000000000000000000000000000000000000000000014000000000000000000000000000000140000000000000000530000000000000000000000000000
#03318:0000000000001313
#03312:24001300140000000000001400000000
#03316:00000000000000130013000000000000
#03319:0000000000000000000000000000000000000000000000000000000000000000000000000000000000000000000000000000000000000000000000000000000013000000000000000000000000000000000000000000000000000000000000000053000000000000000000000000000000000000000000000000000000000000
#03315:00000000000000000000000000130013
#03310:41
#03313:0000000000000000000000000000000000000000000000000000000000000000005400000000000000000000000000000000000000000000000000000000000000000000000000000000000000000000000000000000000000000000000000000000000000000000000000000000000000000000000000000000000000000000
#03314:00000000000000000000000000000000005400000000000000000000000000000000000000000000000000000000000000000000000000000000000000000000
#03516:0000001400000013
#03517:00000013
#03512:00001300001400001300000013000000
#0351b:1300000000130013
#03518:0000000000000000000000000000000000000000000000000000000000000000130000000000000000000000000000000000000000000000000000000000000000000000000000000000000000000000000000000000000000000000000000000053000000000000000000000000000000000000000000000000000000000000
#0351a:00000000000000000000000000000000005300000000000000000000140000000000000000000000000000000000000000000000000000000000000000000000
#03519:0000000000000000000000000000000000000000000000000000000000000000005300000000000000000000000000000000000000000000000000000000000000000000000000000000000000000000000000000000000000000000000000000000530000000000000000000000000000000000000000000000000000000000
#03515:0000000000000000000000000000000000000000000000000000000000000000000000000000000000000000000000000000000000000000000000000000000000000000000000000000000000000000000000000000000000000000000000000000000000000000000000000000000000530000000000000000000000000000
#03514:00000000000000000000000000000000000000000000000000000000000000000000000000000000000000000000000000000000000000000053000000000000
#0341a:24000000000000000000000000140000
#03416:00005400005400000000000000001400
#03412:14000014000024000000000000000014
#03418:00000000000026000013001300000000
#03415:00001313
#03419:00000025000000000000000000000000
#03414:0000000000000000000000000000000000000000000000000000000000000000000000000000000000000000000000000000000000000000000000000000000000000000000000000000000000000000000000000000000000000000000000000053000000000000000000000000000000000000000000000000000000000000
#03413:00000000000000000000000000000000000000000000000000000000000000000000000000000000000000000000000000530000000000000000000000000000
#06314:00005600005600001300001500000000
#06319:00000013
#06317:00000000000000000015000000000000
#06312:26000027000028000000000000140000
#06316:0000000000000014
#0631a:1400000000000000000000000000000000000000000000001400000000000000000000000000000000000000000000002400000000000000000000000000000000000000000000000000000000000000000000000000000000000000000000000053000000000000000000000000000000000000000000001400000000000000
#0631b:00000000000000000000000000000000000000000000000000000000000000000000000000000000000000000000000000530000000000000000000000000000
#06416:0000001400001414
#0641b:0013000000001300
#06412:14000000000000140000130000001300
#06414:00130000
#0641a:00000000000000000000000000000000000000001400000000000000000000001400000000000000000000000000000000000000000000000053000000000000
#06415:0000000000000000000000000000000000000000000000000000000000000000000000000000000000000000000000000000000000000000000000000000000000000000000000000000000000000000000000000000000000000000000000000053000000000000000000000000000000000000000000000000000000000000
#06413:00000000000000000000000000000000000000000000000000000000000000000000000000000000000000000000000000530000000000000000000000000000
#06418:0000000000000000000000000000000000000000000000000000000000000000000000000000000000000000000000000000000000000000000000000000000000000000000000000000000000000000000000000000000000000000000000000000000000000000000000000000000000530000000000000000000000000000
#0491f:11
#04917:00000000000000220000620000006200
#0491a:6200000000620000
#04918:0062000000000000
#04916:00620000
#04914:0000006200000000
#04915:00000062
#02817:22
#04516:2424002424002424
#0451c:2262000000002262
#04512:00000000000000000000000000000000000000000000000022000000000000006200000000000000000000000000000000000000000000000063000000000000
#04515:0000000000000000000000000000000000630000000000000000000000000000000000000000000000000000000000000000000000000000000000000000000000000000000000000000000000000000000000000000000000000000000000000000000000000000000000000000000000000000000000000000000000000000
#04514:0000000000000000000000000000000000006200000000000000000000000000000000000000000000000000000000000000000000000000000000000000000000006200000000000000000000000000000000000000000000000000000000000000000000000000000000000000000000630000000000000000000000000000
#0451b:0000000000000000000000000000000000620000000000000000000000000000000000000000000000000000000000000000000000000000000000000000000000000000000000000000000000000000000000000000000000000000000000000000000000000000000000000000000000000000000000000000000000000000
#0451a:0000000000000000000000000000000000006200000000000000000000000000000000000000000000000000000000000000000000000000000000000000000000006200000000000000000000000000000000000000000000000000000000000000000000000000000000000000000000630000000000000000000000000000
#04518:0000000000000000000000000000000000000000000000000000000000000000000000000000000000000000000000000000000000000000000000000000000000630000000000000000000000000000000000000000000000000000000000000000000000000000000000000000000000006400000000000000000000000000
#04513:0000000000000000000000000000000000000000000000000000000000000000000000000000000000000000000000000000000000000000000000000000000000620000000000000000000000000000000000000000000000000000000000000000000000000000000000000000000000000000000000000000000000000000
#0551a:24245424
#05512:24540000
#05516:00002454
#05513:005400000054000000000000000000540000000000000000
#05514:005454000000005454000000
#05515:000000540000000000000000005400000054000000000000
#05519:000000000000005400000054000000000000000000000000
#05518:000000005454000000000000
#05517:0000005400000000
#04715:2525000000000000
#04712:22000000000000006200000000000000000000000000000000000000000000000063000000000000000000000000000022000000000000006200000000000000
#04716:0000002525000000
#0471c:0000002262000000
#04714:0000000000000000000000000000000000006400000000000000000000000000000000000000000000000000000000000000000000000000000000000000000000640000000000000000000000000000000000000000000000000000000000002500000000000000000000000000000025006400000000000000000000000000
#04718:0000000000000000000000000000000000640000000000000000000000000000000000000000000000000000000000000000000000000000000000000000000000006400000000000000000000000000000000000000000000000000000000000000000000000000000000000000000000640000000000000000000000000000
#0471b:00000000000000000063000000000000000000000000000000000000000000000000000000000000000000000000000000000000000000000063000000000000
#04713:0000000000000000000000000000000000630000000000000000000000000000000000000000000000000000000000000000000000000000000000000000000000000000000000000000000000000000000000000000000000000000000000000000000000000000000000000000000000630000000000000000000000000000
#0471a:0000000000000000000000000000000000000000000000000000000000000000000000000000000000000000000000000000000000000000000000000000000000630000000000000000000000000000000000000000000000000000000000000000000000000000000000000000000000000000000000000000000000000000
#05017:00006200000000220000620000000000
#05014:0000000000620000
#05015:00620000
#05019:62000062
#0501a:0000006200000000
#0501b:0000000000000062
#05114:62000000000000220000000000000000
#05117:0000000000620062
#05116:0062000000000000
#05118:00620000
#0511a:0000006200000000
#0511b:0000000000620000
#05119:00000062
#05612:2c7c00000000000000000000000000000000000000000000000000000000000000000000000000000000000000000000000000000000000000000000000000000000000000000000000000000000000000000000000000000000000000000000000000000000000000000000000000000000000000000000000000000000000000000000000000000000000000000000000000000000000000000000000000000000000000000000000000000000000000000000000000000000000000000000000000000000000000000000000000000000000000000000000000000000000000000000000000000000000000000000000000000000000000000000000000000000000000000000000000000000000000000000000000000000000000000000000000000000000000000000000000000000000000000000000000000000000000000000000000000000000000000000000000000000000000000000000000000000000000000000000000000000000000000000000000000000000000000000000000000000000000000000000000000000000000000000000000000000000000000000000000000000000000000000000000000000000000000000000000000000000000000000000000000000000000000000000000000000000000000000000000000000000000000000000000000000000000000000000000000000000000000000000000000000000000000000000000000000000000000000000000000000000000000000000000000000000000000000000000000000000000000000000000000000000000000000000000000000000000000000000000000000000000000000000000000000000000000000000000000000000000000000000000000000000000000000000000000000000000000000000000000000000000000000000000000000000000000000000000000000000000000000000000000000000000000000000000000000000000000000000000000000000000000000000000000000000000000000000000000000000000000000000000000000000000000000000000000000000000000000000000000000000000000000000000000000000000000000000000000000000000000000000000000000000000000000000000000000000000000000000000000000000000000000000000000000000000000000000000000000000000000000000000000000000000000000000000000000000000000000000000000000000000000000000000000000000000000000000000000000000000000000000000000000000000000000000000000000000000000000000000000000000000000000000000000000000000000000000000000000000000000000000000000000000000000000000000000000000000000000000000000000000000000000000000000000000000000000000000000000000000000000000000000000000000000000000000000000000000000000000000000000000000000000000000000000000000000000000000000000000000000000000000000000000000000000000000000000000000000000000000000000000000000000000000000000000000000000000000000000000000000000000000000000000000000000000000000000000000000000000000000000000000000000000000000000000000000000000000000000000000000000000000000000000000000000000000000000000000000000000000000000000000000000000000000000000000000000000000000000000000000000000000000000000000000000000000000000000000000000000000000000000000000000000000000000000000000000000000000000000000000000000000000000000000000000000000000000000000000000000000000000000000000000000000000000000000000000000000000000000000000000000000000000000000000000000000000000000000000000000000000000000000000000000000000000000000000000000000000000000000000000000000000000000000000000000000000000000000000000000000000000000000000000000000000000000000000000000000000000000000000000000000000000000000000000000000000000000000000000000000000000000000000000000000000000000000000000000000000000000000000000000000000000000000000000000000000000000000000000000000000000000000000000000000000000000000000000000000000000000000000000000000000000000000000000000000000000000000000000000000000000000000000000000000000000000000000000000000000000000000000000000000000000000000000000000000000000000000000000000000000000000000000000000000000000000000000000000000000000000000000000000000000000000000000000000000000000000000000000000000000000000000000000000000000000000000000000000000000000000000000000000000000000000000000000000000000000000000000000000000000000000000000000000000000000000000000000000000000000000000000000000000000000000000000000000000000000000000000000
#05215:62000000000000620000000000000000
#0521c:0062000000000000
#05217:00000062000000000000000062000000
#0521b:00620000
#05216:00000000006200000000000000006200
#0521a:0000006200000000
#05219:0062
#05218:0000000000620000
#07317:62
#0045c:12
#00452:12
#0325b:13
#03256:00000044000034000000000000000000
#0395b:0053
#05352:14
#0545a:14
#00252:00480000000000000000000000000000
#00256:00380000
#01052:0013
#01252:00130000
#0125b:1313
#01756:00000014000000000000000000000000
#01852:00480000000000000000000000000000
#01856:00380000
#02252:00130013
#02255:13
#02155:00130013
#02152:13
#0245b:13
#02458:0016
#0245a:001400000000
#02459:001500
#02555:00130013
#02552:13
#0265b:00130013
#02658:13
#0305a:54000054000000000000000000000000
#03052:14000015000016000000000000000000
#0315b:0013000063000000
#03152:5300000000130000
#03156:0013000000000000
#03157:0000000000130000
#03652:13
#03656:00000034000044000000000000000000
#04056:14
#04256:00380000000000000000000000000000
#04252:00480000
#04957:00000000000000520000000000000000
#05154:00000000000000520000000000000000
#06152:13
#06155:00000036000000000000000000000000
#06154:0000004800000000
#0685b:0053
#05952:64000064000000000000000000000000
#05958:46
#05957:00000047000000000000000000000000
#05956:0000004800000000
#06052:0013000054000000
#0605a:64
#06056:0014000000140000
#06059:00430000
#0605b:0000000000130000
#0655b:13
#06555:00000046000000000000000000000000
#06554:0000003800000000
#06556:0000000048000048
#06552:00000000000000000000003800000000
#07253:0052
#0145b:00001313
#01459:00000000000000000015001500000000
#01457:0000000000170000
#01452:00000000000000000000000013151715
#01455:00360000460000000000000000000000
#01552:13
#00853:0012
#02055:0000000000000013
#02058:0000000000000013
#03552:0013000053000000
#0355b:6300000000130000
#03557:0013000000000000
#03556:0000000000130000
#04152:00000016000000000000000000000000
#04158:00000000000000000000001600000000
#04352:00000016000000000000000000000000
#04358:00000000000000000000001600000000
#0645b:0013000000000000
#06452:5400000000130000
#06454:00330000
#0645a:0064
#06456:0014000000140000
#06957:12121212
#03452:64000064000000000000000000000000
#0345a:14
#03459:00000015000000000000000000000000
#03458:0000001600000000
#0635a:54000054000000000000000000000000
#06352:36000037000038000000000000000000
#05057:00000000000000520000000000000000
#010320:00132300
#0113b0:00001222
#020350:0000000000001323
#0303a0:14
#030360:0024000000000000
#0303a0:00000014000000000000000000000000
#030360:00000000002400000000000000000000
#031320:13
#031360:0023000000000000
#0313b0:0013
#031370:0000000000230000
#034320:14
#034360:0024000000000000
#034320:00000014000000000000000000000000
#034360:00000000002400000000000000000000
#0353b0:13
#035370:0023000000000000
#035320:0013
#035360:0000000000230000
#039320:1400002400000000
#039360:00000034000000000000000000000000
#0393b0:0013
#039360:0000000000543400
#040360:24
#0453c0:1222000000000000
#045320:0000001222000000
#0453c0:0000000000001222
#046320:0012220000000000
#047320:1222000000000000
#0473c0:0000001222000000
#047320:0000000000001222
#0483c0:0012220000000000
#049370:00000000000000120000000000000000
#0493a0:0000000000220000
#050370:00000000000000120000000000000000
#050340:0000000000220000
#051340:00000000000000120000000000000000
#051370:0000000000220000
#056320:1c2c00000000000000000000000000000000000000000000000000000000000000000000000000000000000000000000000000000000000000000000000000000000000000000000000000000000000000000000000000000000000000000000000000000000000000000000000000000000000000000000000000000000000000000000000000000000000000000000000000000000000000000000000000000000000000000000000000000000000000000000000000000000000000000000000000000000000000000000000000000000000000000000000000000000000000000000000000000000000000000000000000000000000000000000000000000000000000000000000000000000000000000000000000000000000000000000000000000000000000000000000000000000000000000000000000000000000000000000000000000000000000000000000000000000000000000000000000000000000000000000000000000000000000000000000000000000000000000000000000000000000000000000000000000000000000000000000000000000000000000000000000000000000000000000000000000000000000000000000000000000000000000000000000000000000000000000000000000000000000000000000000000000000000000000000000000000000000000000000000000000000000000000000000000000000000000000000000000000000000000000000000000000000000000000000000000000000000000000000000000000000000000000000000000000000000000000000000000000000000000000000000000000000000000000000000000000000000000000000000000000000000000000000000000000000000000000000000000000000000000000000000000000000000000000000000000000000000000000000000000000000000000000000000000000000000000000000000000000000000000000000000000000000000000000000000000000000000000000000000000000000000000000000000000000000000000000000000000000000000000000000000000000000000000000000000000000000000000000000000000000000000000000000000000000000000000000000000000000000000000000000000000000000000000000000000000000000000000000000000000000000000000000000000000000000000000000000000000000000000000000000000000000000000000000000000000000000000000000000000000000000000000000000000000000000000000000000000000000000000000000000000000000000000000000000000000000000000000000000000000000000000000000000000000000000000000000000000000000000000000000000000000000000000000000000000000000000000000000000000000000000000000000000000000000000000000000000000000000000000000000000000000000000000000000000000000000000000000000000000000000000000000000000000000000000000000000000000000000000000000000000000000000000000000000000000000000000000000000000000000000000000000000000000000000000000000000000000000000000000000000000000000000000000000000000000000000000000000000000000000000000000000000000000000000000000000000000000000000000000000000000000000000000000000000000000000000000000000000000000000000000000000000000000000000000000000000000000000000000000000000000000000000000000000000000000000000000000000000000000000000000000000000000000000000000000000000000000000000000000000000000000000000000000000000000000000000000000000000000000000000000000000000000000000000000000000000000000000000000000000000000000000000000000000000000000000000000000000000000000000000000000000000000000000000000000000000000000000000000000000000000000000000000000000000000000000000000000000000000000000000000000000000000000000000000000000000000000000000000000000000000000000000000000000000000000000000000000000000000000000000000000000000000000000000000000000000000000000000000000000000000000000000000000000000000000000000000000000000000000000000000000000000000000000000000000000000000000000000000000000000000000000000000000000000000000000000000000000000000000000000000000000000000000000000000000000000000000000000000000000000000000000000000000000000000000000000000000000000000000000000000000000000000000000000000000000000000000000000000000000000000000000000000000000000000000000000000000000000000000000000000000000000000000000000000000000000000000000000000000000000000000000000000000000000000000000000000000000000000000000000000000000000000000000000000000000000000000000000000000000000
#059320:14
#059360:0026000000000000
#059320:00000014000000000000000000000000
#059360:00000000002600000000000000000000
#0603a0:14
#060360:0024000000000000
#060320:0014
#060360:0000000000240000
#0633a0:14
#063340:0026000000000000
#0633a0:00000014000000000000000000000000
#063340:00000000002600000000000000000000
#064320:14
#064360:0024000000000000
#0643a0:0014
#064360:0000000000240000
#0683a0:1400002400000000
#068360:00000034000000000000000000000000
#0683b0:0013
#068360:0000000000543400
#068370:000000000000000000000000000000000000000000000000000000000000000000000000000000000000000000000000000000000000000000000000000000000000000000000000000000000000000000000000000000000000000000000000000000000000000000000000000000000000000000000000000000000000000000000000000000000000000000000000000000000000000000000000000000000000000000000000000000000000000000000000000000000000000000000000000000000000000000000000000000000000000000000000000000000000000000000000000000000000000000000000000000000000000000000000000000000000000000000000000000000000000000000000000000000000000000000000000000000000000000000000000000000000000000000000000000000000000000000000000000000000000000000000000000000000000000000000000000000000000000000000000000000000000000000000000000000000000000000000000000000000000000000000000000000000000000000000000000000000000000000000000000000000000000000000000000000000000000000000000000000000000000000000000000000000000000000000000000000000000000000000000000000000000000000000000000000000000000000000000000000000000000000000000000000000000000000000000000000000000000000000000000000000000000000000000000000000000000000000000000000000000000000000000000000000000000000000000000000000000000000000000000000000000000000000000000000000000000000000000000000000000000000000000000000000000000000000000000000000000000000000000000000000000000000000000000000000000000000000000000000000000000000000000000000000000000000000000000000000000000000000005200000000000000000000000000000000000000000000000000000000000000000000000000000000000000000000000000000000000000000000000000000000000000000000000000000000000000000000000000000000000000000000000000000000000000000000000000000000000000000000000000000000000000000000000000000000000000000000000000000000000000000000000000000000000000000000000000000000000000000000000000000000000000000000000000000000000000000000000000000000000000000000000000000000000000000000000000000000000000000000
#069370:22
#070370:12000052000000003200005200000000000000000000000000000000000000000000000000000000000000000000000000000000000000000000000000000000
#070380:00520000000000000052000000000000000000000000000000000000000000000000000000000000000000000000000000000000000000000000000000000000
#070360:0052000000520000000000000000000000000000000000000000000000000000
#071370:32000052000000003200005200000000000000000000000000000000000000000000000000000000000000000000000000000000000000000000000000000000
#071380:00520000000000000052000000000000000000000000000000000000000000000000000000000000000000000000000000000000000000000000000000000000
#071360:0052000000520000000000000000000000000000000000000000000000000000
#072370:32000052000000003200005200000000000000000000000000000000000000000000000000000000000000000000000000000000000000000000000000000000
#072380:00520000000000000052000000000000000000000000000000000000000000000000000000000000000000000000000000000000000000000000000000000000
#072360:0052000000520000000000000000000000000000000000000000000000000000
#073370:22
#0119a0:000000000000000000000000000000000000000000000000000000000000000000000000000000000000000000000000000000000000000000000000000000000000000000000000000000000000000000000000000000000000000000000000000000000000000000000000000000000000000000000000000000000000000000000000000000000000000000000000000000000000000000000000000000000000000000000000000000000000000000000000000000000000000000000000000000000000000000000000000000000000000000000000000000000000000000000000000000000000000000000000000000000000000000000000000000000000000000000000000000000000000000000000000000000000000000000000000000000000000000000000000000000000000000000000000000000000000000000000000000000000000000000000000000000000000000000000000000000000000000000000000000000000000000000000000000000000000000000000000000000000000000000000000000000000000000000000000000000000000000000000000000000000000000000000000000000000000000000000000000000000000000000000000000000000000000000000000000000000000000000000000000000000000000000000000000000000000000000000000000000000000000000000000000000000000000000000000000000000000000000000000000000000000000000000000000000000000000000000000000000000000000000000000000000000000000000000000000000000000000000000000000000000000000000000000000000000000000000000000000000000000000000000000000000000000000000000000000000000000000000000000000000000000000000000000000000000000000000000000000000000000000000000000000000000000000000000000000000000000000000000000000000000000000000000000000000000000000000000000000000000000000000000000000000000000000000000000000000000000000000000000000000000000000000000000000000000000000000000000000000000000000000000000000000000000000000000000000000000000000000000000000000000000000000000000000000000000000000000000000000000000000000000000000000000000000000000000000000000000000000000000000000000000000000000000000000000000000000000000000000000000000000000000000000000000000000000000000000000000000000000110000000000000000000000000000000000000000000000000000000000000000000000000000000000000000000000000000000000000000000000000000000000000000000000000000000000000000000000000000000000000000000000000000000000000000000000000000000000000000000000510000000000000000000000000000000000000000000000000000000000000000000000000000000000000000000000000000000000000000000000000000000000000000000000000000000000000000000000000000000000000000000000000000000000000000000000000000000000000000000000510000000000000000000000000000000000000000000000000000000000000000000000000000000000000000000000000000000000000000000000000000000000000000000000000000000000000000000000000000000000000000000000000000000000000000000000000000000000000000000000510000000000000000000000000000000000000000000000000000000000000000000000000000000000000000000000000000000000000000000000000000000000000000000000000000000000000000000000000000000000000000000000000000000000000000000000000000000000000051515151210000000000000000000000000000000000000000000000000000000000000000000000000000000000000000000000000000000000000000000000000000000000000000000000000000000000000000000000000000000000000000000000000000000000000000000000000000000000000000000000000000000000000000000000000000000000000000000000000000000000000000000000000000000000000000000000000000000000000000000000000000000000000000000000000000000000000000000000000000000000000000000000000000000000000000000000000000000000000000000000000000000000000000000000000000000000000000000000000000000000000000000000000000000000000000000000000000000000000000000000000000000000000000000000000000000000000000000000000000000000000000000000000000000000000000000000000000000000000000000000000000000000000000000000000000000000000000000000000000000000000000000000000000000000000000000000000000000000000000000000000000000000000000000000000000000000000000000000000000000000000000000000000000000000000000000000000000000000000000000000
#0119d0:0000000000000000000000000000000000510051005100510000000000000000
#0119d1:000000000000000000000000000000000000000000000000000000000000000000000000000000000000000000000000000000000000000000000000000000000000000000000000000000000000000000000000000000000000000000000000000000000000000000000000000000000000000000000000000000000000000000000000000000000000000000000000000000000000000000000000000000000000000000000000000000000000000000000000000000000000000000000000000000000000000000000000000000000000000000000000000000000000000000000000000000000000000000000000000000000000000000000000000000000000000000000000000000000000000000000000000000000000000000000000000000000000000000000000000000000000000000000000000000000000000000000000000000000000000000000000000000000000000000000000000000000000000000000000000000000000000000000000000000000000000000000000000000000000000000000000000000000000000000000000000000000000000000000000000000000000000000000000000000000000000000000000000000000000000000000000000000000000000000000000000000000000000000000000000000000000000000000000000000000000000000000000000000000000000000000000000000000000000000000000000000000000000000000000000000000000000000000000000000000000000000000000000000000000000000000000000000000000000000000000000000000000000000000000000000000000000000000000000000000000000000000000000000000000000000000000000000000000000000000000000000000000000000000000000000000000000000000000000000000000000000000000000000000000000000000000000000000000000000000000000000000000000000000000000000000000000000000000000000000000000000000000000000000000000000000000000000000000000000000000000000000000000000000000000000000000000000000000000000000000000000000000000000000000000000000000000000000000000000000000000000000000000000000000000000000000000000000000000000000000000000000000000000000000000000000000000000000000000000000000000000000000000000000000000000000000000000000000000000000000000000000000000000000000000000000000000000000000000000000000000000000000000000000000110000000000000000000000000000000000000000000000000000000000000000000000000000000000000000000000000000000000000000000000000000000000000000000000000000000000000000000000000000000000000000000000000000000000000000000000000000000000000000000000510000000000000000000000000000000000000000000000000000000000000000000000000000000000000000000000000000000000000000000000000000000000000000000000000000000000000000000000000000000000000000000000000000000000000000000000000000000000000000000000510000000000000000000000000000000000000000000000000000000000000000000000000000000000000000000000000000000000000000000000000000000000000000000000000000000000000000000000000000000000000000000000000000000000000000000000000000000000000000000000510000000000000000000000000000000000000000000000000000000000000000000000000000000000000000000000000000000000000000000000000000000000000000000000000000000000000000000000000000000000000000000000000000000000000000000000000000000000000051515151210000000000000000000000000000000000000000000000000000000000000000000000000000000000000000000000000000000000000000000000000000000000000000000000000000000000000000000000000000000000000000000000000000000000000000000000000000000000000000000000000000000000000000000000000000000000000000000000000000000000000000000000000000000000000000000000000000000000000000000000000000000000000000000000000000000000000000000000000000000000000000000000000000000000000000000000000000000000000000000000000000000000000000000000000000000000000000000000000000000000000000000000000000000000000000000000000000000000000000000000000000000000000000000000000000000000000000000000000000000000000000000000000000000000000000000000000000000000000000000000000000000000000000000000000000000000000000000000000000000000000000000000000000000000000000000000000000000000000000000000000000000000000000000000000000000000000000000000000000000000000000000000000000000000000000000000000000000000000000000000
#0119a1:0000000000000000000000000000000000510051005100510000000000000000
#0149b1:00001323
#014971:0000000000570000
#014920:0000000000001357
#015920:23
#0219c0:1252
#021990:00520052
#0229c0:5252
#022990:00520052
#0239c0:22
#021921:0013
#021951:00000023
#022951:0013
#022921:00000023
#023921:1252
#023951:00520052
#024921:5252
#024951:00520052
#025921:22
#0239b0:0013
#023980:00000053
#0249b0:23
#025990:1252
#0259c0:00520052
#026990:22
#025921:0013
#025951:00000023
#026951:1252
#026921:00520052
#027951:22
#026980:0013
#0269b0:00000023
#027970:12220000000000000000000000000000
#027970:00000000000000001222000000000000
#028970:1222000000000000
#0329b0:0000000013230000
#032970:00000000000000000053000000000000
#048920:0013
#048950:0000000000230000
#0489b1:0000000000130000
#048981:00000023
#055921:14240000
#055951:0054000000000000
#0559a0:00142400
#055970:0000005400000000
#055961:00001424
#055931:0000000000540000
#0569c1:001200000000000000000000000000000000000000000000000000000000000000000000000000000000000000000000000000000000000000000000000000000000000000000000000000000000000000000000000000000000000000000000000000000000000000000000000000000000000000000000220000000000000000000000000000000000000000000000000000000000000000000000000000000000000000000000000000000000000000000000000000000000000000000000000000000000000000000000000000000000000000000000000000000000000000000000000000000000000000000000000000000000000000000000000000000000000000000000000000000000000000000000000000000000000000000000000000000000000000000000000000000000000000000000000000000000000000000000000000000000000000000000000000000000000000000000000000000000000000000000000000000000000000000000000000000000000000000000000000000000000000000000000000000000000000000000000000000000000000000000000000000000000000000000000000000000000000000000000000000000000000000000000000000000000000000000000000000000000000000000000000000000000000000000000000000000000000000000000000000000000000000000000000000000000000000000000000000000000000000000000000000000000000000000000000000000000000000000000000000000000000000000000000000000000000000000000000000000000000000000000000000000000000000000000000000000000000000000000000000000000000000000000000000000000000000000000000000000000000000000000000000000000000000000000000000000000000000000000000000000000000000000000000000000000000000000000000000000000000000000000000000000000000000000000000000000000000000000000000000000000000000000000000000000000000000000000000000000000000000000000000000000000000000000000000000000000000000000000000000000000000000000000000000000000000000000000000000000000000000000000000000000000000000000000000000000000000000000000000000000000000000000000000000000000000000000000000000000000000000000000000000000000000000000000000000000000000000000000000000000000000000000000000000000000000000000000000000000000000000000000000000000000000000000000000000000000000000000000000000000000000000000000000000000000000000000000000000000000000000000000000000000000000000000000000000000000000000000000000000000000000000000000000000000000000000000000000000000000000000000000000000000000000000000000000000000000000000000000000000000000000000000000000000000000000000000000000000000000000000000000000000000000000000000000000000000000000000000000000000000000000000000000000000000000000000000000000000000000000000000000000000000000000000000000000000000000000000000000000000000000000000000000000000000000000000000000000000000000000000000000000000000000000000000000000000000000000000000000000000000000000000000000000000000000000000000000000000000000000000000000000000000000000000000000000000000000000000000000000000000000000000000000000000000000000000000000000000000000000000000000000000000000000000000000000000000000000000000000000000000000000000000000000000000000000000000000000000000000000000000000000000000000000000000000000000000000000000000000000000000000000000000000000000000000000000000000000000000000000000000000000000000000000000000000000000000000000000000000000000000000000000000000000000000000000000000000000000000000000000000000000000000000000000000000000000000000000000000000000000000000000000000000000000000000000000000000000000000000000000000000000000000000000000000000000000000000000000000000000000000000000000000000000000000000000000000000000000000000000000000000000000000000000000000000000000000000000000000000000000000000000000000000000000000000000000000000000000000000000000000000000000000000000000000000000000000000000000000000000000000000000000000000000000000000000000000000000000000000000000000000000000000000000000000000000000000000000000000000000000000000000000000000000000000000000000000000000000000000000000000000000000000000000000000000000000000000000000000000000000000000000000000000000000000000000000000000000000000000000000000
#056990:00122200000000000000000000000000
#056961:00001222000000000000000000000000
#056930:00000012220000000000000000000000
#0569b1:00000000122200000000000000000000
#056980:00000000001222000000000000000000
#056951:00000000000012220000000000000000
#056920:00000000000000122200000000000000
#0569c1:00000000000000001222000000000000
#056980:00000000000000000012220000000000
#056941:00000000000000000000122200000000
#0569b0:00000000000000000000001222000000
#056971:00000000000000000000000012220000
#056930:00000000000000000000000000122200
#0569a1:00000000000000000000000000001222
#056960:00000000000000000000000000000012
#057960:22
#057921:12220000000000000000000000000000
#0579c0:00122200000000000000000000000000
#0579a1:00001222000000000000000000000000
#057980:00000012220000000000000000000000
#057961:00000000122200000000000000000000
#057940:00000000001222000000000000000000
#057921:00000000000012220000000000000000
#0709a1:00000000000000120000000000000000
#070971:0022
#070971:00000000000000000000000000000012
#071941:22
#072931:0012
#072971:00000000000000000000000000000022
