This file was generated by Ched 2.7.0.0.
#TITLE ""
#ARTIST ""
#DESIGNER ""
#DIFFICULTY 0
#PLAYLEVEL
#SONGID ""
#WAVE ""
#WAVEOFFSET 0
#JACKET ""
#REQUEST "ticks_per_beat 480"
#00002: 4
#BPM01: 150
#00008: 01
#TIL00: ""
#VOLUME: ""
#HISPEED 00
#MEASUREHS 00
#0011a:14
#00114:00140000
#00118:0014
#00112:00000014
#00218:14
#00214:00140000
#00312:14
#00318:00140000
#00314:0014
#0031a:00000014
#00412:14000014
#0041a:00140000
#00416:0014
#0051a:1414
#00514:00140014
#0061a:14
#00618:00340000
#00712:1414
#00718:00140014
#00812:14
#00814:0034343400000000
#00918:1414
#00912:00140014
#00910:41
#01018:14
#0101a:00340000
#01114:1414
#0111a:00140014
#01214:14
#01212:00340000
#01314:00140000
#01318:0014
#01312:00000014
#0131a:24
#0141a:14
#01414:00140000
#01418:0014
#01512:14
#01518:00140000
#01514:0014
#0151a:00000014
#01718:00140000
#01714:0014
#0171a:00000014
#01712:24
#01710:41
#01812:14
#01818:00140000
#01814:0014
#0191a:14
#01914:00140000
#01918:0014
#01912:00000014
#0201a:14
#02017:00140000
#02112:14
#02118:00140000
#0221a:14
#02214:00140000
#02312:1414
#02318:00140014
#02412:14
#02414:003434000000
#0251a:14
#02514:00140000
#02510:41
#02612:14
#02618:00140000
#02814:0014
#02818:14000014
#02918:0000140000140000
#02914:0014
#02912:24000014
#0301a:14000014
#03014:0000140000140000
#03018:0014
#03112:14
#03118:00140000
#03114:0014
#0311a:00000014
#03212:14
#03214:00340000
#03314:0000140000140000
#03318:0014
#0331a:24000014
#03310:41
#03412:14000014
#03418:0000140000140000
#03414:0014
#0351a:14
#03514:00140000
#03518:0014
#03512:00000014
#0361a:14
#03618:00340000
#0401a:14
#04016:00140000
#04012:0014
#04018:00000014
#04118:00140000
#04114:0014
#0411a:00000014
#04112:26
#04110:41
#04212:1414
#04218:00140014
#04314:14
#0431a:00140000
#04312:0014
#04318:00000014
#05318:14140000
#05314:00001414
#05418:14140000
#05414:00001414
#0551a:14
#05514:00140000
#05518:0014
#05512:00000014
#05718:0014
#05714:00000014
#05812:00140000
#05818:0014
#05814:0000000000140000
#0581a:24000014
#0581f:21
#05912:14000014
#0591a:00140000
#05914:0014
#05918:0000000000140000
#05910:41
#0601a:14
#06012:00140000
#06018:0014
#06014:00000014
#06118:14
#0611a:00340000
#0621a:00140000
#06214:0014
#06218:0000000000140000
#06212:24000014
#0631a:14000014
#06312:00140000
#06318:0014
#06314:0000000000140000
#06412:14
#0641a:00140000
#06414:0014
#06418:00000014
#06514:14
#06512:00340000
#0691a:14
#06916:00140000
#06912:0014
#06918:00000024
#06614:00000014
#06718:00000014
#06814:00000014
#0491f:11
#04414:24
#04519:2424000000002424
#04513:0000002424000000
#04613:0024240000000000
#04719:2424000000002424
#04713:0000002424000000
#04813:0024240000000000
#05615:26
#07314:54
#0065a:54
#00852:64
#00854:0014
#01058:64
#01254:54
#01252:0014
#01458:0014
#01652:0014
#01854:0014
#0205a:5414
#02057:00540000
#02452:54
#02454:0014
#03254:0014
#03252:54
#0365a:64
#03658:0014
#05655:16
#06158:54
#0615a:0014
#06554:64
#06552:0014
#0023a0:00001424
#0063a0:14
#006380:00342400
#008320:14
#008340:0034343424000000
#010380:14
#0103a0:00342400
#012340:14
#012320:00342400
#016320:1424
#016330:003400000034000000000000
#016340:003434000000
#016350:00340000
#0203a0:1424
#020370:00340000
#021320:0014
#021330:000000000000003400000000
#021340:000034
#021350:00000024
#0223a0:0014
#022390:000000000000003400000000
#022380:000034
#022370:00000024
#024320:14
#024340:003434240000
#0253a0:0014
#025390:000000000000003400000000
#025380:000034
#025370:00000024
#026320:0014
#026330:000000000000003400000000
#026340:000034
#026350:00000024
#0273a0:14240000
#027340:00001424
#032320:14
#032340:00342400
#0363a0:14
#036380:00342400
#037320:14
#037340:0024
#0383a0:14
#038380:0024
#039340:14
#039320:0024
#049380:13
#049390:0033
#0503a0:33
#0503b0:0023
#051350:13
#051340:0033
#052330:33
#052320:0023
#061380:14
#0613a0:00342400
#065340:14
#065320:00342400
#0663a0:14
#066380:0024
#067320:14
#067340:0024
#068380:14
#0683a0:0024
#070340:1434000000000000
#071340:3434000000000000
#072340:3434000000000000
#073340:24
