This file was generated by Ched 2.7.0.0.
#TITLE ""
#ARTIST ""
#DESIGNER ""
#DIFFICULTY 0
#PLAYLEVEL
#SONGID ""
#WAVE ""
#WAVEOFFSET 0
#JACKET ""
#REQUEST "ticks_per_beat 480"
#00002: 4
#BPM01: 82
#00008: 01
#TIL00: ""
#VOLUME: ""
#HISPEED 00
#MEASUREHS 00
#0041a:14
#00410:41
#00514:14
#00618:14
#00712:14
#0081a:14
#00814:0014
#0091a:14
#01012:14
#01018:0014
#01010:41
#01112:14
#01612:0016
#01618:26
#01610:41
#01812:1616
#01918:1616
#02018:0016
#02012:26
#02218:1616
#0221f:11
#02312:1616
#0241a:14
#02512:14
#02612:0016
#02618:26
#0261f:00210000
#02610:00000041
#02718:1616
#02812:16
#02818:0016
#02912:16
#02918:0016
#03018:0016
#03012:26
#03112:1616
#03218:16
#03212:0016
#03318:16
#03312:0016
#0341a:14
#03514:14
#03618:14
#03712:14
#03710:41
#04018:14
#04014:0014
#03818:26
#03812:0026
#03918:26
#03912:0026
#02110:0041
#0431a:0054
#0003a0:14
#0013a0:24
#002320:14
#003320:24
#012380:14
#0133a0:24
#014340:14
#015320:24
#017380:1626
#021320:1626
#041380:14000000000000340000000000000000
#0433a0:0024
