This file was generated by Ched 2.7.0.0.
#TITLE ""
#ARTIST ""
#DESIGNER ""
#DIFFICULTY 0
#PLAYLEVEL
#SONGID ""
#WAVE ""
#WAVEOFFSET 0
#JACKET ""
#REQUEST "ticks_per_beat 480"
#00002: 4
#BPM01: 82
#00008: 01
#TIL00: ""
#VOLUME: ""
#HISPEED 00
#MEASUREHS 00
#00314:0000001400000000
#00218:0000001400000000
#00114:0000001400000000
#00018:0000001400000000
#0041a:14
#00412:0014
#00410:41
#00518:1414
#00514:00140000
#00612:14
#0061a:0014
#00714:1414
#00718:00140000
#0081a:14
#00812:0014
#0091a:14
#00914:00140000
#00918:0014
#01012:14
#0101a:0014
#01010:41
#01112:14
#01118:00140000
#01114:0014
#01218:00140000
#0121a:14
#01314:00140000
#01312:14
#01418:00140000
#0141a:14
#01514:1424
#01518:00140000
#01612:0016
#01618:26
#01610:41
#0171a:14
#01716:00140000
#01712:0014
#01914:0014
#0191a:00000014
#02012:14
#0201a:0014
#02112:14
#02116:00140000
#0211a:0014
#02110:0041
#02314:1414
#02318:00140000
#0241a:0014
#02512:14
#0251a:0014
#0291a:14000014
#02916:00140000
#02912:0014
#03112:14
#03116:00140000
#0311a:0014
#03014:14
#03018:0014
#03212:14
#0321a:0014
#03417:0000351500000000
#03419:15
#03512:0000351500000000
#03514:15
#03619:0000351500000000
#03617:15
#03714:0000351500000000
#03712:15
#03710:41
#03814:00140014
#03818:2424
#04014:14
#04018:00140015
#04013:0015
#04215:16
#0221f:11
#02613:24
#0261f:00210000
#02610:00000041
#02712:24000024
#02716:00240000
#0271a:0024
#02819:24
#03312:2626
#03318:00260000
#03919:2525
#03912:00250000
#04312:0054
#00354:0000002400000000
#00258:0000005400000000
#00154:0000005400000000
#00058:0000005400000000
#0125a:54000014
#01258:00240000
#01354:00240000
#01352:64000014
#01458:00240000
#0145a:54000014
#01658:16
#01652:0016
#02052:14
#0205a:0014
#02452:14
#02354:0064
#02652:00160000
#02659:00000014
#02858:00160000
#02853:00000014
#03058:0054
#03054:54
#03052:00140000
#0305a:00000014
#03252:64
#0325a:0064
#03254:00140000
#03258:00000014
#03459:55
#03457:0000005500000000
#03552:0000005500000000
#03554:55
#03659:0000006500000000
#03657:65
#03754:0000006500000000
#03752:65
#03959:1515
#03952:00150000
#04255:56
#000380:1400343400000000
#0003a0:00000024
#001340:1400343400000000
#001320:00000024
#002380:1400343400000000
#0023a0:00000024
#003340:1400343400000000
#003320:00000028
#0123a0:14003424
#012380:00540000
#013320:14003424
#013340:00540000
#0143a0:14003424
#014380:00540000
#0183a0:14240000
#018320:00001424
#019380:14240000
#022320:14240000
#0223a0:00001424
#023340:0014
#024320:24
#026330:14
#026320:00260000
#026380:0016
#026390:00000024
#028390:14
#028380:00260000
#028320:0016
#028330:00000024
#030340:14
#030320:00240000
#030380:0014
#0303a0:00000024
#032320:14
#032340:00240000
#0323a0:0014
#032380:00000024
#034390:15000025
#034370:0000353500000000
#035340:15000025
#035320:0000353500000000
#036370:15000025
#036390:0000353500000000
#037320:15000025
#037340:0000353500000000
#041320:16000000000000360000000000000000
#041330:0000000000360000
#041340:00000000000000000000000000360000
#042350:36
#043320:0024
