This file was generated by Ched 2.7.0.0.
#TITLE ""
#ARTIST ""
#DESIGNER ""
#DIFFICULTY 0
#PLAYLEVEL
#SONGID ""
#WAVE ""
#WAVEOFFSET 0
#JACKET ""
#REQUEST "ticks_per_beat 480"
#00002: 4
#BPM01: 88
#00008: 01
#TIL00: ""
#VOLUME: ""
#HISPEED 00
#MEASUREHS 00
#03814:1500000000001314
#03812:0000131415000000
#03819:25230000
#03817:0025
#03818:0000002400000000
#0381a:0000000000000024
#0381b:00000023
#03714:0000001a00001314
#03712:13
#03715:00001300000000380000000000000000
#0371b:13000023
#0371a:0000000000000024
#03718:00220000
#0011a:1212
#00116:0012001200001200
#00118:00000012000000000000000000001200
#00214:12
#00218:0012000000000000
#00216:00120012
#0021a:0000001200000022
#00315:00120000
#00314:00000012
#00319:0000002200000000
#00318:0000000000000022
#00414:0000001200120000
#0041a:0012
#00416:00000000000000000000003200000000
#00516:0012001200001200
#0051a:1212
#00518:00000012000000000000120000001200
#00510:41
#00614:12000012
#00618:0012000000000000
#00616:00120000
#00716:0000120000001212
#0081c:1252
#00812:0012
#00816:00220052
#00818:00520022
#0081a:0052005200000000
#00814:0000000000520052
#0091a:1200000000120000
#00914:0012000000000000
#00918:00000000000012000000000022000012
#00916:0000220000000012
#00912:52
#01014:0012000000000000
#01018:0000001200002200
#01012:12
#0101a:0000000000120000
#01016:0000220000000012
#01113:1212
#01115:00120012
#0111b:2222
#01119:00220022
#0121b:0013
#01218:0000001300002200
#01219:0000000000130000
#01215:0000000013000013
#01216:00220000
#01210:41
#01314:0013000000000000
#01318:1300001300002200
#0131a:0000000000000013
#01312:13
#01315:0000000000000013
#01316:00220000
#01614:0013000000000000
#01618:00000013000013000000000022000000
#0161b:0013
#01619:0000000000130000
#01615:0000000013000013
#01612:13
#01616:00220000
#01912:0000000013130000
#01915:0000000000000013
#0191b:0013
#01916:00220000
#01918:00000022
#02012:13
#0201b:0013
#02016:00220000
#02018:00000022
#02218:13000022
#0221b:0013
#02215:0013
#02212:13
#02216:00220000
#0231b:00130000
#02318:13000022
#02312:13000013
#02315:0013
#0231f:0011
#02316:00220000
#02310:41
#02418:13001322
#0241b:0013000000000000
#02415:0013
#02412:0000000000130000
#02416:00220000
#0261b:13130000
#02618:0013001300002200
#02612:13001313
#02615:0000000000130013
#02616:00220000
#0271b:13
#02719:0012000000000000
#02715:0000001200000000
#02712:0013
#02717:0000120000520000
#0281b:13131300
#02818:0000001300000000
#02819:0013000000000000
#02817:0000000000130000
#02812:2413
#02816:000000000000000000000000000000000000000000000000000000000000000000000000000000000000000000000000000000000000000000000000000000000000000000000000000000000000000000000000000000000000000000000000000000000000000000000000000000000000000000000000000000000000000000000000000000000000000000000000000000000000000000000000000000000000000000000000000000000000000000000000000000000000000000000000000000000000000000000000000000000000000000000000000000000000000000000000000000000000000000000000000000000000000000000000000000000000000000000000000000000000000000000000000000000000000000000000000000000000000000000000000000000000000000000000000000000000000000000000000000000000000000000000000000000000000000000000000000000000000000000000000000000000000000000000000000000000000000000000000000000000000000000000000000000000000000000000000000000000000000000000000000000000000000000000000000000000000000000000000000000000000000000000000000000000000000000000000000000000000000000000000000000000000000000000000000000000000000000000000000000000000000000000000000000000000000000000000000000000000000000000000000000000000000000000000000000000000000000000000000000000000000000000000000000000000000000000000000000000000000000000000000000000000000000000000000000000000000000000000000000000000000000000000000000000000000000000000000000000000000000000000000000000000000000000000000000000000000000000000000000000000000000000000000000000000000000000000000000000000000000000000000000000000000000000000000000000000000000000000000000000000000000000000000000000000000000000000000000000000000000000000000000000000000000000000000000000000000000000000000000000000000000000000000000000000000000000000000000000000000000000000000000000000000000000000000000000000000000000000000000000000000000000000000000000000000000000000000000000000000000000000000000000000000000000000000000000000000000000000000000000000000000000000000000000000000000000000000000000000000000000000000000000000000000000000000000000000000000000000000000000000000000000000000000000000000000000000000000000000000000000000000000000000000000000000000000000000000000000000000000000000000000000000000000000000000000000000000000000000000000000000000000000000000000000000000000000000000000000000000000000000000000000000000000000000000000000000000000000000000000000000000000000000000000000000000000000000000000000000000000000000000000000000000000000000000000000000000000000000000000000001300000000000000000000000000000000000000000000000000000000000000000000000000000000000000000000000000000000000000000000000000000000000000000000000000000000000000000000000000000000000000000000000000000000000000000000000000000000000000000000000000000000000000000000000000000000000000000000000000000000000000000000000000000000000000000000000000000000000000000000000000000000000000000000000000000000000000000000000000000000000000000000000000000000000000000000000000000000000000000000000000000000000000000000000000000000000000000000000000000000000000000000000000000000000000000000000000000000000000000000000000000000000000000000000000000000000000000000000000000000000000000000000000000000000000000000000000000000000000000000000000000000000000000000000000000000000000000000000000000000000000000000000000000000000000000000000000000000000000000000000000000000000000000000000000000000000000000000000000000000000000000000000000000000000000000000000000000000000000000000000000000000000000000000000000000000000000000000000000000000000000000000000000000000000000000000000000000000000000000000000000000000000000000000000000000000000000000000000000000000000000000000000000000000000000000000000000000000000000000000000000000000000000000000000000000000000000000000000000000000000000000000000000000000000000000000000000000000000000000000000000000000000000000000000000000000000000000000000000000000000000000000000000000000000000000000000000000000000000000000
#02815:00130000
#0281f:21
#02810:00410000
#02914:13130000
#02912:0000001300000000
#02916:0013000000000000
#02913:0013
#0291a:0013
#02918:00000000130000000000001300000000
#02915:00000000000000000000001300000000
#02919:23
#03014:00130000
#0301b:13131300
#03018:0013001300000000
#03012:23
#03115:1300000000001313
#03118:13000000000000005200000000130013
#03112:00530000
#0311b:00530000
#03116:0052
#03215:0000000000000013
#03218:00000000000024000000000062000013
#03212:2424
#03214:0024000000000000
#03216:00240062
#0321a:0024
#03315:1313
#03312:0013000000000000
#03318:00130026
#0331b:0000001300000000
#03412:16
#03413:0015
#03414:00000000000000000000000013140000
#03418:26000000000000002500000000140000
#03417:00260025
#03514:14
#03515:00000013000000000000000000000000
#03512:0000000000000013
#03518:24232300
#0351b:0000000000000023
#03612:1300001313000000
#03615:00000013
#03618:0000230000000013
#0361b:2300002323000000
#03610:41
#03914:15
#03913:00150000
#03912:0015
#03919:25
#03918:00250000
#03917:0025
#01413:0000001300000000
#0141a:0000000000000013
#01418:0000001300002200
#01415:0000000000000013
#01416:00220000
#01514:0000001300000000
#01519:0000001300000000
#01516:00220000
#01518:00000022
#01714:0013000000000000
#01712:13
#01718:1300001300002200
#01715:0000001300000000
#01716:00220000
#02112:13
#0211b:0013
#02116:00220000
#02118:00000022
#02512:1313
#0251b:1313
#02518:0013000000002200
#02515:0000000000130000
#02516:00220000
#01816:00220000
#01818:00000022
#01810:41
#0401c:52
#04017:52
#04016:00520000
#0401b:00520000
#04015:0000000000000000000000000000000000520000000000000000000000000000
#0401a:0000000000000000000000000000000000520000000000000000000000000000
#04019:00000000000000000000000000520000
#04014:00000000000000000000000000520000
#04113:00000000005200000000000000000000000000000000000052000000000000000000000000000000000000000000000000000000000000000000000000000000
#04118:00000000005200000000000000000000000000000000000052000000000000000000000000000000000000000000000000000000000000000000000000000000
#04115:0000000000000000000000000000000000520000000000000000000000000000
#04117:00000000000000000000005200000000
#0411c:00000000000000000000005200000000
#04416:00000000000000000000000000540000
#0441a:00000000000000000000000000640000
#04214:52
#04218:52000000000000000000000000000000000000000000000000000000000000000000000000000000000000000000000000620000000000000000000000000000
#03854:25
#03859:25
#03852:0025
#03857:0025
#01358:0000001300000000
#0135a:0000000000000053
#02052:13
#0205b:0013
#02258:53
#0225b:0013
#02255:0063
#02252:13
#0235b:00530000
#02358:5313
#02352:13000063
#02355:0063
#02458:6313
#0245b:0023000000000000
#02455:1353
#02452:0000000000230000
#0265b:53534300
#02658:0023002300000000
#02652:13006363
#02655:0000000000230023
#02852:1463
#0285b:53535300
#02858:0000002300000000
#02859:0023000000000000
#02857:0000000000230000
#02856:000000000000000000000000000000000000000000000000000000000000000000000000000000000000000000000000000000000000000000000000000000000000000000000000000000000000000000000000000000000000000000000000000000000000000000000000000000000000000000000000000000000000000000000000000000000000000000000000000000000000000000000000000000000000000000000000000000000000000000000000000000000000000000000000000000000000000000000000000000000000000000000000000000000000000000000000000000000000000000000000000000000000000000000000000000000000000000000000000000000000000000000000000000000000000000000000000000000000000000000000000000000000000000000000000000000000000000000000000000000000000000000000000000000000000000000000000000000000000000000000000000000000000000000000000000000000000000000000000000000000000000000000000000000000000000000000000000000000000000000000000000000000000000000000000000000000000000000000000000000000000000000000000000000000000000000000000000000000000000000000000000000000000000000000000000000000000000000000000000000000000000000000000000000000000000000000000000000000000000000000000000000000000000000000000000000000000000000000000000000000000000000000000000000000000000000000000000000000000000000000000000000000000000000000000000000000000000000000000000000000000000000000000000000000000000000000000000000000000000000000000000000000000000000000000000000000000000000000000000000000000000000000000000000000000000000000000000000000000000000000000000000000000000000000000000000000000000000000000000000000000000000000000000000000000000000000000000000000000000000000000000000000000000000000000000000000000000000000000000000000000000000000000000000000000000000000000000000000000000000000000000000000000000000000000000000000000000000000000000000000000000000000000000000000000000000000000000000000000000000000000000000000000000000000000000000000000000000000000000000000000000000000000000000000000000000000000000000000000000000000000000000000000000000000000000000000000000000000000000000000000000000000000000000000000000000000000000000000000000000000000000000000000000000000000000000000000000000000000000000000000000000000000000000000000000000000000000000000000000000000000000000000000000000000000000000000000000000000000000000000000000000000000000000000000000000000000000000000000000000000000000000000000000000000000000000000000000000000000000000000000000000000000000000000000000000000000000000000000000000000002300000000000000000000000000000000000000000000000000000000000000000000000000000000000000000000000000000000000000000000000000000000000000000000000000000000000000000000000000000000000000000000000000000000000000000000000000000000000000000000000000000000000000000000000000000000000000000000000000000000000000000000000000000000000000000000000000000000000000000000000000000000000000000000000000000000000000000000000000000000000000000000000000000000000000000000000000000000000000000000000000000000000000000000000000000000000000000000000000000000000000000000000000000000000000000000000000000000000000000000000000000000000000000000000000000000000000000000000000000000000000000000000000000000000000000000000000000000000000000000000000000000000000000000000000000000000000000000000000000000000000000000000000000000000000000000000000000000000000000000000000000000000000000000000000000000000000000000000000000000000000000000000000000000000000000000000000000000000000000000000000000000000000000000000000000000000000000000000000000000000000000000000000000000000000000000000000000000000000000000000000000000000000000000000000000000000000000000000000000000000000000000000000000000000000000000000000000000000000000000000000000000000000000000000000000000000000000000000000000000000000000000000000000000000000000000000000000000000000000000000000000000000000000000000000000000000000000000000000000000000000000000000000000000000000000000000000000000000000000000
#02853:00000033
#0285a:00000043
#02954:63630034
#02952:0000002300000000
#02956:0023000000000000
#02953:0063
#0295a:0053
#02958:00000000000000000000002344000000
#02955:00000000000000000000002300000000
#03152:00230000
#0315b:00230000
#03155:53
#03158:5312
#03156:0012
#03055:00000013
#0305b:53535300
#03058:0023002300001300
#0325a:0054
#03252:0064
#03355:5313
#03352:0023000000000000
#03358:00631300
#0335b:0000002300000000
#03452:16
#03458:16000000000000001500000000640000
#03453:0015
#03454:00000000000000000000000023640000
#03457:00000025
#03554:14
#03558:14
#0365b:1323
#03652:2313
#03954:25
#03959:25
#03953:00250000
#03958:00250000
#03952:0025
#03957:00002512
#03955:00000012
#01453:0000006300000000
#0145a:0000000000000053
#00454:0000000000620000
#01258:12
#01256:12
#01155:00000062
#01159:00000052
#02152:13
#0215b:0013
#02552:1363
#0255b:5313
#02558:0023000000000000
#02555:0000000000230000
#01758:0000006300000000
#01755:0000005300000000
#02752:33
#03754:0000002a00000000
#03757:0014
#004340:0000000000120000
#004360:00000000000000000000003200002200
#0063a0:0000001200220000
#006380:0000000000000012
#007380:0022000000000000
#0073a0:0000001200220000
#011390:00000012
#012380:22
#011351:00000012
#012361:22
#0133a1:0000000000000013
#014391:0025000000000000
#014331:0000001300000000
#014321:0000000000250000
#0143a1:0000000000000013
#015391:0025000000000000
#015341:0013
#015331:0000000000250000
#015390:0013
#015380:0000000000250000
#0163b0:1323000000000000
#017380:0000001300000000
#0173b0:0000000000230000
#017351:0000001300000000
#017321:0000000000230000
#017341:0000000000000012
#018361:52
#018341:0022000000000000
#0173a0:0000000000000012
#018380:52
#0183a0:0022000000000000
#018330:0000001300230000
#018350:0053
#0183a1:0000001300230000
#018381:0053
#018321:0000000000000014
#019351:53
#019321:0024000000000000
#0183a0:0000000000000014
#019380:53
#0193a0:0024000000000000
#0203b0:13230000
#020330:00001323
#021390:13230000
#021350:00001323
#022380:13
#0223b0:00230000
#022350:0013
#022320:00000023
#023380:1323
#0233b0:00330000
#023351:0013
#023321:00000033
#024351:23
#024380:13230000
#0243b0:0053000000000000
#024350:00001323
#024320:0000000000530000
#0253b0:13230000
#025380:0053000000000000
#025320:00001323
#025350:0000000000530000
#0263b0:13332300
#026380:0053005300000000
#026321:00001333
#026351:0000000000530053
#027321:23
#027371:0000000012220000
#0283b1:13333300
#028391:0033000000000000
#028381:0000003300000000
#028371:0000000000530000
#0283a1:00000023
#028320:0013
#028360:000000000000000000000000000000000000000000000000000000000000000000000000000000000000000000000000000000000000000000000000000000000000000000000000000000000000000000000000000000000000000000000000000000000000000000000000000000000000000000000000000000000000000000000000000000000000000000000000000000000000000000000000000000000000000000000000000000000000000000000000000000000000000000000000000000000000000000000000000000000000000000000000000000000000000000000000000000000000000000000000000000000000000000000000000000000000000000000000000000000000000000000000000000000000000000000000000000000000000000000000000000000000000000000000000000000000000000000000000000000000000000000000000000000000000000000000000000000000000000000000000000000000000000000000000000000000000000000000000000000000000000000000000000000000000000000000000000000000000000000000000000000000000000000000000000000000000000000000000000000000000000000000000000000000000000000000000000000000000000000000000000000000000000000000000000000000000000000000000000000000000000000000000000000000000000000000000000000000000000000000000000000000000000000000000000000000000000000000000000000000000000000000000000000000000000000000000000000000000000000000000000000000000000000000000000000000000000000000000000000000000000000000000000000000000000000000000000000000000000000000000000000000000000000000000000000000000000000000000000000000000000000000000000000000000000000000000000000000000000000000000000000000000000000000000000000000000000000000000000000000000000000000000000000000000000000000000000000000000000000000000000000000000000000000000000000000000000000000000000000000000000000000000000000000000000000000000000000000000000000000000000000000000000000000000000000000000000000000000000000000000000000000000000000000000000000000000000000000000000000000000000000000000000000000000000000000000000000000000000000000000000000000000000000000000000000000000000000000000000000000000000000000000000000000000000000000000000000000000000000000000000000000000000000000000000000000000000000000000000000000000000000000000000000000000000000000000000000000000000000000000000000000000000000000000000000000000000000000000000000000000000000000000000000000000000000000000000000000000000000000000000000000000000000000000000000000000000000000000000000000000000000000000000000000000000000000000000000000000000000000000000000000000000000000000000000000000000000000000000000000005300000000000000000000000000000000000000000000000000000000000000000000000000000000000000000000000000000000000000000000000000000000000000000000000000000000000000000000000000000000000000000000000000000000000000000000000000000000000000000000000000000000000000000000000000000000000000000000000000000000000000000000000000000000000000000000000000000000000000000000000000000000000000000000000000000000000000000000000000000000000000000000000000000000000000000000000000000000000000000000000000000000000000000000000000000000000000000000000000000000000000000000000000000000000000000000000000000000000000000000000000000000000000000000000000000000000000000000000000000000000000000000000000000000000000000000000000000000000000000000000000000000000000000000000000000000000000000000000000000000000000000000000000000000000000000000000000000000000000000000000000000000000000000000000000000000000000000000000000000000000000000000000000000000000000000000000000000000000000000000000000000000000000000000000000000000000000000000000000000000000000000000000000000000000000000000000000000000000000000000000000000000000000000000000000000000000000000000000000000000000000000000000000000000000000000000000000000000000000000000000000000000000000000000000000000000000000000000000000000000000000000000000000000000000000000000000000000000000000000000000000000000000000000000000000000000000000000000000000000000000000000000000000000000000000000000000000000000000000000000
#028330:00000023
#029340:13330024
#029360:0033000000000000
#029320:0000003300000000
#029330:0033
#029350:00000000000000000000005300000000
#0293a1:0013
#029381:00000000000000000000005324000000
#0303b1:13333300
#030381:0033003300002300
#030350:00001323
#031350:13
#031320:00230000
#031381:13
#0313b1:00230000
#033351:13230000
#033321:0053000000000000
#033380:00132300
#0333b0:0000005300000000
#033320:0000000000001626
#033381:0000000000001626
#034371:00160000
#034391:0000002400000000
#034330:0000142600000000
#034370:00000015
#034380:00000000000000000000000000540000
#034390:0000000000000023
#034341:00000000000000000000000013542500
#035351:00000000000000130000000000000000
#035341:00000024
#035380:00001324
#036320:13
#036350:00230000
#0363b0:0013
#036380:00000023
#037380:00000000000000000000000000000000000000000000000000000000000000000000000000000000000000000000000000000000000000000000000000000000000000000000000000000000000000000000000000000000000000000000000000000000000000000000000000000000000000000000000000000000000000000000000000000000000000000000000000000000000000000000000000000000120000000000000000000000000000000000000000000000000000000000000000000000000000000000000000000000000000000000000000000000000000000000000000000000000000000000005200000000000000000000000000000000000000000000000000000000000000000000000000000000000000000000000000000000000000000000000000000000000000000000000000000000000000000000000000000000000000000000000000000000000000000000000000000000000000000000000000000000000000000000000000000000000000000000000000000000000000000000000000000000000000000000000000000000000000000000000000000000000000000000000000000000000000000000000000000000000000000000000000000000000000000000000000000000000000000000000000000000000000000000000000000000000000000000000000000000000000000000000000000000000000000000000000000000000000000000000000000000000000000000000000000000000000000000000000000000000000000000000000000000000000000000000000000000000000000000000000000000000000000000000000000000000000000000000000000000000000000000000000000000
#037340:0000005a00000000
#037350:00000000000000380000000000000000
#037370:0024
#038340:15
#038370:0022000000000000
#038391:1522000000000000
#038321:0015
#038351:0000000000220000
#038370:0000000015220000
#039340:15
#039370:0022000000000000
#039391:1522000000000000
#039331:00150000
#039361:0000002200000000
#039380:0000152200000000
#039320:0015
#039350:00000022
#039371:00001522
#042341:12
#043331:00000000000000000000000000000034
#043341:00000000000000000000000000000000000000000000000000000000000000000000000000000000000000000000000000000000000000000000000000340000
#044361:00000000000000000000000000240000
#042380:00000000000000000000000000000000000000000000000000000000000000000000000000000000000000000000000000120000000000000000000000000000
#043370:00000000000000000000000000000034
#043380:00000000000000000000000000000000000000000000000000000000000000000000000000000000000000000000000000000000000000000000000000340000
#0443a0:00000000000000000000000000240000
#0089c0:1222
#008980:00520000
#008921:0012
#008961:00000052
#009921:22
#031921:00130000
#031961:000000000000000000000000000000000000000000000000000000000000000000000000000000000000000000000000000000000000000000000000000000000000000000000000000000000000000000000000000000000000000000000000000000000000000000000000000000000000000000000000000000000000000000000000000000000000000000000000000000000000000000000000000000000000000000000000000000000000000000000000000000000000000000000000000000000000000000000000000000000000000000000000000000000000000000000000000000000000000000000000000000000000000000000000000000000000000000000000000000000000000000000000000000000000000000000000000000000000000000000000000000000000000000000000000000000000000000000000000000000000000000000000000000000000000000000000000000000000000000000000000000000000000000000000000000000000000000000000000000000000000000000000000000000000000000000000000000000000000000000000000000000000000000000000000000000000000000000000000000000000000000000000000000000000000000000000000000000000000000005252220000000000000000000000000000000000000000000000000000000000000000000000000000000000000000000000000000000000000000000000000000000000000000000000000000000000000000000000000000000000000000000000000000000000000000000000000000000000000000000000000000000000000000000000000000000000000000000000000000000000000000000000000000000000000000000000000000000000000000000000000000000000000000000000000000000000000000000000000000000000000000000000000000000000000000000000000000000000000000000000000000000000000000000000000000000000000000000000000000000000000000000000000000000000000000000000000000000000000000000000000000000000000000000000000000000000000000000000000000000000000000000000000000000000000000000000000000000000000000000000000000000000000000000000000000000000000000000000000000000000000000000000000000000000000000000000000000000000000000000000000000000000000000000000000000000000000000000000000000000000000000000000000000000000000000000000000000000000000000000000
#0319b0:00130000
#031980:000000000000000000000000000000000000000000000000000000000000000000000000000000000000000000000000000000000000000000000000000000000000000000000000000000000000000000000000000000000000000000000000000000000000000000000000000000000000000000000000000000000000000000000000000000000000000000000000000000000000000000000000000000000000000000000000000000000000000000000000000000000000000000000000000000000000000000000000000000000000000000000000000000000000000000000000000000000000000000000000000000000000000000000000000000000000000000000000000000000000000000000000000000000000000000000000000000000000000000000000000000000000000000000000000000000000000000000000000000000000000000000000000000000000000000000000000000000000000000000000000000000000000000000000000000000000000000000000000000000000000000000000000000000000000000000000000000000000000000000000000000000000000000000000000000000000000000000000000000000000000000000000000000000000000000000000000000000000000000005252220000000000000000000000000000000000000000000000000000000000000000000000000000000000000000000000000000000000000000000000000000000000000000000000000000000000000000000000000000000000000000000000000000000000000000000000000000000000000000000000000000000000000000000000000000000000000000000000000000000000000000000000000000000000000000000000000000000000000000000000000000000000000000000000000000000000000000000000000000000000000000000000000000000000000000000000000000000000000000000000000000000000000000000000000000000000000000000000000000000000000000000000000000000000000000000000000000000000000000000000000000000000000000000000000000000000000000000000000000000000000000000000000000000000000000000000000000000000000000000000000000000000000000000000000000000000000000000000000000000000000000000000000000000000000000000000000000000000000000000000000000000000000000000000000000000000000000000000000000000000000000000000000000000000000000000000000000000000000000000000
#0329a0:0014
#032980:00000022
#032921:0014
#032961:00000022
