This file was generated by Ched 2.7.0.0.
#TITLE ""
#ARTIST ""
#DESIGNER ""
#DIFFICULTY 0
#PLAYLEVEL
#SONGID ""
#WAVE ""
#WAVEOFFSET 0
#JACKET ""
#REQUEST "ticks_per_beat 480"
#00002: 4
#BPM01: 88
#00008: 01
#TIL00: ""
#VOLUME: ""
#HISPEED 00
#MEASUREHS 00
#03712:0000000000001414
#03715:00180000
#03718:22
#0371a:0000000000002424
#01115:00000013
#01118:00000023
#01114:00620000
#01212:0013
#0121b:0000000000130000
#01218:0000001300000013
#01215:00130013
#01210:41
#01312:13
#01318:0013000000000000
#01315:00130013
#0131a:0000000000000013
#0131b:0000001300000000
#01514:0000001400000000
#01518:00000000000000000000001400000000
#01912:0013
#0191b:00130000000000000000000013000000
#02818:0013
#02815:0000001300000000
#0281b:23
#0281f:21
#02810:00410000
#0321b:2313
#03218:00130063
#03212:1313
#03215:00130053
#03514:0000140000000024
#03512:0014
#03518:00240024
#03516:0024
#00514:0012
#00510:41
#0061a:0012
#01413:00130000
#01418:0000001300000000
#01415:00000013
#0141a:0000000000000013
#01612:1300000000130000
#0161b:0013
#01615:0033000000000013
#01618:00000013
#01718:0000130000001313
#0171b:13
#01715:0013000000000000
#01712:0000001300000000
#01815:0000131300000000
#01818:0000000000001313
#01810:41
#02915:0013
#02918:0000001300000000
#02912:23
#03018:0013
#03015:0000001300000000
#0301b:23
#03118:00130013
#03115:0000130000000013
#03112:13
#0311b:13
#03612:0014
#03616:0000000000000012
#03618:0000001400001200
#03614:00140000
#0361a:24
#03610:41
#00118:12
#00216:12
#00714:0012
#02315:00130000
#02318:23130000
#0231f:0011
#02310:41
#03314:13
#03313:00130000
#03312:0013
#0331b:00002323
#03319:23
#0331a:00230000
#03812:14
#03813:0000141414000000
#03814:0000000000001414
#0381a:24
#03819:0000242424000000
#03818:0000000000002424
#0391a:0014
#03912:0014
#03918:24000034140000000000000000000000
#03914:00000034140000000000000000000000
#02015:23
#02014:0023
#02113:23
#02112:0023
#0341b:00000023
#03412:00230000
#0221a:23
#02219:0023
#0031a:22
#00317:0022
#00414:22
#02415:23
#02414:0023
#02513:23
#02512:0023
#0261a:23
#02619:0023
#02718:23
#02715:0000000053530000
#0401c:52
#0401b:00520000
#0401a:0000000000000000000000000000000000520000000000000000000000000000
#04019:00000000000000000000000000520000
#04118:00000000005200000000000000000000000000000000000000000000000000000000000000000000000000000000000000000000000000000000000000000000
#04116:0000005200000000
#04119:0000000000000000000000000000000000520000000000000000000000000000
#04114:00000000000000000000005200000000
#0441b:00000000000000000000000000530000
#04218:52
#00814:00620000
#00816:00000062
#00918:00620000
#0091a:00000062
#01016:00000062
#01018:00620000
#01155:00000063
#01158:00000053
#02858:0053
#0285b:53000013
#0325b:5353
#03258:00230000
#03252:6363
#03255:00230000
#01252:13
#0125b:13
#0135a:0000000000000013
#01458:0000001300000000
#0145a:0000000000000013
#01652:63
#01758:0000000000000063
#01855:0000006300000000
#01858:0000000000000063
#01958:00130000
#0195b:00230000000000000000000000000000
#02955:0063
#02952:63000013
#03058:0053
#0305b:53000013
#0365a:14
#03652:0014
#0385a:14
#03852:14
#03853:0014
#03859:0014
#00158:52
#00256:62
#00858:12
#02358:00630000
#02355:00630000
#0235b:0013
#02352:0013
#03155:00630000
#03152:6313
#03158:00530000
#0315b:5313
#0335b:0013
#03352:0013
#01558:00000000000000000000002400000000
#03758:0012
#03755:00280000
#03958:00640013
#03955:00000013
#03954:00640000
#03952:0064
#0395a:0064
#03456:1414
#0345a:14
#03452:0014
#0355a:14
#03556:14
#001380:12
#0013a0:0022
#002360:12
#002340:0022
#005380:12
#006380:22
#006361:12
#007361:22
#007380:12
#008380:22
#011350:00000013
#012320:23
#011381:00000013
#0123b1:23
#015381:00000000000000001400343400000000
#015371:0000000000000026
#016321:13
#016351:00003333000023000000000000000000
#017381:0000000000000013
#0183b1:0023000000000000
#018351:0000001300000000
#018321:0000000000230000
#018381:0000000000000013
#0193b1:00530000000000000000000000000000
#019381:00230000
#020381:13230000
#020350:13230000
#020390:00001323
#020341:00001323
#0213a1:13230000
#021330:13230000
#0213b0:00001323
#021321:00001323
#022331:13230000
#0223a0:13230000
#022340:00001323
#022391:00001323
#023351:13330000
#023321:0023
#023380:13330000
#0233b0:0023
#024380:13230000
#024390:00001323
#0253a0:13230000
#0253b0:00001323
#026330:13230000
#026340:00001323
#027350:1323
#0283b0:13
#028380:00230000
#028380:0013
#0283b0:00000023
#029320:13
#029350:00230000
#029350:0013
#029320:00000023
#0303b0:13
#030380:00230000
#030380:0013
#0303b0:00000023
#031320:1323
#031350:00330000
#0313b1:1323
#031381:00330000
#032321:1333
#032351:00330023
#0323b0:1333
#032380:00330023
#0333b0:00000013
#0343a0:24
#033361:00000015
#034361:24
#034321:00132400
#034350:00150000
#034360:0024
#034360:00000015
#035360:24
#0343b1:00000013
#0353a1:24
#037381:120000000000000000000000000000000000000000000000000000000000000000000000000000000000000000000000000000000000000000000000000000000000000000000000000000000000000000000000000000000000000000000000000000000000000000000000000000000000000000000000000000000000000000000000000000000000000000000000000000000000000000000000000000000000000000000000000000000000000000000000000000000000000000000000000000000000000000000000000000000000000000000000000000000000000000000000000000000000000000000000000000000000000000000000000000000000000000000000000000000000000000000000000000000000000000000000000000000000000000000000000000000000000000000000000000000000000000000000000000000000000000000000000000000000000000000000000000000000000000000000000000000000000000000000000000000000000000000000000000000000000000000000000000000000000000000000000000000000000000000000000000000000000000000000000000000000000000000000000000000000000000000000000000000000000000000000000000000000000000000052000000000000000000000000000000000000000000000000000000000000000000000000000000000000000000000000000000000000000000000000000000000000000000000000000000000000000000000000000000000000000000000000000000000000000000000000000000000000000000000000000000000000000000000000000000000000000000000000000000000000000000000000000000000000000000000000000000000000000000000000000000000000000000000000000000000000000000000000000000000000000000000000000000000000000000000000000000000000000000000000000000000000000000000000000000000000000000000000000000000000000000000000000000000000000000000000000000000000000000000000000000000000000000000000000000000000000000000000000000000000000000000000000000000000000000000000000000000000000000000000000000000000000000000000000000000000000000000000000000000000000000000000000000000000000000000000000000000000000000000000000000000000000000000000000000000000000000000000000000000000000000000000000000000000000000000000000000000000000000000000220000000000000000000000000000000000000000000000000000000000000000000000000000000000000000000000000000000000000000000000000000000000000000000000000000000000000000000000000000000000000000000000000000000000000000000000000000000000000000000000000000000000000000000000000000000000000000000000000000000000000000000000000000000000000000000000000000000000000000000000000000000000000000000000000000000000000000000000000000000000000000000000000000000000000000000000000000000000000000000000000000000000000000000000000000000000000000000000000000000000000000000000000000000000000000000000000000000000000000000000000000000000000000000000000000000000000000000000000000000000000000000000000000000000000000000000000000000000000000000000000000000000000000000000000000000000000000000000000000000000000000000000000000000000000000000000000000000000000000000000000000000000000000000000000000000000000000000000000000000000000000000000000000000000000000000000000000000000000000000000000000000000000000000000000000000000000000000000000000000000000000000000000000000000000000000000000000000000000000000000000000000000000000000000000000000000000000000000000000000000000000000000000000000000000000000000000000000000000000000000000000000000000000000000000000000000000000000000000000000000000000000000000000000000000000000000000000000000000000000000000000000000000000000000000000000000000000000000000000000000000000000000000000000000000000000000000000000000000000000000000000000000000000000000000000000000000000000000000000000000000000000000000000000000000000000000000000000000000000000000000000000000000000000000000000000000000000000000000000000000000000000000000000000000000000000000000000000000000000000000000000000000000000000000000000000000000000000000000000000000000000000000000000000000000000000000000000000000000000000000000000000000000000000000000000000000000000000000000000000000000000000000000000000000000000000000000000000000000000000000
#037351:00380000
#039381:14000034340000000000005323000000
#0393a1:00000000000000343400000000000000
#039340:14000034340000000000000000000000
#039320:00000000000000343400000000000000
#039350:00000000000000000000005323000000
#042380:12000000000000000000000000000000000000000000000000000000000000000000000000000000000000000000000000320000000000000000000000000000
#043370:00000000000000000000000000000034
#043380:00000000000000000000000000000000000000000000000000000000000000000000000000000000000000000000000000000000000000000000000000340000
#0443b0:00000000000000000000000000230000
#027950:0000000013230000
#0409c0:12
#041980:000000000000000000000000000000000000000000000000000000000000000000000000000000000000000000000000000000000000000000000000000000000000000000000000000000000000000000000000000000000000000000000000000000000000000000000000000000000000000000000000000000000000000000000000000000000000000000000000000000005252220000000000000000000000000000000000000000000000000000000000000000000000000000000000000000000000000000000000000000000000000000000000000000000000000000000000000000000000000000000000000000000000000000000000000000000000000000000000000000000000000000000000000000000000000000000000000000000000000000000000000000000000000000000000000000000000000000000000000000000000000000000000000000000000000000000000000000000000000000000000000000000000000000000000000000000000000000000000000000000000000000000000000000000000000000000000000000000000000000000000000000000000000000000000000000000000000000000000000000000000000000000000000000000000000000000000000000000000000000000000000000000000000000000000000000000000000000000000000000000000000000000000000000000000000000000000000000000000000000000000000000000000000000000000000000000000000000000000000000000000000000000000000000000000000000000000000000000000000000000000000000000000000000000000000000000000000000000000000000000000000000000000000000000000000000000000000000000000000000000000000000000000000000000000000000000000000000000000000000000000000000000000000000000000000000000000000000000000000000000000000000000000000000000000000000000000000000000000000000000000000000000000000000000000000000000000000000000000000000000000000000000000000000000000000000000000000000000000000000000000000000000000000000000000000000000000000000000000000000000000000000000000000000000000000000000000000000000000000000000000000000000000000000000000000000000000000000000000000000000000000000000000000000000000000000000000000000000000000000000000000000000000000000000000000000000000000000000000000000000000000000000000000000000000000000000000000000000000000000000000000000000000000000000000000000000000000000000000000000000000000000000000000000000000000000000000000000000000000000000000000000000000000000000000000000000000000000000000000000000000000000000000000000000000000000000000000000000000000000000000000000000000000000000000000000000000000000000000000000000000000000000000000000000000000000000000000000000000000000000000000000000000000000000000000000000000000000000000000000000000000000000000000000000000000000000000000000000000000000000000000000000000000000000000000000000000000000000000000000000000000000000000000000000000000000000000000000000000000000000000000000000000000000000000000000000000000000000000000000000000000000000000000000000000000000000000000000000000000000000000000000000000000000000000000000000000000000000000000000000000000000000000000000000000000000000000000000000000000000000000000000000000000000000000000000000000000000000000000000000000000000000000000000000000000000000000000000000000000000000000000000000000000000000000000000000000000000000000000000000000000000000000000000000000000000000000000000000000000000000000000000000000000000000000000000000000000000000000000000000000000000000000000000000000000000000000000000000000000000000000000000000000000000000000000000000000000000000000000000000000000000000000000000000000000000000000000000000000000000000000000000000000000000000000000000000000000000000000000000000000000000000000000000000000000000000000000000000000000000000000000000000000000000000000000000000000000000000000000000000000000000000000000000000000000000000000000000000000000000000000000000000000000000000000000000000000000000000000000000000000000000000000000000000000000000000000000000000000000000000000000000000000000000000000000000000000000000000000000000000000000000000000000000000000000000000000000000000000000000000000000000000000000000000000000000000000000000000000000000000000
