This file was generated by Ched 2.7.0.0.
#TITLE ""
#ARTIST ""
#DESIGNER ""
#DIFFICULTY 0
#PLAYLEVEL
#SONGID ""
#WAVE ""
#WAVEOFFSET 0
#JACKET ""
#REQUEST "ticks_per_beat 480"
#00002: 4
#BPM01: 88
#00008: 01
#TIL00: ""
#VOLUME: ""
#HISPEED 00
#MEASUREHS 00
#01212:14
#01214:0014
#0121a:00140000
#01218:00000014
#01210:41
#01312:14
#0131a:00140000
#01314:00000014
#0161a:14
#01612:00140000
#01618:0014
#01614:00000014
#0171a:14
#01712:00140000
#01718:00000014
#01918:0014
#01914:00000014
#02412:1414
#02414:00140000
#0251a:1414
#02518:00140000
#02612:1414
#02614:00140000
#02812:00160000
#02818:2614
#0281f:21
#02810:00410000
#02918:00160000
#02914:0014
#02912:16
#03018:1614
#03012:00160000
#03112:14
#03116:00140000
#0311a:0014
#03218:00160000
#03214:0014
#03212:26
#03314:00140014
#03318:1414
#0351a:0014
#03512:0014
#03518:24000024
#03514:0000000000000024
#0361a:24000014
#03614:00140000
#03618:0000001400000000
#03612:0014
#03610:41
#03714:1414
#03718:00140014
#0231f:0011
#02312:24
#02316:00240000
#0231a:0024
#02310:41
#0271a:24
#02716:00240000
#02712:0024
#0341a:24
#03419:0024
#0381a:24
#03819:0024
#03918:24
#01810:41
#00510:41
#04416:00000000000000000000000000580000
#04012:5400000000000000540000000000000000540000000000000000540000000000
#04112:00000000005400000000000000000000000000000000000054000000000000000000540000000000000000005400000000000000000000000000000000000000
#04212:54
#01252:14
#0165a:14
#02452:5454
#02454:00240000
#0255a:6464
#02558:00240000
#02652:5454
#02654:00240000
#02858:1664
#02954:0054
#03058:0064
#0315a:0014
#03254:0054
#03252:16
#03954:0014
#03958:0014
#001380:14
#0013a0:0034
#002380:34
#0023a0:0024
#003340:14
#003320:0034
#004340:34
#004320:0024
#005380:14
#0053a0:0024
#006340:14
#006320:0024
#007380:14
#0073a0:0024
#008320:14240000
#008380:00001424
#009340:14240000
#0093a0:00001424
#010320:14240000
#010380:00001424
#011340:14240000
#0113a0:00001424
#014380:14240000
#014340:00001424
#0153a0:14240000
#015320:00001424
#018340:14240000
#018380:00001424
#019320:14240000
#0203a0:1434
#020380:00340024
#021320:1434
#021340:00340024
#0223a0:1434
#022380:00340024
#024320:1434
#024340:00340024
#0253a0:1434
#025380:00340024
#026320:1434
#026340:00340024
#028380:0014
#0283a0:00000024
#029340:0014
#029320:00000024
#030380:0014
#0303a0:00000024
#032340:0014
#032320:00000024
#034320:14240000
#0343a1:14240000
#034331:00001424
#034390:00001424
#035340:14240000
#035381:14240000
#038321:14240000
#0383a0:14240000
#038330:00001424
#038391:00001424
#039341:14342400
#039380:14342400
#042380:00000014
#044360:00000000000000000000000000280000
#040920:14
#042920:24
