This file was generated by Ched 2.7.0.0.
#TITLE ""
#ARTIST ""
#DESIGNER ""
#DIFFICULTY 0
#PLAYLEVEL
#SONGID ""
#WAVE ""
#WAVEOFFSET 0
#JACKET ""
#REQUEST "ticks_per_beat 480"
#00002: 4
#BPM01: 140
#00008: 01
#TIL00: ""
#VOLUME: ""
#HISPEED 00
#MEASUREHS 00
#02518:14
#00112:2414
#00714:14
#00814:14
#02118:14
#02614:14
#04514:14
#04510:41
#05016:18
#06712:16
#06718:0016
#0001a:2414
#00218:2414
#00314:2414
#0041a:14
#00412:0014
#00518:14
#00510:41
#00618:14
#01612:14
#0131a:14
#0151a:14
#01412:14
#02014:14
#01718:14
#01710:41
#01918:14
#01814:14
#02314:14
#0271a:14
#02712:0014
#02912:2616
#02910:41
#03018:1616
#03112:16
#03118:0016
#03318:16
#03312:0016
#03418:16
#03412:0016
#03718:2616
#03710:41
#03812:1616
#03918:16
#03912:0016
#04112:16
#04118:0016
#04318:16
#04312:0016
#04614:14
#04718:14
#0591a:14
#06212:16
#06218:0016
#06418:16
#06412:0016
#06518:2600001600000000
#0521f:11
#06012:26
#0601f:21
#06118:26
#06110:41
#06812:26
#02158:54
#05056:68
#02354:64
#0595a:64
#06052:56
#06158:66
#06558:0000005600000000
#0093a0:1424
#010320:1424
#011380:1424
#012340:1424
#021380:14
#0223a0:24
#023340:14
#024320:24
#028380:1424
#032320:1626
#035380:1626
#036320:1626
#040380:1626
#042320:1626
#044380:1626
#048380:14
#050360:38
#051380:24
#052340:14
#053340:24
#054380:14
#055380:24
#056320:14
#057320:24
#0583a0:14
#0593a0:34
#059380:0024
#060320:16
#060340:0026
#061380:16
#061360:0026
#063320:1626
#065380:1600003600000000
#066390:00000024
#068320:16003626
