This file was generated by Ched 2.7.0.0.
#TITLE ""
#ARTIST ""
#DESIGNER ""
#DIFFICULTY 0
#PLAYLEVEL
#SONGID ""
#WAVE ""
#WAVEOFFSET 0
#JACKET ""
#REQUEST "ticks_per_beat 480"
#00002: 4
#BPM01: 140
#00008: 01
#TIL00: ""
#VOLUME: ""
#HISPEED 00
#MEASUREHS 00
#0521f:11
#05216:00130000
#0521b:00000013
#05212:13
#06318:00001300001300000000000013000000
#06316:00000000000000140000000000000000
#06315:0000130000000013
#0631b:13
#06312:13
#06215:00001300001300000000130000001300
#06216:00000000000000140000000000000000
#06218:00130013
#06212:13
#0621b:13
#02615:00001300130000000000130000130000
#02618:1300001300001300
#02612:2300001300000000
#0261b:0013000013000000
#02518:00001300130000000000130000130000
#02512:0013000013000000
#02515:1300001300001300
#0251b:2300001300000000
#01818:13000000000000130000000000001300
#01812:23000000000000130000000000000000
#01815:00130000
#0181b:0013000000000000
#01715:13000000000000130000000000001300
#0171b:23000000000000130000000000000000
#01718:00130000
#01712:0013000000000000
#01710:41
#01618:00000000130000130000000000001300
#0161b:13
#01612:23000013
#01615:0013000000000000
#01312:13
#01315:0013000013000013
#01318:00000000130000000000001300000000
#0131b:2300001300000000
#0141b:13
#01418:0013000013000013
#01415:00000000130000000000001300000000
#01412:2300001300000000
#02015:13
#0201a:00002424
#02012:0000000000240000
#0191b:2300001300000013
#01918:00130013
#01912:1300000000130000
#01915:0013000013000000
#01515:0013001300001300
#01512:1313
#01518:0000130000000013
#0151b:2313
#00715:0000130013000013
#0071b:0013
#00718:1300001300001300
#00712:13
#0061b:00000000000013000000001300000000
#00612:1313
#00615:0013000000000013
#00618:00130000
#00512:00000000000013000000001300000000
#0051b:2313
#00518:0013000000000013
#00515:00130000
#00510:41
#05012:15
#05019:15
#05015:0014
#05017:000000000000000000000000000000000000000000000000000000000000000000000000000000000000000000000000000000000000000000000000000000000000000000000000000000000000000000000000000000000000000000000000000000000000000000000000000000000000000000000000000000000000000000000000000000000000000000000000000000000000000000000000000000000000000000000000000000000000000000000000000000000000000000000000000000000000000000000000000000000000000000000000000000000000000000000000000000000000000000000000000000000000000000000000000000000000000000000000000000000000000000000000000000000000000000000000000000000000000000000000000000000000000000000000000000000000000000000000000000000000000000000000000000000000000000000000000000000000000000000000000000000000000000000000000000000000000000000000000000000000000000000000000000000000000000000000000000000000000000000000000000000000000000000000000000000000000000000000000000000000000000000000000000000000000000000000000000000000000000000000000000000000000000000000000000000000000000000000000000000000000000000000000000000000000000000000000000000000000000000000000000000000000000000000000000000000000000000000000000000000000000000000000000000000000000000000000000000000000000000000000000000000000000000000000000000000000000000000000000000000000000000000000000000000000000000000000000000000000000000000000000000000000000000000000000000000000000000000000000000000000000000000000000000000000000000000000000000000000000000000000000000000000000000000000000000000000000000000000000000000000000000000000000000000000000000000000000000000000000000000000000000000000000000000000000000000000000000000000000000000000000000000000000000000000000000000000000000000000000000000000000000000000000000000000000000000000000000000000000000000000000000000000000000000000000000000000000000000000000000000000000000000000000000000000000000000000000000000000000000000000000000000000000000000000000000000000000000000000000000000001400000000000000000000000000000000000000000000000000000000000000000000000000000000000000000000000000000000000000000000000000000000000000000000000000000000000000000000000000000000000000000000000000000000000000000000000000000000000000000000000000000000000000000000000000000000000000000000000000000000000000000000000000000000000000000000000000000000000000000000000000000000000000000000000000000000000000000000000000000000000000000000000000000000000000000000000000000000000000000000000000000000000000000000000000000000000000000000000000000000000000000000000000000000000000000000000000000000000000000000000000000000000000000000000000000000000000000000000000000000000000000000000000000000000000000000000000000000000000000000000000000000000000000000000000000000000000000000000000000000000000000000000000000000000000000000000000000000000000000000000000000000000000000000000000000000000000000000000000000000000000000000000000000000000000000000000000000000000000000000000000000000000000000000000000000000000000000000000000000000000000000000000000000000000000000000000000000000000000000000000000000000000000000000000000000000000000000000000000000000000000000000000000000000000000000000000000000000000000000000000000000000000000000000000000000000000000000000000000000000000000000000000000000000000000000000000000000000000000000000000000000000000000000000000000000000000000000000000000000000000000000000000000000000000000000000000000000000000000000000000000000000000000000000000000000000000000000000000000000000000000000000000000000000000000000000000000000000000000000000000000000000000000000000000000000000000000000000000000000000000000000000000000000000000000000000000000000000000000000000000000000000000000000000000000000000000000000000000000000000000000000000000000000000000000000000000000000000000000000000000000000000000000000000000000000000000000000000000000000000000000000000000000000000000000000000000000000000000000000000
#04018:13000000001300000000000013000000
#04016:00000000000000130000000000000000
#04012:00130000
#04015:0013000000000013
#03915:13000000001300000000130000000000
#03917:00000000000000130000000000000000
#0391b:0000130000000013
#03918:0013000000001300
#0411b:1300000000000013
#04117:0000001300000000
#04112:00131300
#04118:00000013
#04115:0000000000130000
#03816:24000000000000000014000014000000
#0381a:00000014000000000000000000000000
#03818:0000001400000000
#03812:2400000000000013
#03715:0000001400000023
#03713:0014000000000000
#03714:00140000
#03716:2414
#03718:00000023
#0371b:0000000000230000
#0371a:24
#03710:41
#03616:00000013000000000000000000000000
#03612:1300000000230000
#03618:2600001300000023
#03615:00000000000000130000000023000000
#0361b:0013
#03415:13000000001300000000000000000000
#03416:0000000000000013
#03412:0013000000001300
#03417:0000000000000000000000000000000000000013000000000000000000000000
#0341b:00000000000000130000000023000000
#03418:00130000
#03512:2300130000000013
#0351b:1313
#03515:00000013
#03518:0000000000130000
#03516:0023
#03318:1300130000000013
#03312:0013
#0331b:0013000000001300
#03315:0000001300000000
#03218:00000000001300000000000000000000
#0321b:00001300000000130000000000000000
#03212:13000013
#03215:0000130000000013
#03115:00000000001300000000000000001300
#03112:00000000000000130000000000000000
#0311b:0000000000130000
#03118:00130013
#03116:0014000000000000
#02715:0000001300131300
#02718:0013130000000013
#0271b:23000000000000000000001300000000
#02712:00000013000000002300000000000000
#02812:1c
#02816:0000000000240000
#02814:00000028
#06815:00160000
#06812:26002626
#06818:2600000000260000
#06712:0014000026001600
#06718:13001626
#06716:00140000
#0671a:0000001400000000
#06616:00160000000000000000000000000000
#06615:00000000000000000000000000000013
#06618:0000000000000013
#06612:00000066
#06416:0014001400001400
#06412:1400000024000014
#0641a:2400140000140000
#0081b:13000013
#00815:00000000130000130000000000000000
#00812:13
#00818:0013000000000000
#00417:000000000000000000000000000000000000000000000000000000000000000000000000000000000000000000000000000000000000000000000000000000000000000000000000000000000000000000000000000000000000000000000000000000000000000000000000000000000000000000000000000000000000000000000000000000000000000000000000000000000000000000000000000000000000000000000000000000000000000000000000000000000000000000000000000000000000000000000000000000000000000000000000000000000000000000000000000000000000000000000000000000000000000000000000000000000000000000000000000000000000000000000000000000000000000000000000000000000000000000000000000000000000000000000000000000000000000000000000000000000000000000000000000000000000000000000000000000000000000000000000000000000000000000000000000000000000000000000000000000000000000000000000000000000000000000000000000000000000000000000000000000000000000000000000000000000000000000000000000000000000000000000000000000000000000000000000000000000000000000000000001400000000000000000000000000000000000000000000000000000000000000000000000000000000000000000000000000000000000000000000000000000000000000000000000000000000000000000000000000000000000000000000000000000000000000000000000000000000000000000000000000000000000000000000000000000000000000000000000000000000000000000000000000000000000000000000000000000000000000000000000000000000000000000000000000000000000000000000000000000000000000000000000000000000000000000000000000000000000000000000000000000000000000000000000000000000000000000000000000000000000000000000000000000000000000000000000000000000000000000000000000000000000000000000000000000000000000000000000000000000000000000000000000000000000000000000000000000000000000000000000000000000000000000000000000000000000000000000000000000000000000000000000000000000000000000000000000000000000000000000000000000000000000000000000000000000000000000000000000000000000000000000000000000000000000000000000000000000000000000000000000000000000000000000000000000000000000000000000000000000000000000000000000000000000000000000000000000000000000000000000000000000000000000000000000000000000000000000000000000000000000000000000000000000000000000000000000000000000000000000000000000000000000000000000000000000000000000000000000000000000000000000000000000000000000000000000000000000000000000000000000000000000000000000000000000000000000000000000000000000000000000000000000000000000000000000000000000000000000000000000000000000000000000000000000000000000000000000000000000000000000000000000000000000000000000000000000000000000000000000000000000000000000000000000000000000000000000000000000000000000000000000000000000000000000000000000000000000000000000000000000000000000000000000000000000000000000000000000000000000000000000000000000000000000000000000000000000000000000000000000000000000000000000000000000000000000000000000000000000000000000000000000000000000000000000000000000000000000000000000000000000000000000000000000000000000000000000000000000000000000000000000000000000000000000000000000000000000000000000000000000000000000000000000000000000000000000000000000000000000000000000000000000000000000000000000000000000000000000000000000000000000000000000000000000000000000000000000000000000000000000000000000000000000000000000000000000000000000000000000000000000000000000000000000000000000000000000000000000000000000000000000000000000000000000000000000000000000000000000000000000000000000000000000000000000000000000000000000000000000000000000000000000000000000000000000000000000000000000000000000000000000000000000000000000000000000000000000000000000000000000000000000000000000000000000000000000000000000000000000000000000000000000000000000000000000000000000000000000000000000000000000000000000000000000000000000000000000000000000000000000000000000000000000000000000000000000000000000000000000000000000000000000000000000000000000000000000000000000000000
#00415:00140000
#00412:14000024
#0041a:14000024
#00414:0024
#00418:0024
#02415:16
#0241a:00140000
#02419:0015
#02418:00000016
#04415:1300000000130000
#04418:00001313
#05812:00131300
#0581b:13000013
#05817:0000001300000013
#0611a:2414
#06116:0014001400000000
#06112:24240013
#06119:0000000000000013
#06110:41
#06016:0014001400000000
#06012:2414
#0601f:21
#0601a:24240000
#06015:0000000000230023
#06018:00000023
#05914:00140000
#05918:0000140000230023
#0591b:13
#05912:13
#05915:00000023
#0431b:0000001300000013
#04318:00130013
#04312:1300000000130000
#04315:0013000013000000
#04616:0000000014140000
#04612:0024000000000014
#0461a:24000000000000000000001400000000
#04716:0000000014140000
#0471a:0024000000000014
#04712:24000000000000000000001400000000
#04516:0000000014140000
#0451a:0024000000000014
#04512:24000000000000000000001400000000
#04510:41
#0571b:00000013
#05712:00130000
#05617:00000013
#05616:00130000
#0531b:00000013
#05316:00130000
#05412:00130000
#05417:00000013
#05512:00130000
#05517:00000013
#04913:00000000000000000000000000000000000000160000001600000016000000160000001600000016000000160000001600000016000000000000000000000000
#04917:00150000001500000015000000150000001600000016000000160000001600000016000000160000001600000016000000160000000000000000000000000000
#04914:00000015000000150000001500000015000000000000000000000000000000000000000000000000000000000000000000000000280000000000000000000000
#04814:00000000000000000000000000000000000000000000000000000000000000000000000000000000000000000000000000000015000000150000001500000015
#04817:00000000000000140000000000140000001400000014000000140000001400000014000000140000001400000014000000150000001500000015000000150000
#04815:00000000000000000000000000000014000000140000001400000014000000140000001400000014000000140000001400000000000000000000000000000000
#04816:00000000000000000000001400000000000000000000000000000000000000000000000000000000000000000000000000000000000000000000000000000000
#04818:00000014000000000014000000000000000000000000000000000000000000000000000000000000000000000000000000000000000000000000000000000000
#04819:00000000001400000000000000000000000000000000000000000000000000000000000000000000000000000000000000000000000000000000000000000000
#0481a:14
#04218:00000000000000000000000000000013
#04215:0000000000000013
#0421a:0000002400000000
#04216:00000024000000000000000000000000
#04212:24
#0301a:2400000000000014
#03016:0000001400000000
#03012:2400000000001424
#02916:00140024
#0291a:2414
#02912:24
#02914:0000000000000024
#02918:0000000000240000
#02910:41
#0231a:0014
#02318:0000001400000000
#02316:00140000
#02314:0014000000000000
#02312:14
#0231b:13
#02218:0014000000000013
#02215:00000013
#02212:1314
#02214:0000001400000000
#02216:00140000
#0221a:14
#02115:0000130000000013
#02118:0000001300001300
#0211b:0013
#02112:23
#01115:0013000013000000
#01118:00130013
#0111b:1300001300000000
#01112:13
#0121b:13
#01212:13
#01218:0023
#01215:0023
#01016:0000001400000014
#01012:24002400240000000000140000140000
#01014:0014
#01018:1414140000000000
#00916:0000001400000014
#0091a:24002400240000000000140000140000
#00918:0014
#00914:1414140000000000
#00316:00000000000000000000001400001400
#0031b:0000000000130000
#00318:0026000000000000
#00312:26000000003636360000000000000000
#00118:0026000000130000
#0011b:0000000000000013
#00112:26000000003636360000001300000000
#00016:00000000000000000000001400001400
#00012:0026000000130000
#00018:26000000003636360000000000000000
#00215:0000000000130000
#00212:0026000000000013
#0021b:00000000000000000000001300000000
#00218:26000000003636360000000000000000
#06512:0000002600000000
#06518:2400002600000000
#06514:00000024000000000000000000000000
#05112:53
#0511b:53
#0635b:00000000000000130000000000000000
#06358:00000000005300000000000000000000
#06356:00000000000000640000000000000000
#06252:00000000000000130000000000000000
#06255:00000000006300000000000000000000
#06256:00000000000000540000000000000000
#06152:34543400
#0615a:64446400
#06156:0024002400000000
#0605a:44644400
#06052:54340000
#06056:0024002400000000
#05952:5315
#05959:0015
#05954:00640000
#05958:00540000
#0595b:63
#04752:14000000000000001400005400000000
#0475a:0014000000000000
#0465a:14000000000000001400006400000000
#04652:0014000000000000
#04552:14000000000000001400005400000000
#0455a:0014000000000000
#0245b:13
#02455:66
#0245a:00140000
#02459:0015
#02458:00000016
#00356:00000000000000001400006400000000
#00358:0016000000000000
#00352:16
#0025b:00000000000000001300006300000000
#00252:0016000000000000
#00258:16
#00152:16000000000000001300005300000000
#00158:0016000000000000
#00056:00000000000000001400005400000000
#00052:0016000000000000
#00058:16
#06852:36003636
#06858:6600000000460000
#06855:00260000
#0205a:00001414
#02052:0000000000140000
#02055:63
#06552:0000005600000000
#06558:1400001600000000
#06554:00000014000000000000000000000000
#03856:54000000000000000024000000000000
#03852:14
#0385a:00000024000000000000000000000000
#03858:0000006400000000
#03756:64
#0375a:14
#03755:0000002400000000
#03753:0024000000000000
#03754:00540000
#03658:46
#03656:00000023000000000000000000000000
#03652:53
#03556:0013
#03552:33530000
#0355b:63
#0345b:00000000000000630000000043000000
#03456:0000000000000023
#03452:00000053
#03457:0000000000000000000000000000000000000023000000000000000000000000
#0305a:64
#03052:14
#03056:0000002400000000
#02952:54
#0295a:14
#02956:00240000
#06758:00000046
#06752:0036
#06452:5414
#0645a:14
#06456:0024000000000000
#0425a:0000001400000000
#04256:00000014000000000000000000000000
#04252:14
#02856:0000000000140000
#02854:00000018
#02852:6c
#01258:0013
#01255:0013
#0125b:63
#01252:53
#00452:54000014
#0045a:64000014
#00454:0014
#00458:0014
#00457:000000000000000000000000000000000000000000000000000000000000000000000000000000000000000000000000000000000000000000000000000000000000000000000000000000000000000000000000000000000000000000000000000000000000000000000000000000000000000000000000000000000000000000000000000000000000000000000000000000000000000000000000000000000000000000000000000000000000000000000000000000000000000000000000000000000000000000000000000000000000000000000000000000000000000000000000000000000000000000000000000000000000000000000000000000000000000000000000000000000000000000000000000000000000000000000000000000000000000000000000000000000000000000000000000000000000000000000000000000000000000000000000000000000000000000000000000000000000000000000000000000000000000000000000000000000000000000000000000000000000000000000000000000000000000000000000000000000000000000000000000000000000000000000000000000000000000000000000000000000000000000000000000000000000000000000000000000000000000000000000002400000000000000000000000000000000000000000000000000000000000000000000000000000000000000000000000000000000000000000000000000000000000000000000000000000000000000000000000000000000000000000000000000000000000000000000000000000000000000000000000000000000000000000000000000000000000000000000000000000000000000000000000000000000000000000000000000000000000000000000000000000000000000000000000000000000000000000000000000000000000000000000000000000000000000000000000000000000000000000000000000000000000000000000000000000000000000000000000000000000000000000000000000000000000000000000000000000000000000000000000000000000000000000000000000000000000000000000000000000000000000000000000000000000000000000000000000000000000000000000000000000000000000000000000000000000000000000000000000000000000000000000000000000000000000000000000000000000000000000000000000000000000000000000000000000000000000000000000000000000000000000000000000000000000000000000000000000000000000000000000000000000000000000000000000000000000000000000000000000000000000000000000000000000000000000000000000000000000000000000000000000000000000000000000000000000000000000000000000000000000000000000000000000000000000000000000000000000000000000000000000000000000000000000000000000000000000000000000000000000000000000000000000000000000000000000000000000000000000000000000000000000000000000000000000000000000000000000000000000000000000000000000000000000000000000000000000000000000000000000000000000000000000000000000000000000000000000000000000000000000000000000000000000000000000000000000000000000000000000000000000000000000000000000000000000000000000000000000000000000000000000000000000000000000000000000000000000000000000000000000000000000000000000000000000000000000000000000000000000000000000000000000000000000000000000000000000000000000000000000000000000000000000000000000000000000000000000000000000000000000000000000000000000000000000000000000000000000000000000000000000000000000000000000000000000000000000000000000000000000000000000000000000000000000000000000000000000000000000000000000000000000000000000000000000000000000000000000000000000000000000000000000000000000000000000000000000000000000000000000000000000000000000000000000000000000000000000000000000000000000000000000000000000000000000000000000000000000000000000000000000000000000000000000000000000000000000000000000000000000000000000000000000000000000000000000000000000000000000000000000000000000000000000000000000000000000000000000000000000000000000000000000000000000000000000000000000000000000000000000000000000000000000000000000000000000000000000000000000000000000000000000000000000000000000000000000000000000000000000000000000000000000000000000000000000000000000000000000000000000000000000000000000000000000000000000000000000000000000000000000000000000000000000000000000000000000000000000000000000000000000000000000000000000000000000000000000000000000000000000
#00455:00240000
#04954:00000055000000550000005500000055000000000000000000000000000000000000000000000000000000000000000000000000180000000000000000000000
#04953:00000000000000000000000000000000000000560000005600000056000000560000005600000056000000560000005600000056000000000000000000000000
#04957:00650000006500000065000000650000006600000066000000660000006600000066000000660000006600000066000000660000000000000000000000000000
#02655:00000000630000000000000000130000
#02652:0000002300000000
#0265b:0023000000000000
#02658:53
#02558:00000000530000000000000000130000
#02552:0023000000000000
#02555:63
#0255b:0000002300000000
#01858:00000000000000530000000000000000
#01852:00000000000000530000000000000000
#01755:00000000000000630000000000000000
#0175b:00000000000000630000000000000000
#01658:00000000000000530000000000000000
#0195b:0000000000000023
#01958:00000053
#01952:0000000000230000
#01955:0063
#0155b:0063
#01455:00000000000000000000006300000000
#01458:0053
#01358:00000000000000000000005300000000
#01355:0063
#00755:0063
#00758:53
#0065b:00000000000000000000006300000000
#00652:0053
#00552:00000000000000000000005300000000
#0055b:0063
#05052:55
#05059:65
#05055:0024
#05057:000000000000000000000000000000000000000000000000000000000000000000000000000000000000000000000000000000000000000000000000000000000000000000000000000000000000000000000000000000000000000000000000000000000000000000000000000000000000000000000000000000000000000000000000000000000000000000000000000000000000000000000000000000000000000000000000000000000000000000000000000000000000000000000000000000000000000000000000000000000000000000000000000000000000000000000000000000000000000000000000000000000000000000000000000000000000000000000000000000000000000000000000000000000000000000000000000000000000000000000000000000000000000000000000000000000000000000000000000000000000000000000000000000000000000000000000000000000000000000000000000000000000000000000000000000000000000000000000000000000000000000000000000000000000000000000000000000000000000000000000000000000000000000000000000000000000000000000000000000000000000000000000000000000000000000000000000000000000000000000000000000000000000000000000000000000000000000000000000000000000000000000000000000000000000000000000000000000000000000000000000000000000000000000000000000000000000000000000000000000000000000000000000000000000000000000000000000000000000000000000000000000000000000000000000000000000000000000000000000000000000000000000000000000000000000000000000000000000000000000000000000000000000000000000000000000000000000000000000000000000000000000000000000000000000000000000000000000000000000000000000000000000000000000000000000000000000000000000000000000000000000000000000000000000000000000000000000000000000000000000000000000000000000000000000000000000000000000000000000000000000000000000000000000000000000000000000000000000000000000000000000000000000000000000000000000000000000000000000000000000000000000000000000000000000000000000000000000000000000000000000000000000000000000000000000000000000000000000000000000000000000000000000000000000000000000000000000000000000000000000002400000000000000000000000000000000000000000000000000000000000000000000000000000000000000000000000000000000000000000000000000000000000000000000000000000000000000000000000000000000000000000000000000000000000000000000000000000000000000000000000000000000000000000000000000000000000000000000000000000000000000000000000000000000000000000000000000000000000000000000000000000000000000000000000000000000000000000000000000000000000000000000000000000000000000000000000000000000000000000000000000000000000000000000000000000000000000000000000000000000000000000000000000000000000000000000000000000000000000000000000000000000000000000000000000000000000000000000000000000000000000000000000000000000000000000000000000000000000000000000000000000000000000000000000000000000000000000000000000000000000000000000000000000000000000000000000000000000000000000000000000000000000000000000000000000000000000000000000000000000000000000000000000000000000000000000000000000000000000000000000000000000000000000000000000000000000000000000000000000000000000000000000000000000000000000000000000000000000000000000000000000000000000000000000000000000000000000000000000000000000000000000000000000000000000000000000000000000000000000000000000000000000000000000000000000000000000000000000000000000000000000000000000000000000000000000000000000000000000000000000000000000000000000000000000000000000000000000000000000000000000000000000000000000000000000000000000000000000000000000000000000000000000000000000000000000000000000000000000000000000000000000000000000000000000000000000000000000000000000000000000000000000000000000000000000000000000000000000000000000000000000000000000000000000000000000000000000000000000000000000000000000000000000000000000000000000000000000000000000000000000000000000000000000000000000000000000000000000000000000000000000000000000000000000000000000000000000000000000000000000000000000000000000000000000000000000000000000000000000000
#04058:00000000005300000000000000000000
#04056:00000000000000630000000000000000
#03955:00000000006300000000000000000000
#03957:00000000000000530000000000000000
#0415b:63
#03352:0053
#03258:00000000005300000000000000000000
#0325b:00000000000000630000000000000000
#03155:00000000006300000000000000000000
#03152:00000000000000530000000000000000
#02755:00000063
#02758:00530000
#06656:00260000000000000000000000000000
#00855:00000000000000630000000000000000
#04455:6300000000130000
#04458:00001313
#05852:0053
#0585b:63000063
#05857:0000000000000023
#0435b:0000000000000023
#04358:00000053
#04352:0000000000230000
#04355:0063
#04854:00000000000000000000000000000000000000000000000000000000000000000000000000000000000000000000000000000055000000550000005500000055
#04857:00000000000000540000000000640000006400000064000000640000006400000064000000640000006400000064000000650000006500000065000000650000
#04855:00000000000000000000000000000054000000540000005400000054000000540000005400000054000000540000005400000000000000000000000000000000
#04856:00000000000000000000005400000000000000000000000000000000000000000000000000000000000000000000000000000000000000000000000000000000
#04858:00000054000000000064000000000000000000000000000000000000000000000000000000000000000000000000000000000000000000000000000000000000
#04859:00000000006400000000000000000000000000000000000000000000000000000000000000000000000000000000000000000000000000000000000000000000
#0485a:64
#01155:0063
#01158:00000053
#000380:00000000163636360000000000000000
#000360:0024
#000360:00000000000000000000001400000000
#0003a0:0000000000000024
#001320:00000000163636362300000000000000
#001320:00000000000000000000001300000000
#001360:0000000000000024
#002380:00000000163636360000000000000000
#0023b0:0023
#0023b0:00000000000000000000001300000000
#002360:0000000000000024
#003320:00000000163636360000000000000000
#003360:0024
#003360:00000000000000000000001400000000
#003320:0000000000000024
#004320:14
#004350:00540000
#004340:0024
#0043a1:14
#004371:000000000000000000000000000000000000000000000000000000000000000000000000000000000000000000000000000000000000000000000000000000000000000000000000000000000000000000000000000000000000000000000000000000000000000000000000000000000000000000000000000000000000000000000000000000000000000000000000000000000000000000000000000000000000000000000000000000000000000000000000000000000000000000000000000000000000000000000000000000000000000000000000000000000000000000000000000000000000000000000000000000000000000000000000000000000000000000000000000000000000000000000000000000000000000000000000000000000000000000000000000000000000000000000000000000000000000000000000000000000000000000000000000000000000000000000000000000000000000000000000000000000000000000000000000000000000000000000000000000000000000000000000000000000000000000000000000000000000000000000000000000000000000000000000000000000000000000000000000000000000000000000000000000000000000000000000000000000000000000000000005400000000000000000000000000000000000000000000000000000000000000000000000000000000000000000000000000000000000000000000000000000000000000000000000000000000000000000000000000000000000000000000000000000000000000000000000000000000000000000000000000000000000000000000000000000000000000000000000000000000000000000000000000000000000000000000000000000000000000000000000000000000000000000000000000000000000000000000000000000000000000000000000000000000000000000000000000000000000000000000000000000000000000000000000000000000000000000000000000000000000000000000000000000000000000000000000000000000000000000000000000000000000000000000000000000000000000000000000000000000000000000000000000000000000000000000000000000000000000000000000000000000000000000000000000000000000000000000000000000000000000000000000000000000000000000000000000000000000000000000000000000000000000000000000000000000000000000000000000000000000000000000000000000000000000000000000000000000000000000000000000000000000000000000000000000000000000000000000000000000000000000000000000000000000000000000000000000000000000000000000000000000000000000000000000000000000000000000000000000000000000000000000000000000000000000000000000000000000000000000000000000000000000000000000000000000000000000000000000000000000000000000000000000000000000000000000000000000000000000000000000000000000000000000000000000000000000000000000000000000000000000000000000000000000000000000000000000000000000000000000000000000000000000000000000000000000000000000000000000000000000000000000000000000000000000000000000000000000000000000000000000000000000000000000000000000000000000000000000000000000000000000000000000000000000000000000000000000000000000000000000000000000000000000000000000000000000000000000000000000000000000000000000000000000000000000000000000000000000000000000000000000000000000000000000000000000000000000000000000000000000000000000000000000000000000000000000000000000000000000000000000000000000000000000000000000000000000000000000000000000000000000000000000000000000000000000000000000000000000000000000000000000000000000000000000000000000000000000000000000000000000000000000000000000000000000000000000000000000000000000000000000000000000000000000000000000000000000000000000000000000000000000000000000000000000000000000000000000000000000000000000000000000000000000000000000000000000000000000000000000000000000000000000000000000000000000000000000000000000000000000000000000000000000000000000000000000000000000000000000000000000000000000000000000000000000000000000000000000000000000000000000000000000000000000000000000000000000000000000000000000000000000000000000000000000000000000000000000000000000000000000000000000000000000000000000000000000000000000000000000000000000000000000000000000000000000000000000000000000000000000000000000000000000000000000000000000000000000000000000000000000000000000000000000000000000000000000000000000000000
#004381:0024
#0053b1:0013
#005381:00000000000000000000002300000000
#005320:00000000000000000000001300000000
#005350:0000000000000023
#006320:0013
#006350:00000000000000000000002300000000
#0063b1:00000000000000000000001300000000
#006381:0000000000000023
#007381:13
#0073b1:00230000
#007351:0013
#007321:00000023
#008381:00000000001300230000000000000000
#008350:00000000000000130000000000000000
#008320:00000023
#009360:00000000000000000000001400240000
#010360:00000000000000000000001400240000
#011350:0013
#011320:00000023
#011381:00000013
#0123b1:33
#012381:0023
#012320:13
#012350:0023
#013350:0013
#013320:00000000000000000000002300000000
#013381:00000000000000000000001300000000
#0133b1:0000000000000023
#014381:0013
#0143b1:00000000000000000000002300000000
#014350:00000000000000000000001300000000
#014320:0000000000000023
#0153b0:0013
#015380:00000023
#016350:00000000001300230000000000000000
#016381:00000000000000130000000000000000
#0163b1:00000023
#017351:00000000001300330000000000000000
#017321:00000023
#0173b0:00000000000000130000000000000000
#017380:00000023
#018380:00000000001300330000000000000000
#0183b0:00000023
#018321:00000000000000130000000000000000
#018351:00000023
#019351:00001323
#019321:0000000000530000
#019380:00000013
#0193b0:0000000000000053
#020380:23
#020351:13
#020321:0024
#021381:13230000
#021351:00001323
#0223b1:00001323
#023321:00001323
#0233b0:00000013
#0243b0:23
#024351:16
#024321:00000023
#025351:13230000
#025321:0053000000000000
#025380:00132300
#0253b0:0000005300000000
#026380:13230000
#0263b0:0053000000000000
#026351:00132300
#026321:0000005300000000
#027321:1323000000000000
#027381:00130000
#0273b1:0000002300000000
#0273b1:0000000013230000
#027351:00000013
#027321:0000000000000023
#028321:1c
#028361:0000000000240000
#029321:1424
#029361:00540000
#0303a1:14000024
#030361:0000005400000000
#030321:0000000000000014
#031321:24
#0313a0:1424000000000000
#031350:00000000001300000000230000000000
#031320:00000000000000330000000000000000
#032380:00000000001300000000000023000000
#0323b0:00000000000000330000000000000000
#033320:0013
#033350:00000023
#0343b0:00000000000000130000000023000000
#034370:0000000000000000000000000000000000000053000000000000000000000000
#034321:00000013
#034361:0000000000000053
#035321:23
#0353b0:13
#035370:00230000
#035321:00130000
#035361:0023
#036321:1300002300000000
#036361:00000053000000000000000000000000
#037361:14
#037331:0054000000000000
#037341:00540000
#037351:0000005400000000
#037321:0024
#038361:14000000000000000054000000000000
#0383a1:00000054000000000000000024000000
#038381:0000005400000000
#039351:00000000001300000000000000000000
#039321:00000000000000230000000000000000
#039370:00000000000000130000000000000000
#0393b0:0000000000230000
#040380:00000000001300000000000000000000
#0403b0:00000000000000230000000000000000
#040361:00000000000000130000000000000000
#040321:00000023
#0413b1:13
#041371:00230000
#043351:00001323
#043321:0000000000530000
#043380:00000013
#0433b0:0000000000000053
#044380:23
#044351:13
#044321:0023
#045361:00140000
#045351:00000000003400000000000000000000
#045341:0000003400000000
#045331:00000000000000340000000000000000
#045321:0024
#045321:00000000000000000000001400000000
#045361:0000000000000024
#046361:00140000
#046371:00000000003400000000000000000000
#046381:0000003400000000
#046391:00000000000000340000000000000000
#0463a1:0024
#0463a1:00000000000000000000001400000000
#046361:0000000000000024
#047361:00140000
#047351:00000000003400000000000000000000
#047341:0000003400000000
#047331:00000000000000340000000000000000
#047321:0024
#047321:00000000000000000000001400000000
#047361:0000000000000024
#0483a1:14
#048381:00000054000000000054000000000000000000000000000000000000000000000000000000000000000000000000000000000000000000000000000000000000
#048391:00000000005400000000000000000000000000000000000000000000000000000000000000000000000000000000000000000000000000000000000000000000
#048371:00000000000000540000000000540000005400000054000000540000005400000054000000540000005400000054000000550000005500000055000000550000
#048361:00000000000000000000005400000000000000000000000000000000000000000000000000000000000000000000000000000000000000000000000000000000
#048351:00000000000000000000000000000054000000540000005400000054000000540000005400000054000000540000005400000000000000000000000000000000
#048341:00000000000000000000000000000000000000000000000000000000000000000000000000000000000000000000000000000055000000550000005500000055
#049371:00550000005500000055000000550000005600000056000000560000005600000056000000560000005600000056000000560000000000000000000000000000
#049341:00000055000000550000005500000055000000000000000000000000000000000000000000000000000000000000000000000000280000000000000000000000
#049331:00000000000000000000000000000000000000560000005600000056000000560000005600000056000000560000005600000056000000000000000000000000
#050321:15
#050351:0054
#051321:23
#050390:15
#050370:000000000000000000000000000000000000000000000000000000000000000000000000000000000000000000000000000000000000000000000000000000000000000000000000000000000000000000000000000000000000000000000000000000000000000000000000000000000000000000000000000000000000000000000000000000000000000000000000000000000000000000000000000000000000000000000000000000000000000000000000000000000000000000000000000000000000000000000000000000000000000000000000000000000000000000000000000000000000000000000000000000000000000000000000000000000000000000000000000000000000000000000000000000000000000000000000000000000000000000000000000000000000000000000000000000000000000000000000000000000000000000000000000000000000000000000000000000000000000000000000000000000000000000000000000000000000000000000000000000000000000000000000000000000000000000000000000000000000000000000000000000000000000000000000000000000000000000000000000000000000000000000000000000000000000000000000000000000000000000000000000000000000000000000000000000000000000000000000000000000000000000000000000000000000000000000000000000000000000000000000000000000000000000000000000000000000000000000000000000000000000000000000000000000000000000000000000000000000000000000000000000000000000000000000000000000000000000000000000000000000000000000000000000000000000000000000000000000000000000000000000000000000000000000000000000000000000000000000000000000000000000000000000000000000000000000000000000000000000000000000000000000000000000000000000000000000000000000000000000000000000000000000000000000000000000000000000000000000000000000000000000000000000000000000000000000000000000000000000000000000000000000000000000000000000000000000000000000000000000000000000000000000000000000000000000000000000000000000000000000000000000000000000000000000000000000000000000000000000000000000000000000000000000000000000000000000000000000000000000000000000000000000000000000000000000000000000000000000000000000000005400000000000000000000000000000000000000000000000000000000000000000000000000000000000000000000000000000000000000000000000000000000000000000000000000000000000000000000000000000000000000000000000000000000000000000000000000000000000000000000000000000000000000000000000000000000000000000000000000000000000000000000000000000000000000000000000000000000000000000000000000000000000000000000000000000000000000000000000000000000000000000000000000000000000000000000000000000000000000000000000000000000000000000000000000000000000000000000000000000000000000000000000000000000000000000000000000000000000000000000000000000000000000000000000000000000000000000000000000000000000000000000000000000000000000000000000000000000000000000000000000000000000000000000000000000000000000000000000000000000000000000000000000000000000000000000000000000000000000000000000000000000000000000000000000000000000000000000000000000000000000000000000000000000000000000000000000000000000000000000000000000000000000000000000000000000000000000000000000000000000000000000000000000000000000000000000000000000000000000000000000000000000000000000000000000000000000000000000000000000000000000000000000000000000000000000000000000000000000000000000000000000000000000000000000000000000000000000000000000000000000000000000000000000000000000000000000000000000000000000000000000000000000000000000000000000000000000000000000000000000000000000000000000000000000000000000000000000000000000000000000000000000000000000000000000000000000000000000000000000000000000000000000000000000000000000000000000000000000000000000000000000000000000000000000000000000000000000000000000000000000000000000000000000000000000000000000000000000000000000000000000000000000000000000000000000000000000000000000000000000000000000000000000000000000000000000000000000000000000000000000000000000000000000000000000000000000000000000000000000000000000000000000000000000000000000000000000000000000000000
#0513b0:23
#052370:1323
#0523b0:00330000
#052321:0013
#052361:00000033
#053321:23
#053370:1323
#0533b0:00330000
#053321:0013
#053361:00000033
#054321:23
#0543b0:1323
#054370:00330000
#054361:0013
#054321:00000033
#055361:23
#0553b0:1323
#055370:00330000
#055361:0013
#055321:00000033
#056361:23
#0563b0:1353535353535353535353535353535323000000000000000000000000000000
#0563a0:00530053005300530053005300530053005300530053005300530053005300530000000000000000000000000000000000000000000000000000000000000000
#056321:0000000000000000000000000000000013535353535353535353535353535353
#056331:00000000000000000000000000000000000000000000000000000000000000000053005300530053005300530053005300530053005300530053005300530053
#057321:23
#057380:1353535353535353535353535353535323000000000000000000000000000000
#057390:00530053005300530053005300530053005300530053005300530053005300530000000000000000000000000000000000000000000000000000000000000000
#057351:0000000000000000000000000000000013535353535353535353535353535353
#057341:00000000000000000000000000000000000000000000000000000000000000000053005300530053005300530053005300530053005300530053005300530053
#058351:23
#0583b0:13
#058370:00230000
#058320:0013
#058360:00000023
#0583b1:00000013
#058371:0000000000000053
#0593b1:33
#059381:00340000
#059391:0025
#059320:1325
#059340:00340000
#060320:14240000
#060360:0054000000000000
#0603a1:00142400
#060361:0000005400000000
#0613a1:14240000
#061361:0054000000000000
#061320:00142400
#061360:0000005400000000
#0613a1:0014
#061371:00000023
#062351:00000000001300000000000000000000
#062321:00000000000000230000000000000000
#062360:00000000000000140000000000000000
#0623b0:0000000000230000
#063380:00000000001300000000000000000000
#0633b0:00000000000000230000000000000000
#063361:00000000000000140000000000000000
#063321:00000023
#064321:14240000
#064361:0054000000000000
#065321:0000001600000000
#066361:00560000000000000000000000000000
#066321:00000026
#068381:1626
#068351:00560000
