This file was generated by Ched 2.7.0.0.
#TITLE ""
#ARTIST ""
#DESIGNER ""
#DIFFICULTY 0
#PLAYLEVEL
#SONGID ""
#WAVE ""
#WAVEOFFSET 0
#JACKET ""
#REQUEST "ticks_per_beat 480"
#00002: 4
#BPM01: 140
#00008: 01
#TIL00: ""
#VOLUME: ""
#HISPEED 00
#MEASUREHS 00
#06712:13
#06718:00130024
#06715:0013000000000000
#0671b:0000001300000000
#06714:0024
#06618:0000000000000013
#06318:1300130000000013
#06315:00001300000000130000000000000000
#00515:0013001300000013
#00518:23131300
#00510:41
#06112:0000000000000013
#06116:0000001400000000
#0611a:24
#06110:41
#06212:00000013
#06215:13130000
#06218:00001300000000130000000000000000
#0621b:0000000000000013
#01915:13131300
#01918:0013001300000000
#02118:0000000013000013
#02115:0000001300001300
#02418:00000013
#02415:0013
#0241b:00130000
#02514:00001414
#0251a:0000141400000000
#02518:0000000000140000
#02512:1414000000000000
#05019:15
#05012:15
#05818:0000001300001300
#05815:1313
#02018:13
#0201a:0024
#02012:00000024
#0041b:13
#00412:13
#00418:00002324
#00414:00000024
#00415:0023
#00018:00130000
#00015:0000001300000000
#0001a:24
#00012:0024000000000000
#00115:00130000
#00118:0000001300000000
#00112:24
#0011a:0024000000000000
#00218:00130000
#00215:0000001300000000
#0021a:24
#00212:0024000000000000
#00315:00130000
#00318:0000001300000000
#00312:24
#0031a:0024000000000000
#00815:0013000000000000
#00818:13000000000000130000000000000000
#00615:0013000000000013
#0061b:00131300
#00612:0000001300000000
#00618:13
#00718:13
#00715:0013
#01115:13131300
#01118:0013001300000000
#0121b:13
#01216:0024
#00918:0024000013000000
#00912:24240013
#00915:0000000000130000
#0091b:0000001300000000
#01015:0013
#0101b:00000013
#01018:0000000000130000
#01012:0000001300000000
#0101a:24240000
#01014:0024000000000000
#01318:0013001300000013
#01315:23131300
#01618:0013000000000000
#01615:13000000000000130000000000000000
#0161b:0000000000000013
#01418:0013000000000013
#01412:00131300
#0141b:0000001300000000
#01415:13
#01515:13
#01518:0013
#01718:0013000000000000
#01712:00000000000000130000000000001300
#0171b:00000013
#01715:23
#01710:41
#01818:13
#01815:0013000000000000
#0181b:00000000000000130000000000001300
#01812:00000013
#02215:0000000013000013
#02218:0000001300001300
#02315:0000001300000000
#02318:0013
#0471b:00000000000000000000001300000000
#04715:00130000
#04718:0000001300000000
#0471a:0024000000000000
#04714:24
#04814:14
#04818:14
#0521b:13
#05215:0013
#05212:00000013
#05218:00130000
#0521f:11
#05318:00130013
#05315:1313
#05412:13
#05418:0013
#0541b:00000013
#05415:00130000
#05515:00130013
#05518:1313
#05718:00000013
#06418:0000001400150016
#06414:0014
#06413:00000015
#06412:13
#06515:0000001600000000
#06512:26
#06514:00000036000000000000000000000000
#05916:00150024
#0591a:1400000000000024
#05912:0000000000240000
#06016:00140024
#0601a:0000000000240000
#06012:2400000000000024
#0601f:21
#04312:0013000000000000
#04315:13130000
#04318:0000001300000000
#0431b:0013
#04418:00001313
#04415:0000000000130000
#04412:13
#04218:00000024000000000000000000001300
#04214:2400002400000000
#04118:0000001300000013
#04112:13000013
#0411b:0000000000130000
#04115:0013
#0401b:0000000000000013
#04012:13
#04018:0013000000000000
#04015:00000000000000130000000000000000
#0381b:0000000000000013
#03816:24
#03918:0013000000000000
#0391b:0000000000000013
#03915:1300000000330000
#03912:00000000000000130000000000000000
#03615:13
#03616:0000000000240024
#03612:00000000000033330000000024000000
#0331b:00131300
#03312:0000001300000000
#03315:0013000000000013
#03318:13
#03218:00000000000000130000000000000000
#03215:0013000000000000
#0321b:13
#03212:0000000000000013
#0311b:00000000000000130000000000000000
#03118:1300000000330000
#03112:0000000000000013
#03115:0013000000000000
#03512:00130000
#03518:0000000000130013
#03515:00000013
#0351b:23
#03415:00000000000000130000000000000000
#03418:00130000
#03412:0013000000002300
#0341b:13
#03012:0000000000000013
#03016:24
#04515:00130000
#04518:0000001300000000
#0451b:00000000000000000000001300000000
#04514:24
#0451a:0024000000000000
#04510:41
#04618:24130000
#04615:0000001300000000
#04612:00002400000000000000001300000000
#02715:13
#02718:0013
#02712:00003333330000000000000000000000
#0271b:00000000000000000000333333000000
#02812:13
#02816:00000024
#02618:00001414
#02612:0000141400000000
#02614:0000000000140000
#0261a:1414000000000000
#06812:14
#06818:0000000000240000
#06814:00002424
#02912:0000000000240024
#02916:00000024
#0291a:24
#02910:41
#0371a:0000000000240024
#03716:00000024
#03712:24
#03710:41
#04919:00000000000000000000000000250000
#04912:00000000000000000000000000250000
#0005a:14
#00052:0014000000000000
#00058:00000000000000000000001300000000
#00458:00001314
#00454:00000014
#0045b:63
#00452:53
#00455:0013
#0205a:0014
#02052:00000014
#02058:53
#02452:13
#0245b:00130000
#02455:0013
#02458:00000013
#05059:65
#05052:55
#05858:00000053
#05855:63
#06258:00000000000000530000000000000000
#00152:14
#0015a:0014000000000000
#00155:00000000000000000000001300000000
#0025a:14
#00252:0014000000000000
#00258:00000000000000000000001300000000
#00352:14
#0035a:0014000000000000
#00355:00000000000000000000001300000000
#00758:53
#00755:0063
#00858:00000000000000530000000000000000
#00558:0053
#0065b:0063
#0125b:63
#01256:0014
#01155:0063
#01555:63
#01558:0053
#01655:00000000000000630000000000000000
#01355:0063
#01452:0053
#01752:00000000000000530000000000000000
#0185b:00000000000000630000000000000000
#01955:0063
#0475b:00000000000000000000006300000000
#0475a:0014000000000000
#04754:14
#04854:64
#04858:54
#05958:0016
#05956:00550000
#0595a:64
#06355:00000000000000630000000000000000
#06555:0000006600000000
#06754:0014
#06758:00000014
#06858:0000000000140000
#06854:00001414
#06852:54
#06056:00240000
#06052:54
#06156:0000002400000000
#0615a:64
#03952:00000000000000530000000000000000
#04055:00000000000000630000000000000000
#04152:53
#0435b:0063
#04452:53
#03655:63
#03652:0013
#0335b:0063
#03258:00000000000000530000000000000000
#0315b:00000000000000630000000000000000
#03552:00530000
#0355b:13
#03455:00000000000000630000000000000000
#03452:00000013
#04254:1400001400000000
#04258:00000014000000000000000000000000
#0295a:64
#03752:54
#03856:64
#03056:54
#04554:14
#0455a:0014000000000000
#0455b:00000000000000000000006300000000
#04652:00001400000000000000005300000000
#04658:14
#02755:63
#02758:0053
#02752:0000001300000000
#0275b:0000000000000013
#02852:53
#02856:00000014
#04959:00000000000000000000000000150000
#04952:00000000000000000000000000150000
#06452:53
#000380:00000000000000001300002300000000
#001350:00000000000000001300002300000000
#002380:00000000000000001300002300000000
#003350:00000000000000001300002300000000
#0043b0:13
#004380:0023
#004321:13
#004351:0023
#005381:0013
#0053b1:00000000000000000000002300000000
#0063b1:0013
#006381:00000000000000000000002300000000
#007381:13
#0073b1:00230000
#007351:0013
#007321:00000023
#008381:00000000133300330000000000000000
#0083b1:00000023
#011351:0013
#011321:00000023
#0123b1:13
#012361:0024
#013351:0013
#013321:00000000000000000000002300000000
#014321:0013
#014351:00000000000000000000002300000000
#015351:13
#015321:00230000
#015381:0013
#0153b1:00000023
#016351:00000000133300330000000000000000
#016321:00000023
#017321:00000000133300330000000000000000
#017351:0000000000230000
#0183b1:00000000133300330000000000000000
#018381:0000000000230000
#019351:0013
#019321:00000023
#020381:13
#0203a1:0024
#0213b1:13230000
#022321:13230000
#0233b1:13230000
#023321:00000013
#024321:23
#027351:13
#027321:00003333330023000000000000000000
#027381:0013
#0273b1:00000000000000000000333333002300
#028321:13
#028361:00000024
#0293a1:14
#029361:0024
#030361:14
#0303a1:00000024
#0313b1:00000000133300330000000000000000
#031381:0000000000332300
#032381:00000000133300330000000000000000
#0323b1:00000023
#0333b1:0013
#033381:00000023
#034351:00000000001300330000000000000000
#034321:00000023
#035321:00130000
#035351:0023
#036351:13
#036321:00000000000033332300000000000000
#037321:14
#037361:0024
#038361:14
#038321:00000024
#039321:00000000133300330000000000000000
#039351:0000000000332300
#040351:00000000133300330000000000000000
#040321:00000023
#041321:13
#041351:00230000
#0433b1:0013
#043381:00000023
#044321:13
#044351:00230000
#0453b1:00000000000000001300003300000000
#046381:24
#046321:00000000000000001300003300000000
#047341:24
#0473b1:00000000000000001300003300000000
#048381:34
#049391:00000000000000000000000000250000
#048340:14
#049320:00000000000000000000000000250000
#050390:15
#051380:23
#050321:15
#051351:23
#0563a1:14545454545454542400000000000000
#056391:0054005400540054005400540054005400000000000000000000000000000000
#057321:14545454545454542400000000000000
#057331:0054005400540054005400540054005400000000000000000000000000000000
#058351:13
#058321:00230000
#058381:00000013
#0593a1:34
#059361:00350000
#059381:0026
#060321:1424
#060361:00540000
#0613a1:14000024
#061361:0000005400000000
#062381:00000000001300330000000000000000
#0623b1:0000000000230000
#063351:00000000001300330000000000000000
#063321:00000023
#064321:13
#064351:00230000
#065321:16
#065341:00000036000000000000000000000000
#065351:0000003600000000
#066321:00000024
#068321:14
#068341:0024
