This file was generated by Ched 2.7.0.0.
#TITLE ""
#ARTIST ""
#DESIGNER ""
#DIFFICULTY 0
#PLAYLEVEL
#SONGID ""
#WAVE ""
#WAVEOFFSET 0
#JACKET ""
#REQUEST "ticks_per_beat 480"
#00002: 4
#BPM01: 140
#00008: 01
#TIL00: ""
#VOLUME: ""
#HISPEED 00
#MEASUREHS 00
#0251a:1414
#02514:00140000
#02516:00000014
#0041a:14
#00418:0024
#00414:00000024
#00014:00140000
#0001a:1424
#0281a:14
#02818:00000024
#00514:00140000
#0051a:14
#00510:41
#00612:14
#00618:00140000
#0071a:14
#00712:00140000
#00718:0014
#00714:00000014
#0081a:14
#00816:00140000
#00812:0014
#00912:0014
#0091a:00000014
#00918:24240000
#00914:0024000000000000
#0101a:0014
#01012:00000014
#01014:24240000
#01018:0024000000000000
#01118:14
#01114:00140000
#0111a:0014
#01112:00000014
#01218:14
#0121a:0024
#01314:1414
#01318:00140014
#01412:1414
#0141a:00140014
#01514:14
#01518:00140000
#01512:0014
#0151a:00000014
#01614:14
#01618:00140000
#01914:14
#01918:00140000
#01912:0014
#01916:00000014
#01818:14
#01814:00140000
#0181a:0014
#0171a:14
#01714:00140000
#01718:0014
#01712:00000014
#01710:41
#02118:14
#0211a:0014
#02218:14
#02314:14
#02312:0014
#02414:1414
#02412:00140000
#02612:1414
#02618:00140000
#02616:00000014
#0271a:14
#02712:0014
#04514:00140000
#0451a:14
#04518:0024
#04510:41
#05015:16
#05718:00000014
#05814:14
#05819:00140000
#05813:0014
#0581a:00000014
#05912:14000014
#05916:00140000
#0591a:0014
#02915:00140000
#02918:00000014
#02912:24
#02910:41
#06017:00140000
#0601a:24000014
#0601f:21
#03015:0000001400000000
#03012:24
#03414:14000014
#03418:00140000
#0311a:14
#03114:00140000
#03118:0014
#03112:00000014
#03218:14
#03214:00140000
#03314:14
#03318:00140000
#03312:0014
#0331a:00000014
#03518:00140000
#03514:00000014
#03512:24
#0351a:0024
#0361a:14
#03612:00000014
#0421a:14
#04217:0000001400000000
#04218:00000034000000000000000000000000
#04314:14
#04318:00140000
#04312:0014
#04316:00000014
#03717:00140000
#03714:00000014
#0371a:24
#03710:41
#03817:0000001400000000
#0381a:24
#03912:14
#03918:00140000
#03914:0014
#0391a:00000014
#04014:14
#04018:00140000
#04118:14
#04114:00140000
#0411a:0014
#04112:00000014
#06115:0000001400000000
#06112:24
#06110:41
#0621a:14000014
#06212:00140000
#06216:0014
#06314:14
#06318:00140000
#06516:0000001600000000
#0651a:24
#06714:14
#06718:00140000
#06712:0026
#06715:00000026
#00118:00140000
#00112:1424
#00214:00140000
#0021a:1424
#00318:00140000
#00312:1424
#04618:00140000
#04612:14
#04614:0024
#04714:00140000
#0471a:14
#04718:0024
#0521f:11
#05218:0034
#05219:00340000
#02012:00000024
#0201a:0024
#0641a:24
#06412:0024
#06818:2600000000260000
#06812:00002626
#04414:00002424
#04418:0000000000240000
#05319:00340000
#0531a:0034
#05513:00340000
#05512:0034
#05414:0034
#05413:00340000
#0005a:0014
#00458:0014
#00454:00000014
#0045a:64
#02052:00000014
#0205a:0014
#02858:00000014
#0285a:64
#01258:54
#0125a:0014
#02452:00540014
#02454:6464
#02158:54
#0215a:0064
#02258:54
#02354:64
#02352:0054
#0275a:64
#02752:0054
#02758:00140000
#02754:00000014
#04558:0014
#05055:66
#02955:00240000
#02952:54
#06057:00240000
#0605a:64
#03055:0000002400000000
#03052:54
#03454:00000064
#03558:00540000
#03552:14
#0355a:0014
#0365a:64
#03658:0014
#0425a:64
#04257:0000005400000000
#03757:00240000
#0375a:64
#03857:0000002400000000
#0385a:64
#06155:0000002400000000
#06152:54
#0645a:14
#06452:0014
#06556:0000005600000000
#06858:66
#00152:0014
#0025a:0014
#00352:0014
#04654:0014
#04758:0014
#0043a0:14
#004380:0024
#005380:00001424
#006340:00001424
#012380:14
#0123a0:0024
#016320:00001424
#0203a0:1424
#021380:14
#0213a0:0034
#022380:34
#0223a0:0024
#023340:14
#023320:0034
#024340:3434
#024320:00340024
#0273a0:14
#027380:00240000
#027320:0014
#027340:00000024
#0283a0:14
#028380:00000024
#029320:1424
#029350:00540000
#030320:14000024
#030350:0000005400000000
#0323a0:00001424
#034340:00001434
#035320:24
#035380:00140000
#0353a0:0024
#0363a0:14
#036380:0024
#0373a0:1424
#037370:00540000
#0383a0:14000024
#038370:0000005400000000
#040320:00001424
#0423a0:14000024
#042380:00000034000000000000000000000000
#042370:0000003400000000
#0443a0:14
#044380:00240000
#048320:14
#049350:00000036
#050350:36
#051320:24
#0523a0:14
#052390:00340000
#052380:00003434
#053380:34
#053390:00340000
#0533a0:00003424
#054320:14
#054330:00340000
#054340:00003434
#055340:34
#055330:00340000
#055320:00003424
#0563a0:14
#056380:0024
#057320:14
#057340:0024
#0603a0:1424
#060370:00540000
#061320:14000024
#061350:0000005400000000
#063320:00001424
#0653a0:14
#065380:00000035000000000000000000000000
#065360:0000003600000000
#0663a0:00000024
#068380:16
#068350:00260000
