This file was generated by Ched 2.7.0.0.
#TITLE ""
#ARTIST ""
#DESIGNER ""
#DIFFICULTY 0
#PLAYLEVEL
#SONGID ""
#WAVE ""
#WAVEOFFSET 0
#JACKET ""
#REQUEST "ticks_per_beat 480"
#00002: 4
#BPM01: 78
#00008: 01
#TIL00: "0'0:1, 39'960:1, 39'959:10000"
#VOLUME: ""
#HISPEED 00
#MEASUREHS 00
#00518:14
#00514:0014
#00510:41
#00714:14
#00718:0014
#00918:1414
#00910:41
#01018:1414
#01114:1414
#01312:0016
#01318:26
#01310:41
#01418:16
#01412:0016
#0171a:14
#01714:0014
#01818:14
#01812:0014
#02014:14
#02018:0014
#02010:41
#02612:2616
#0261f:21
#02610:0041
#02718:1616
#02812:16
#02813:00160000
#02918:16
#02917:00160000
#03212:16
#03218:0016
#0361a:14
#03614:0014
#03610:41
#03718:14
#03712:0014
#0381a:14
#03818:0014
#0221f:11
#02218:2424
#02314:2424
#0241a:24
#02412:0024
#03014:24
#03118:24
#02852:66
#02853:00260000
#02958:56
#02957:00260000
#0385a:64
#03858:0064
#0013a0:14
#0023a0:24
#003320:14
#004320:24
#0063a0:1424
#008320:1424
#012340:1424
#015380:1626
#016320:1626
#019380:16
#019390:0024
#021330:14
#021320:0026
#025380:14342400
#028320:1626
#028330:00560000
#029380:1626
#029370:00560000
#030340:14
#030330:00340000
#030320:0024
#031380:14
#031390:00340000
#0313a0:0024
#033320:1626
#033330:00360000
#034380:1626
#034370:00360000
#035320:1626
#035330:00360000
#0383a0:14
#038380:0034
#0393a0:24
#0399d0:000000000000000000000000000000000000000000000000000000000000000000000000000000000000000000000000000000000000000000000000000000000000000000000000000000000000000000000000000000000000000000000000000000000000000000000000000000000000000000000000000000000000000000000000000000000000000000000000000000000000000000000000000000000000000000000000000000000000000000000000000000000000000000000000000000000000000000000000000000000000000000000000000000000000000000000000000000000000000000000000000000000000000000000000000000000000000000000000000000000000000000000000000000000000000000000000000000000000000000000000000000000000000000000000000000000000000000000000000000000000000000000000000000000000000000000000000000000000000000000000000000000000000000000000000000000000000000000000000000000000000000000000000000000000000000000000000000000000000000000000000000000000000000000000000000000000000000000000000000000000000000000000000000000000000000000000000000000000000000000000000000000000000000000000000000000000000000000000000000000000000000000000000000000000000000000000000000000000000000000000000000000000000000000000000000000000000000000000000000000000000000000000000000000000000000000000000000000000000000000000000000000000000000000000000000000000000000000000000000000000000000000000000000000000000000000000000000000000000000000000000000000000000000000000000000000000000000000000000000000000000000000000000000000000000000000000000000000000000000000000000000000000000000000000000000000000000000000000000000000000000000000000000000000000000000000000000000000000000000000000000000000000000000000000000000000000000000000000000000000000000000000000000000000000000000000000000000000000000000000000000000000000000000000000000000000000000000000000000000000000000000000000000000000000000000000000000000000000000000000000000000000000000000000000000000000000000000000000000000000000000000000000000000000000000000000000000000000000000000000000112100000000000000000000000000000000000000000000000000000000000000000000000000000000000000000000000000000000000000000000000000000000000000000000000000000000000000000000000000000000000000000000000000000000000000000000000000000000000000000000000000000000000000000000000000000000000000000000000000000000000000000000000000000000000000000000000000000000000000000000000000000000000000000000000000000000000000000000000000000000000000000000000000000000000000000000000000000000000000000000000000000000000000000000000000000000000000000000000000000000000000000000000000000000000000000000000000000000000000000000000000000000000000000000000000000000000000000000000000000000000000000000000000000000000000000000000000000000000000000000000000000000000000000000000000000000000000000000000000000000000000000000000000000000000000000000000000000000000000000000000000000000000000000000000000000000000000000000000000000000000000000000000000000000000000000000000000000000000000000000000000000000000000000000000000000000000000000000000000000000000000000000000000000000000000000000000000000000000000000000000000000000000000000000000000000000000000000000000000000000000000000000000000000000000000000000000000000000000000000000000000000000000000000000000000000000000000000000000000000000000000000000000000000000000000000000000000000000000000000000000000000000000000000000000000000000000000000000000000000000000000000000000000000000000000000000000000000000000000000000000000000000000000000000000000000000000000000000000000000000000000000000000000000000000000000000000000000000000000000000000000000000000000000000000000000000000000000000000000000000000000000000000000000000000000000000000000000000000000000000000000000000000000000000000000000000000000000000000000000000000000000000000000000000000000000000000000000000000000000000000000000000000000000000000000000000000000000000000000000000000000000000000000000000000000000000000000000000000000000000
