This file was generated by Ched 2.7.0.0.
#TITLE ""
#ARTIST ""
#DESIGNER ""
#DIFFICULTY 0
#PLAYLEVEL
#SONGID ""
#WAVE ""
#WAVEOFFSET 0
#JACKET ""
#REQUEST "ticks_per_beat 480"
#00002: 4
#BPM01: 78
#00008: 01
#TIL00: "0'0:1"
#VOLUME: ""
#HISPEED 00
#MEASUREHS 00
#00118:00120000
#00119:00000000000032321200000000003232
#0011a:00000000000000000000323212000000
#00219:12
#00218:00003232120000000000000000000000
#0021a:00000000000032321200000000000000
#0021c:00000000000000000000003200000000
#00316:00120000
#00315:00000000000032321200000000003232
#00314:00000000000000000000323212000000
#00415:12
#00416:00003232120000000000000000000000
#00417:00000012
#00414:00000000000032320000000000000000
#0051b:00130000
#00512:00000013
#00514:0013
#00519:13
#00510:41
#0061b:00130000
#00619:1313
#00614:0013
#00712:00130000
#0071b:00000013
#00719:0013
#00714:13
#00814:13
#00819:13
#00816:0000000000120000
#00818:0000000000122600
#00812:00000026
#01213:0014
#01219:00221400
#01217:00000024
#01212:00000024
#01215:220000000000000000000000000000000000003434343434
#0121a:000000000000000000000000000000000000003434343434
#01312:0013000000000000
#01318:000000000013000000000000000000000000130000000000
#01315:000000000000130000000000000000000013000000000000
#0131b:0000000000130000
#01310:41
#01415:000000130000000000000000000000000013000000000000
#01418:000000000013000000000000000000130000000000000000
#01412:00130000
#0141b:00000013
#01515:000000130000130000000000000000000013000000000000
#01518:000000000013000000000000000000130000130000000000
#01512:0000001300000000
#0151b:0000000000000013
#01615:00130000
#01616:0013
#0161b:0013
#01718:1314
#01715:00130000
#01714:000000000000005300000000000000140000000000000000
#0171a:005300000000000000140000
#01719:005300000000000000000000000000000000000000000000
#0171b:0053000000000000
#01713:005300
#01712:0000005300000000
#01815:13
#01818:0000130000140000
#01812:0053000000001400
#01814:005300000000000000000000140000000000000000000000
#01813:005300000000000000000000
#01819:000000000000005300000000000000000000000000000000
#0181a:005300
#0181b:0000005300000000
#0201b:13
#02018:0013000000000000
#02015:0000130000000013
#02012:0000001300000000
#02017:0014
#02010:41
#02313:0000000024241400
#02319:0000000024241400
#02316:2424000000000000
#02518:14151600
#02514:0014000000000000
#02513:0000001500000000
#02515:00000024
#0251a:00000024
#02512:000000000000000000000000000000000000003434343434
#02517:000000000000000000000000000000000000003434343434
#0261a:0014000000000000
#02615:000000000013000000000000000000000000000000000000
#02618:000000000000240000000000000000130013000000000000
#02614:000000000000001400240000
#0261f:21
#02610:0041
#0271a:0014240000000000
#02716:000000000013000000000000000000000000000000000000
#02717:000000000000000000000000000000130013000000000000
#02712:000000000000001400240000
#02815:000000130013000000000000000000000000000000000000
#0281b:0000001300000000
#02818:000014000000240000000000000000130013000000000000
#02812:0000000000000013
#02814:000000000000001400240000
#02917:0014
#02918:00240000
#02912:0024
#03018:0013000000130000
#03015:000000000013000000130000000000000000000000000000
#0301a:00140000
#03014:000000000053000000140000
#03012:2453
#03013:000000000000000000000053000000000000000000000000
#03115:0013000000130000
#03118:000000000013000000130000000000000000140000000000
#03112:00140000
#0311a:240000000000000000000053000000000000000000000000
#03119:000000000053000000000000
#0311b:0053
#03218:0013000000130000
#0321a:24142400
#03212:24141400
#03215:0000001300130000
#03314:00241400
#03318:0014
#03312:0000000000340000
#0331a:0000000000340000
#03418:00241400
#03414:0014
#03412:000000000000003434000000
#0341a:000000000000003434000000
#03512:00251500
#03519:0015
#03614:12
#03615:0012
#03610:41
#03618:00520000
#03619:00000052
#0371a:12
#03719:0012
#03716:00520000
#03715:00000052
#03814:12000052
#0381a:00521200
#03818:12
#03816:0012
#0221f:11
#0221a:2424000000000000
#02212:0000000024240000
#0191a:22
#01916:22
#01914:0022
#01918:0022
#01912:00000025
#01919:00000025
#02119:24
#02113:24
#02112:00000026
#02118:00000026
#02418:2600000000260000
#02412:0026000026000000
#02416:00260000
#02414:00000026
#00910:41
#0391a:0052
#03914:0052
#0025c:00000012
#00259:62
#00258:00220000
#0025a:0062
#00158:00220000
#00159:0062
#0015a:00000022
#00356:00220000
#00355:0052
#00354:00000022
#00455:52
#00456:00220000
#00453:0032
#0055b:00630000
#00552:00000063
#00554:0023
#00559:23
#0065b:00630000
#00659:2363
#00654:0063
#00752:00530000
#0075b:00000053
#00759:0023
#00754:23
#00854:63
#00859:63
#00856:0000000000220000
#00858:0000000000224600
#00852:00000036
#01253:0014
#01259:0014
#01252:00000064
#01257:00000064
#01355:14630000
#0135a:14
#01358:00000053
#01452:00530000
#0145b:00000063
#01558:13000053
#01555:00631300
#01552:0000002300000000
#0155b:0000000000000023
#01658:13
#01655:00130000
#01657:00000013
#01652:00000013
#01656:0063
#0165b:0063
#0175a:00000014
#01852:00000014
#01952:00000015
#01959:00000015
#02057:0064
#0205b:00000013
#02152:00000016
#02158:00000016
#02353:00000014
#02359:00000014
#02456:00460000
#02454:00000036
#02558:0016
#02555:00000054
#0255a:00000054
#02657:14
#02652:14
#02658:00640000
#02654:00000054
#0285b:0000002300000000
#02858:00641400
#02852:0000000000000023
#02854:14000054
#0275a:00540000
#02752:00000064
#02954:14
#02958:00140000
#0295a:00000014
#02955:00000014
#02957:0064
#02952:0064
#0305a:00140000
#03054:00000014
#03152:00140000
#03158:00000014
#03259:00000045
#0325a:0064
#03258:0000000000230000
#03255:0000000000230000
#03252:00006435
#0335a:00000014
#03352:00000014
#03354:0064
#03358:0054
#03458:0054
#03454:0064
#03452:00000014
#0345a:00000014
#03552:0065
#03559:0065
#03858:62
#03856:0052
#001380:00120000
#001390:00000000000032325200000000003232
#0013a0:00000000000000000000323252000000
#002390:52
#002380:00003232520000000000000000000000
#0023a0:00000000000032325200000000000000
#0023c0:00000000000000000000003222000000
#003360:00120000
#003350:00000000000032325200000000003232
#003340:00000000000000000000323252000000
#004350:52
#004360:00003232520000000000000000000000
#004340:00000000000032320000000000000000
#004330:0022
#005390:1333
#0053b0:00330000
#006390:3333
#0063b0:00330023
#005341:1333
#005321:00000033
#006341:3333
#006321:00000023
#007341:1333
#007321:00330000
#008341:33
#008361:0000520000520000
#008321:00000026
#007390:1333
#0073b0:00000033
#008390:33
#008380:0000520000522600
#009380:145300000053345300000000000000000000000000000000000000000000000000000000230000000000000000000000
#009341:0000000014340000
#009351:000000000000000000000000000000000000000000000000005300000053005300000000230000000000000000000000
#010321:145300000053345300000000000000000000000000000000000000000000000000000000230000000000000000000000
#0103a0:0000000014340000
#0103b0:000000000000000000000000000000000000000000000000005300000053005300000000230000000000000000000000
#011330:1535000000000000
#011340:005300000053005300000000230000000000000000000000000000000000000000000000000000000000000000000000
#011381:1535000000000000
#011391:005300000053005300000000230000000000000000000000000000000000000000000000000000000000000000000000
#011391:0000000015350000
#0113a1:000000000000000000000000000000000000000000000000005300000053005300000000230000000000000000000000
#011320:0000000015350000
#011330:000000000000000000000000000000000000000000000000005300000053005300000000230000000000000000000000
#012320:00000014
#012350:000000000000000000000000000000000000003434343434
#013350:24
#012371:00000014
#0123a1:000000000000000000000000000000000000003434343434
#0133a1:24
#013351:00130000
#013321:0023
#013381:00000013
#0143b1:23
#014321:00130000
#014351:0023
#0143b1:00000013
#015381:23
#015351:00132300
#015321:0000005300000000
#015381:00000013
#0153b1:0000000000000053
#016381:23
#0163b1:0013
#016371:00000023
#016360:0013
#016320:00000023
#020370:0014
#0203b0:00000023
#021390:14
#021380:0026
#021331:14
#021321:0026
#0253a1:00000014
#025371:000000000000000000000000000000000000003434343434
#026371:24
#025350:00000014
#025320:000000000000000000000000000000000000003434343434
#026320:24
#026380:00140000
#0263a0:0024
#026340:00000014
#027320:24
#0273a0:00140000
#027380:0024
#027320:00000014
#028340:24
#028380:00142400
#0283b0:0000005300000000
#028340:00000014
#028320:0000000000000053
#029340:24
#029320:0014
#029350:00000024
#029371:0014
#0293a1:00000024
#0323a1:0014
#032381:0000000000530000
#032391:00000025
#032320:00001425
#032350:0000000000530000
#033380:1434
#0333a0:0000000000342400
#033341:00143400
#033321:0000000000342400
#034341:1434
#034321:000000000000003434240000
#034380:00143400
#0343a0:000000000000003434240000
#035390:1535
#035380:00000023
#035321:00153500
#035351:00000023
#036381:12220000
#036391:00001222
#037361:12220000
#037351:00001222
#038381:12
#0383a1:00220000
#038361:0012
#038341:00000022
#039361:12
#039341:0022
#039380:12
#0393a0:0022
#017980:13
#0179b0:000000000000000000000000000000000000000000000000000000000000000000000000000000000000000000000000000000000000000000000000000000000000000000000000000000000000000000000000000000000000000000000000000000000000000000000000000000000000000000000000000000000000000000000000000000000000000000000000000000000000000000000000000000000000000000000000000000000000000000000000000000000000000000000000000000000000000000000000000000000000000000000000000000000000000000000000000000000000000000000053230000000000000000000000000000000000000000000000000000000000000000000000000000000000000000000000000000000000000000000000000000000000000000000000000000000000000000000000000000000000000000000000000000000000000000000000000000000000000000000000000000000000000000000000000000000000000000000000000000000000000000000000000000000000000000000000000000000000000000000000000000000000000000000000000000000000000000000000000000000000000000000000000000000000000000000000000000000000000000000000000000000000000000000000000000000000000000000000000000000000000000000000000000000000000000000000000000000000000000000000000000000000000000000000000000000000000000000000000000000000000000000000000000000000000000000000000000000000000000000000000000000000000000000000000000000000000000000000000000000000000000000000000000000000000000000000000000000000000000000000000000000000000000000000000000000000000000000000000000000000000000000000000000000000000000000000000000000000000000000000000000000000000000000000000000000000000000000000000000000000000000000000000000000000000000000000000000000000000000000000000000000000000000000000000000000000000000000000000000000000000000000000000000000000000000000000000000000000000000000000000000000000000000000000000000000000000000000000000000000000000000000000000000000000000000000000000000000000000000000000000000000000000000000000000000000000000000000000000000000000000000000000000000000000000000000000000000000000000000000000000000000000000000000000000000000000000000000000000000000000000000000000000000000000000000000000000000000000000000000000000000000000000000000000000000000000000000000000000000000000000000000000000000000000000000000000000000000000000000000000000000000000000000000000000000000000000000000000000000000000000000000000000000000000000000000000000000000000000000000000000000000000000000000000000000000000000000000000000000000000000000000000000000000000000000000000000000000000000000000000000000000000000000000000000000000000000000000000000000000000000000000000000000000000000000000000000000000000000000000000000000000000000000000000000000000000000000000000000000000000000000000000000000000000000000000000000000000000000000000000000000000000000000000000000000000000000000000000000000000000000000000000000000000000000000000000000000000000000000000000000000000000000000000000000000000000000000000000000000000000000000000000000000000000000000000000000000000000000000000000000000000000000000000000000000000000000000000000000000000000000000000000000000000000000000000000000000000000000000000000000000000000000000000000000000000000000000000000000000000000000000000000000000000000000000000000000000000000000000000000000000000000000000000000000000000000000000000000000000000000000000000000000000000000000000000000000000000000000000000000000000000000000000000000000000000000000000000000000000000000000000000000000000000000000000000000000000000000000000000000000000000000000000000000000000000000000000000000000000000000000000000000000000000000000000000000000000000000000000000000000000000000000000000000000000000000000000000000000000000000000000000000000000000000000000000000000000000000000000000000000000000000000000000000000000000000000000000000000000000000000000000000000000000000000000000000000000000000000000000000000000000000000000000000000000000000000000000000000000000000000000000000000000000000000000000000000000000000000000000000
#017950:00130000
#017920:000000000000000000000000000000000000000000000000000000000000000000000000000000000000000000000000000000000000000000000000000000000000000000000000000000000000000000000000000000000000000000000000000000000000000000000000000000000000000000000000000000000000000000000000000000000000000000000000000000000000000000000000000000000000000000000000000000000000000000000000000000000000000000000000000000000000000000000000000000000000000000000000000000000000000000000000000000000000000000000000000000000000000000000000000000000000000000000000000000000000000000000000000000000000000000000000000000000000000000000000000000000000000000000000000000000000000000000000000000000000000000000000000000000000000000000000000000000000000000000000000000000000000000000000000000000000000000000000000000000000000000000000000000000000000000000000000000000000000000000000000000000000000000000000000000000000000000000000000000000000000000000000000000000000000000000000000000000000000000000000000000000000000000000000000000000000000000000000000000000000000000000000000000000000000000000000000000000000000000000000000000000000000000000000000000000000000000000000000000000000000000000000000000000000000000000000000000000000000000000000000000000000000000000000000000000000000000000000000000000000000000000000000000000000000000000000000000000000000000000000000000000000000000000000000000000000000000000000000000000000000000000000000000000000000000000000000000000000000000000053230000000000000000000000000000000000000000000000000000000000000000000000000000000000000000000000000000000000000000000000000000000000000000000000000000000000000000000000000000000000000000000000000000000000000000000000000000000000000000000000000000000000000000000000000000000000000000000000000000000000000000000000000000000000000000000000000000000000000000000000000000000000000000000000000000000000000000000000000000000000000000000000000000000000000000000000000000000000000000000000000000000000000000000000000000000000000000000000000000000000000000000000000000000000000000000000000000000000000000000000000000000000000000000000000000000000000000000000000000000000000000000000000000000000000000000000000000000000000000000000000000000000000000000000000000000000000000000000000000000000000000000000000000000000000000000000000000000000000000000000000000000000000000000000000000000000000000000000000000000000000000000000000000000000000000000000000000000000000000000000000000000000000000000000000000000000000000000000000000000000000000000000000000000000000000000000000000000000000000000000000000000000000000000000000000000000000000000000000000000000000000000000000000000000000000000000000000000000000000000000000000000000000000000000000000000000000000000000000000000000000000000000000000000000000000000000000000000000000000000000000000000000000000000000000000000000000000000000000000000000000000000000000000000000000000000000000000000000000000000000000000000000000000000000000000000000000000000000000000000000000000000000000000000000000000000000000000000000000000000000000000000000000000000000000000000000000000000000000000000000000000000000000000000000000000000000000000000000000000000000000000000000000000000000000000000000000000000000000000000000000000000000000000000000000000000000000000000000000000000000000000000000000000000000000000000000000000000000000000000000000000000000000000000000000000000000000000000000000000000000000000000000000000000000000000000000000000000000000000000000000000000000000000000000000000000000000000000000000000000000000000000000000000000000000000000000000000000000000000000000000000000000000000000000000000000000000000000000000000000000000000000000000000000000000000000000000000000000000000000000000000000000000000000000000000000000000000000000000000000000000000000000000000000000000000000000000000000000000000000000000000000000000000000000000000000000000000000000000000000000
#018950:13
#018920:000000000000000000000000000000000000000000000000000000000000000000000000000000000000000000000000000000000000000000000000000000000000000000000000000000000000000000000000000000000000000000000000000000000000000000000000000000000000000000000000000000000000000000000000000000000000000000000000000000000000000000000000000000000000000000000000000000000000000000000000000000000000000000000000000000000000000000000000000000000000000000000000000000000000000000000000000000000000000000000053230000000000000000000000000000000000000000000000000000000000000000000000000000000000000000000000000000000000000000000000000000000000000000000000000000000000000000000000000000000000000000000000000000000000000000000000000000000000000000000000000000000000000000000000000000000000000000000000000000000000000000000000000000000000000000000000000000000000000000000000000000000000000000000000000000000000000000000000000000000000000000000000000000000000000000000000000000000000000000000000000000000000000000000000000000000000000000000000000000000000000000000000000000000000000000000000000000000000000000000000000000000000000000000000000000000000000000000000000000000000000000000000000000000000000000000000000000000000000000000000000000000000000000000000000000000000000000000000000000000000000000000000000000000000000000000000000000000000000000000000000000000000000000000000000000000000000000000000000000000000000000000000000000000000000000000000000000000000000000000000000000000000000000000000000000000000000000000000000000000000000000000000000000000000000000000000000000000000000000000000000000000000000000000000000000000000000000000000000000000000000000000000000000000000000000000000000000000000000000000000000000000000000000000000000000000000000000000000000000000000000000000000000000000000000000000000000000000000000000000000000000000000000000000000000000000000000000000000000000000000000000000000000000000000000000000000000000000000000000000000000000000000000000000000000000000000000000000000000000000000000000000000000000000000000000000000000000000000000000000000000000000000000000000000000000000000000000000000000000000000000000000000000000000000000000000000000000000000000000000000000000000000000000000000000000000000000000000000000000000000000000000000000000000000000000000000000000000000000000000000000000000000000000000000000000000000000000000000000000000000000000000000000000000000000000000000000000000000000000000000000000000000000000000000000000000000000000000000000000000000000000000000000000000000000000000000000000000000000000000000000000000000000000000000000000000000000000000000000000000000000000000000000000000000000000000000000000000000000000000000000000000000000000000000000000000000000000000000000000000000000000000000000000000000000000000000000000000000000000000000000000000000000000000000000000000000000000000000000000000000000000000000000000000000000000000000000000000000000000000000000000000000000000000000000000000000000000000000000000000000000000000000000000000000000000000000000000000000000000000000000000000000000000000000000000000000000000000000000000000000000000000000000000000000000000000000000000000000000000000000000000000000000000000000000000000000000000000000000000000000000000000000000000000000000000000000000000000000000000000000000000000000000000000000000000000000000000000000000000000000000000000000000000000000000000000000000000000000000000000000000000000000000000000000000000000000000000000000000000000000000000000000000000000000000000000000000000000000000000000000000000000000000000000000000000000000000000000000000000000000000000000000000000000000000000000000000000000000000000000000000000000000000000000000000000000000000000000000000000000000000000000000000000000000000000000000000000000000000000000000000000000000000000000000000000000000000000000000000000000000000000000000000000000000000000000000000000000000000000000000
#018980:00130000
#0189b0:000000000000000000000000000000000000000000000000000000000000000000000000000000000000000000000000000000000000000000000000000000000000000000000000000000000000000000000000000000000000000000000000000000000000000000000000000000000000000000000000000000000000000000000000000000000000000000000000000000000000000000000000000000000000000000000000000000000000000000000000000000000000000000000000000000000000000000000000000000000000000000000000000000000000000000000000000000000000000000000000000000000000000000000000000000000000000000000000000000000000000000000000000000000000000000000000000000000000000000000000000000000000000000000000000000000000000000000000000000000000000000000000000000000000000000000000000000000000000000000000000000000000000000000000000000000000000000000000000000000000000000000000000000000000000000000000000000000000000000000000000000000000000000000000000000000000000000000000000000000000000000000000000000000000000000000000000000000000000000000000000000000000000000000000000000000000000000000000000000000000000000000000000000000000000000000000000000000000000000000000000000000000000000000000000000000000000000000000000000000000000000000000000000000000000000000000000000000000000000000000000000000000000000000000000000000000000000000000000000000000000000000000000000000000000000000000000000000000000000000000000000000000000000000000000000000000000000000000000000000000000000000000000000000000000000000000000000000000000000000053230000000000000000000000000000000000000000000000000000000000000000000000000000000000000000000000000000000000000000000000000000000000000000000000000000000000000000000000000000000000000000000000000000000000000000000000000000000000000000000000000000000000000000000000000000000000000000000000000000000000000000000000000000000000000000000000000000000000000000000000000000000000000000000000000000000000000000000000000000000000000000000000000000000000000000000000000000000000000000000000000000000000000000000000000000000000000000000000000000000000000000000000000000000000000000000000000000000000000000000000000000000000000000000000000000000000000000000000000000000000000000000000000000000000000000000000000000000000000000000000000000000000000000000000000000000000000000000000000000000000000000000000000000000000000000000000000000000000000000000000000000000000000000000000000000000000000000000000000000000000000000000000000000000000000000000000000000000000000000000000000000000000000000000000000000000000000000000000000000000000000000000000000000000000000000000000000000000000000000000000000000000000000000000000000000000000000000000000000000000000000000000000000000000000000000000000000000000000000000000000000000000000000000000000000000000000000000000000000000000000000000000000000000000000000000000000000000000000000000000000000000000000000000000000000000000000000000000000000000000000000000000000000000000000000000000000000000000000000000000000000000000000000000000000000000000000000000000000000000000000000000000000000000000000000000000000000000000000000000000000000000000000000000000000000000000000000000000000000000000000000000000000000000000000000000000000000000000000000000000000000000000000000000000000000000000000000000000000000000000000000000000000000000000000000000000000000000000000000000000000000000000000000000000000000000000000000000000000000000000000000000000000000000000000000000000000000000000000000000000000000000000000000000000000000000000000000000000000000000000000000000000000000000000000000000000000000000000000000000000000000000000000000000000000000000000000000000000000000000000000000000000000000000000000000000000000000000000000000000000000000000000000000000000000000000000000000000000000000000000000000000000000000000000000000000000000000000000000000000000000000000000000000000000000000000000000000000000000000000000000000000000000000000000000000000000000000000000000000000000000
#030950:0000001300000000
#030920:000000000000000000000000000000000000000000000000000000000000000000000000000000000000000000000000000000000000000000000000000000000000000000000000000000000000000000000000000000000000000000000000000000000000000000000000000000000000000000000000000000000000000000000000000000000000000000000000000000000000000000000000000000000000000000000000000000000000000000000000000000000000000000000000000000000000000000000000000000000000000000000000000000000000000000000000000000000000000000000000000000000000000000000000000000000000000000000000000000000000000000000000000000000000000000000000000000000000000000000000000000000000000000000000000000000000000000000000000000000000000000000000000000000000000000000000000000000000000000000000000000000000000000000000000000000000000000000000000000000000000000000000000000000000000000000000000000000000000000000000000000000000000000000000000000000000000000000000000000000000000000000000000000000000000000000000000000000000000000000000000000000000000000000000000000000000000000000000000000000000000000000000000000000000000000000000000000000000000000000000000000000000000000000000000000000000000000000000000000000000000000000000000000000000000000000000000000000000000000000000000000000000000000000000000000000000000000000000000000000000000000000000000000000000000000000000000000000000000000000000000000000000000000000000000000000000000000000000000000000000000000000000000000000000000000000000000000000000000000000000000000000000000000000000000000000000000000000000000000000000000000000000000000000000000000000000000000000000000000000000000000000000000000000000000000000000000000000000000000000000000000000000000000000000000000000000000000000000000000000000000000000000000000000000000000000000000000000000000000000000000000000000000000000000000000000000000000000000000000000000000000000000000000000000000000000000000000000000000000000000000000000000000000000000000000000000000000000000000000000053230000000000000000000000000000000000000000000000000000000000000000000000000000000000000000000000000000000000000000000000000000000000000000000000000000000000000000000000000000000000000000000000000000000000000000000000000000000000000000000000000000000000000000000000000000000000000000000000000000000000000000000000000000000000000000000000000000000000000000000000000000000000000000000000000000000000000000000000000000000000000000000000000000000000000000000000000000000000000000000000000000000000000000000000000000000000000000000000000000000000000000000000000000000000000000000000000000000000000000000000000000000000000000000000000000000000000000000000000000000000000000000000000000000000000000000000000000000000000000000000000000000000000000000000000000000000000000000000000000000000000000000000000000000000000000000000000000000000000000000000000000000000000000000000000000000000000000000000000000000000000000000000000000000000000000000000000000000000000000000000000000000000000000000000000000000000000000000000000000000000000000000000000000000000000000000000000000000000000000000000000000000000000000000000000000000000000000000000000000000000000000000000000000000000000000000000000000000000000000000000000000000000000000000000000000000000000000000000000000000000000000000000000000000000000000000000000000000000000000000000000000000000000000000000000000000000000000000000000000000000000000000000000000000000000000000000000000000000000000000000000000000000000000000000000000000000000000000000000000000000000000000000000000000000000000000000000000000000000000000000000000000000000000000000000000000000000000000000000000000000000000000000000000000000000000000000000000000000000000000000000000000000000000000000000000000000000000000000000000000000000000000000000000000000000000000000000000000000000000000000000000000000000000000000000000000000000000000000000000000000000000000000000000000000000000000000000000000000000000000000
#031980:0000001300000000
#0319b0:000000000000000000000000000000000000000000000000000000000000000000000000000000000000000000000000000000000000000000000000000000000000000000000000000000000000000000000000000000000000000000000000000000000000000000000000000000000000000000000000000000000000000000000000000000000000000000000000000000000000000000000000000000000000000000000000000000000000000000000000000000000000000000000000000000000000000000000000000000000000000000000000000000000000000000000000000000000000000000000000000000000000000000000000000000000000000000000000000000000000000000000000000000000000000000000000000000000000000000000000000000000000000000000000000000000000000000000000000000000000000000000000000000000000000000000000000000000000000000000000000000000000000000000000000000000000000000000000000000000000000000000000000000000000000000000000000000000000000000000000000000000000000000000000000000000000000000000000000000000000000000000000000000000000000000000000000000000000000000000000000000000000000000000000000000000000000000000000000000000000000000000000000000000000000000000000000000000000000000000000000000000000000000000000000000000000000000000000000000000000000000000000000000000000000000000000000000000000000000000000000000000000000000000000000000000000000000000000000000000000000000000000000000000000000000000000000000000000000000000000000000000000000000000000000000000000000000000000000000000000000000000000000000000000000000000000000000000000000000000000000000000000000000000000000000000000000000000000000000000000000000000000000000000000000000000000000000000000000000000000000000000000000000000000000000000000000000000000000000000000000000000000000000000000000000000000000000000000000000000000000000000000000000000000000000000000000000000000000000000000000000000000000000000000000000000000000000000000000000000000000000000000000000000000000000000000000000000000000000000000000000000000000000000000000000000000000000000000000000000053230000000000000000000000000000000000000000000000000000000000000000000000000000000000000000000000000000000000000000000000000000000000000000000000000000000000000000000000000000000000000000000000000000000000000000000000000000000000000000000000000000000000000000000000000000000000000000000000000000000000000000000000000000000000000000000000000000000000000000000000000000000000000000000000000000000000000000000000000000000000000000000000000000000000000000000000000000000000000000000000000000000000000000000000000000000000000000000000000000000000000000000000000000000000000000000000000000000000000000000000000000000000000000000000000000000000000000000000000000000000000000000000000000000000000000000000000000000000000000000000000000000000000000000000000000000000000000000000000000000000000000000000000000000000000000000000000000000000000000000000000000000000000000000000000000000000000000000000000000000000000000000000000000000000000000000000000000000000000000000000000000000000000000000000000000000000000000000000000000000000000000000000000000000000000000000000000000000000000000000000000000000000000000000000000000000000000000000000000000000000000000000000000000000000000000000000000000000000000000000000000000000000000000000000000000000000000000000000000000000000000000000000000000000000000000000000000000000000000000000000000000000000000000000000000000000000000000000000000000000000000000000000000000000000000000000000000000000000000000000000000000000000000000000000000000000000000000000000000000000000000000000000000000000000000000000000000000000000000000000000000000000000000000000000000000000000000000000000000000000000000000000000000000000000000000000000000000000000000000000000000000000000000000000000000000000000000000000000000000000000000000000000000000000000000000000000000000000000000000000000000000000000000000000000000000000000000000000000000000000000000000000000000000000000000000000000000000000000000000000000
