This file was generated by Ched 2.7.0.0.
#TITLE ""
#ARTIST ""
#DESIGNER ""
#DIFFICULTY 0
#PLAYLEVEL
#SONGID ""
#WAVE ""
#WAVEOFFSET 0
#JACKET ""
#REQUEST "ticks_per_beat 480"
#00002: 4
#BPM01: 192
#00008: 01
#TIL00: ""
#VOLUME: ""
#HISPEED 00
#MEASUREHS 00
#0011a:0014
#0031a:14
#00412:0014
#00612:14
#00718:0014
#00710:0041
#00914:14
#01018:0014
#01214:14
#0131a:0014
#01512:14
#0161a:0014
#01812:14
#02714:14
#03218:0016
#03418:0016
#03512:0016
#03712:0016
#03818:0016
#04112:0016
#04314:0014
#0431f:0011
#04518:14
#04614:0014
#04818:14
#05612:16
#05618:0016
#05812:0016
#05918:16
#05912:0016
#06118:0016
#06212:16
#06218:0016
#06518:16
#06512:0016
#06814:14
#06818:0014
#07012:0014
#0701a:14
#07118:14
#07114:0014
#07312:14
#07318:0014
#07310:0041
#07414:14
#0741a:0014
#07718:14
#07714:0014
#07918:0014
#08014:00140000
#08118:14
#08214:0014
#08318:00140000
#08414:14
#0851a:0014
#08612:00140000
#08918:16
#08912:0016
#09119:00140000
#09312:14
#09318:00000014
#09414:0014
#0951a:00140000
#10012:14
#03112:0026
#03110:0041
#04018:0026
#04218:26
#05518:0026
#0551f:0021
#06412:0026
#06718:0026
#07618:26
#07612:0026
#07812:24
#0781a:24
#08812:0026
#08810:0041
#09018:26
#02918:00343434
#01910:0041
#05710:41
#08158:64
#08454:54
#09058:66
#09159:00240000
#10052:24
#019380:0014
#0203a0:00000034
#022380:00340000
#0233a0:00000034
#025380:3424
#028380:0014
#029380:00343434
#030380:26
#033320:16
#034320:26
#036380:16
#037380:26
#039320:16
#040320:26
#042380:16
#043380:26
#049340:0014
#051320:34
#052340:0034
#054320:26
#057380:16
#058380:26
#060320:16
#061320:26
#063380:16
#064380:26
#066320:16
#067320:26
#069320:1424
#0723a0:1424
#075320:1424
#0783a0:14
#0793a0:24
#078321:14
#079321:24
#081381:14
#0813a1:00000024
#084341:14
#084321:00000024
#0873a1:14
#088381:24
#090381:16
#091391:00540000
#092381:0026
#096331:14
#097321:0000003600000000
#098321:36
#100321:54
#102321:0026
