This file was generated by Ched 2.7.0.0.
#TITLE ""
#ARTIST ""
#DESIGNER ""
#DIFFICULTY 0
#PLAYLEVEL
#SONGID ""
#WAVE ""
#WAVEOFFSET 0
#JACKET ""
#REQUEST "ticks_per_beat 480"
#00002: 4
#BPM01: 192
#00008: 01
#TIL00: ""
#VOLUME: ""
#HISPEED 00
#MEASUREHS 00
#0001b:00000032000000000000000012000000
#00013:00000000000000000000000000000032
#00113:12
#00115:0000000000130000
#00118:00000013
#0011a:0000000024000024
#00112:0000000024000024
#00216:0014000000140000
#00214:00140000
#00212:0014
#0021a:00000014
#00318:0013000000001400
#00315:00130000
#00316:0000000000140000
#00312:2400002400000000
#0031a:2400002400000000
#0041a:1400000024000024
#00418:00140013
#00412:0000140024000024
#00415:0000000000130000
#00516:0014000000140000
#00514:00140000
#00512:0014
#0051a:00000014
#00618:0013000000001400
#00615:00130000
#00616:0000000000140000
#00612:2400002400000000
#0061a:2400002400000000
#0071a:14
#00718:00142300
#00712:00140000
#0071b:00000013
#00710:0041
#00812:0013000000001400
#0081a:00000014
#00912:00130000
#0091b:0000000000130000
#00915:23
#0101a:00140000
#01012:00140000
#01018:00000013
#0101b:0023
#01115:0013000000000000
#01212:23140000
#01214:0000001400000000
#01216:0014
#01218:0000000000140000
#0131b:00000013
#01318:0023
#01415:0013000000001300
#01418:0000000000000013
#01618:00132300
#01615:0000001300000000
#0161b:00000013
#01715:0013000000001300
#01718:0000000000000013
#01814:00140054
#01818:0000000000141400
#01812:23
#01813:0000000000000054
#01819:0000000000000054
#01915:00130000
#01918:0000001300000053
#01912:5416
#01917:00000013
#0191a:5424
#01910:0041
#02012:0013000000000000
#02018:0000000000161600
#02019:53
#0201a:0053000000000000
#0201b:00530000
#0211b:0013
#02116:00130053
#02114:0000005300530053
#02112:0053
#02218:0000001300000000
#02212:0016160000000000
#0221b:0013
#02217:0000000000000013
#02312:13
#0231a:13
#02318:0000001300001600
#0231b:0013
#0241b:0013
#02412:0000001300000053
#02414:00005353
#02416:0000000000530000
#02512:0000000024000013
#0251a:0024
#02514:53
#02615:13
#02618:0013000000000000
#0261b:0000130000130000
#02612:00000013
#02718:0000130000130000
#02715:0000001300001300
#0271b:0013
#02712:2400000000000013
#0271a:24
#02812:00130000
#0281b:0000001300000000
#02814:0014
#02813:00000014
#02818:0024
#02819:00000024
#02912:14000026
#02918:00121416
#0291a:24
#02916:00220000
#02914:0024
#03012:1c
#03015:0000001600000000
#03115:0014
#0311a:0000000024240000
#03110:0041
#03317:14
#03312:2424000000002400
#03415:0014
#03412:24640000
#0341a:0000000024240000
#03417:00540000
#03419:000000000000000000000000005400000000000000000000000000000000000000000000000000000000000000000000
#03414:000000000000000000000000006400000000000000000000000000000000000000000000000000000000000000000000
#03512:0014
#03517:00242400
#03515:00000054
#03513:000000000000000000000000000000000000000000000000000000000000000000000000005400000000000000000000
#0351a:00000064
#03518:000000000000000000000000000000000000000000000000000000000000000000000000006400000000000000000000
#03617:14
#03612:2424000000000000
#03615:00000024
#0371a:14001424
#03715:24
#03717:00540000
#03719:000000000000000000000000005400000000000000000000000000000000000000000000000000000000000000000000
#03712:00640000
#03714:000000000000000000000000006400000000000000000000000000000000000000000000000000000000000000000000
#03815:00141414
#0381a:00242424
#03813:000000000000000000000000000000000000000000000000000000000000000000000000005400000000000000000000
#03818:000000000000000000000000000000000000000000000000000000000000000000000000006400000000000000000000
#03912:14240024
#03917:00000014
#04017:14
#04015:00140000
#0401a:00140000
#04012:2400000000000024
#04115:14
#04118:0014000000000014
#04117:0000001400000000
#04114:0000240000140000
#04116:00000024
#04112:0024
#0411a:0024
#0421b:0013
#04212:2413
#0421a:24
#04812:00000013
#04815:5200000052000013
#04819:5252
#04918:1300001300001400
#0491b:0013000000000000
#04915:00130000
#04912:0015
#0491a:0014
#05012:00130000
#05017:13131400
#05018:00000015
#05119:15
#0511b:00000013
#05114:00140000
#05116:00001313
#05215:1400000000000013
#05213:00150000
#05212:0015
#05318:13130000
#05315:0013001300000000
#0531a:00001414
#05312:0000000000140014
#0541a:14
#05418:00000013
#05415:0000000000000013
#05612:000000000000000000000000250000000000000000000000150000000000000000000000006400000000000000000000
#05617:000000000000000000000000000000000000000000000000150000000000000000000000005400000000000000000000
#0561b:0000000000130000
#05616:0000000000140000
#05619:00000054
#05614:00000064
#05814:1500000000150000
#05812:0013000000000000
#05816:0014000000000000
#05819:2525
#05817:00000025
#05813:00540000
#05815:000000000000000000000000005400000000000000000000000000000000000000000000000000000000000000000000
#0581a:000000000000000000000000006400000000000000000000000000000000000000000000000000000000000000000000
#05818:00640000
#0551b:13
#05518:0013000000000000
#05515:00130000
#05512:0000001300000000
#05519:00002525
#0551f:0021
#05917:000000000000000000000000000000000000000000000000150000000000000000000000005400000000000000000000
#0591b:0000000000130000
#05916:0000000000140000
#05912:000000000000000000000000250000000000000000000000250000000000000000000000006400000000000000000000
#05919:00000054
#05914:00000064
#06017:0015000000000000
#06018:00000014
#06014:0000250000000014
#06012:25
#0611a:14
#06115:0014000000000000
#06117:00140000
#06112:0000001400000000
#06116:00000013
#06119:0000000025250025
#06212:0014
#06216:0000001400000000
#06215:00000014
#0621a:0000000000000014
#06217:0014000064000000
#06219:000000000000000000000000250000000000000000000000006400000000000000000000000000000000000000000000
#06214:000000000000000000000000000000000000000000000000005400000000000000000000000000000000000000000000
#06317:00130000
#06315:0000000000140000
#06312:2525002500002500
#0641a:1400000000000024
#06417:00140000
#06412:00140000
#06415:24
#06517:14
#06514:0014000000000014
#06515:0000001400000000
#06518:0000240000140000
#06516:00000024
#06512:0024
#0651a:0024
#0661b:0000133300003300
#06612:2400133300003300
#0661a:24
#06712:0000000025150000
#06719:0000000025250025
#06815:0014
#06812:00000014
#06816:0000000000000014
#06813:000000000000000000000000000000000000000000000000005400000000000000000000000000000000000000000000
#06912:2525002500001500
#06917:0000000000000013
#07012:1500000025250025
#07016:0014001400000000
#07019:0000150025150000
#07117:0014
#0711a:00000014
#07116:0000000000000014
#07119:000000000000000000000000000000000000000000000000005400000000000000000000000000000000000000000000
#07219:2525002500001500
#07216:0000000000000013
#07319:1500000025250025
#07316:0014001400000000
#07312:0000150025250025
#07310:0041
#07416:00140000000000000000000000000000
#07417:0000001400000000
#07415:0000000000140000
#07412:00002515
#07419:00251525
#07516:00000000000000000014000000000000
#07515:0000000000000014
#07512:2525002500002500
#07519:2525002500000000
#07619:15
#07616:00130000
#07617:000000000000000000000000000000000000000000000000000000000000000000000000000000000000000000000000000000000000000000000000000000000000000000000000000000000000000000000000000000000000000000000000000000000000000000000000000000000000000000000000000000000000000000000000000000000000000000000000000000000000000000000000000000000000000000000000000000000000000000000000000000000000000000000000000000000000000000000000000000000000000000000000000000000000000000000000000000000000000000000000000000000000000000000000000000000000000000000000000000000000000000000000000000000000000000000000000000000000000000000000000000000000000000000000000000000000000000000000000000000000000000000000000000000000000000000000000000000000000000000000000000000000000000000000000000000000000000000000000000000000000000000000000000000000000000000000000000000000000000000000000000000000000000000000000000000000000000000000000000000000000000000000000000000000000000000000000000000000000000000013000000000000000000000000000000000000000000000000000000000000000000000000000000000000000000000000000000000000000000000000000000000000000000000000000000000000000000000000000000000000000000000000000000000000000000000000000000000000000000000000000000000000000000000000000000000000000000000000000000000000000000000000000000000000000000000000000000000000000000000000000000000000000000000000000000000000000000000000000000000000000000000000000000000000000000000000000000000000000000000000000000000000000000000000000000000000000000000000000000000000000000000000000000000000000000000000000000000000000000000000000000000000000000000000000000000000000000000000000000000000000000000000000000000000000000000000000000000000000000000000000000000000000000000000000000000000000000000000000000000000000000000000000000000000000000000000000000000000000000000000000000000000000000000000000000000000000000000000000000000000000000000000000000000000000000000000000000000000000000000000000000000000000000000000000000000000000000000000000000000000000000000000000000000000000000000000000000000000000000000000000000000000000000000000000000000000000000000000000000000000000000000000000000000000000000000000000000000000000000000000000000000000000000000000000000000000000000000000000000000000000000000000000000000000000000000000000000000000000000000000000000000000000000000000000000000000000000000000000000000000000000000000000000000000000000000000000000000000000000000000000000000000000000000000000000000000000000000000000000000000000000000000000000000000000000000000000000000000000000000000000000000000000000000000000000000000000000000000000000000000000000000000000000000000000000000000000000000000000000000000000000000000000000000000000000000000000000000000000000000000000000000000000000000000000000000000000000000000000000000000000000000000000000000000000000000000000000000000000000000000000000000000000000000000000000000000000000000000000000000000000000000000000000000000000000000000000000000000000000000000000000000000000000000000000000000000000000000000000000000000000000000000000000000000000000000000000000000000000000000000000000000000000000000000000000000000000000000000000000000000000000000000000000000000000000000000000000000000000000000000000000000000000000000000000000000000000000000000000000000000000000000000000000000000000000000000000000000000000000000000000000000000000000000000000000000000000000000000000000000000000000000000000000000000000000000000000000000000000000000000000000000000000000000000000000000000000000000000000000000000000000000000000000000000000000000000000000000000000000000000000000000000000000000000000000000000000000000000000000000000000000000000000000000000000000000000000000000000000000000000000000000000000000000000000000000000000000000000000000000000000000000000000000000000000000000000000000000000000000000000000000000000000000000000000000000000000000000000000000000000
#07612:2500000000000014
#0761a:0000000000000024
#07818:1412000000000000
#07816:0012000000000000
#07814:24
#07915:0000000000130000
#07918:00002413
#07912:000000000000000000000000000000000000000000000000240000000000000000000000000000000000006400000000
#0791a:000000000000000000000000000000000000000000000000006400000000000000000000000000000000240000000000
#07914:0000000000000024
#08118:0013002400000000
#08115:00130000
#0811a:240000000000000000000000000000000000006400000000000000000000140000000000000000000000000000000000
#08112:006400000000000000000000000000000000240000000000000000000000000000000000006400000000000000000000
#08114:24000024
#08012:0014000000002400
#08016:0000000000140000
#0801a:000000000000000000000000006400000000000000000000240000000000000000000000140000000000000000000000
#08018:00240000
#08218:0000000000130024
#08215:00000013
#08219:00140000
#08214:0024
#0821a:000000000000000000000000000000000000000000000000240000000000000000000000000000000000006400000000
#08212:240000000000000000000000000000000000000000000000006400000000000000000000000000000000240000000000
#08213:00240000
#08415:0013000000000000
#08418:24130024
#08412:240000000000000000000000000000000000006400000000000000000000140000000000000000000000000000000000
#0841a:006400000000000000000000000000000000240000000000000000000000000000000000006400000000000000000000
#08414:0000002400000000
#0831a:0014000000002400
#08312:000000000000000000000000006400000000000000000000240000000000000000000000140000000000000000000000
#08316:0000000000140000
#08314:00240000
#08513:00140000
#08515:0000000000130000
#08518:00002413
#0851a:240000000000000000000000000000000000000000000000006400000000000000000000000000000000240000000000
#08519:00240000
#08512:000000000000000000000000000000000000000000000000240000000000000000000000000000000000006400000000
#08514:0000000000000024
#08612:0014000000002400
#0861a:000000000000000000000000006400000000000000000000240000000000000000000000140000000000000000000000
#08616:0000000000140000
#08618:00240000
#08815:00150000
#0881a:0000000000000014
#08819:25
#08812:6600000026000024
#08810:0041
#08917:14
#08914:0014000000002400
#08916:0000001400000000
#08918:0000000000140000
#0891a:0000240000000014
#08912:00142400
#0901b:00000013
#09018:24
#09014:24
#09013:0000002400000000
#09012:00000024
#09212:00130000
#0921a:00242400
#09219:00000024
#09317:0000000000000014
#09318:2424000000000000
#09319:0000002424000000
#09313:0000002400000000
#09312:00000024
#0931a:00000024
#09417:0014000000000000
#09414:2400000024240000
#0941a:00240000
#09412:00240000
#09413:0000000000000024
#09419:0000000000000024
#09515:0000001400140000
#09513:24
#0951a:00240024
#09512:00240024
#09518:0024
#09618:24131313
#09615:0000001300130013
#1011c:0012
#10117:0012
#01512:00130000
#01518:0000000000130000
#01515:23
#07715:14
#07718:0014000000002400
#07716:0000001400000000
#07714:0000000000140000
#07712:0000240000000014
#0771a:00142400
#0431f:0011
#04317:0052
#0321a:00240064
#03215:00000054
#03213:000000000000000000000000000000000000000000000000000000000000000000000000005400000000000000000000
#03218:000000000000000000000000000000000000000000000000000000000000000000000000006400000000000000000000
#05712:25250000
#05719:00000025
#05710:41
#08712:2400002500002400
#08719:25000000000000640000000025000000
#0871a:0000002400000000
#08713:00640000000000000000000000000000
#08714:00006400000000000000000000640065
#08716:0000640000640064
#08715:00000064000000000000000000000000
#08718:0064
#08717:00000000000000000064000000000000
#09112:24
#09113:00240000
#09114:0024
#09119:0000000000000024
#09719:2525252500000000
#09712:2525252500000000
#09812:23
#04417:5252
#04517:5252
#04617:52
#04619:0052
#04615:0052
#04719:5252
#04715:5252
#10218:0056
#10212:0066
#0015a:14
#00153:22
#00152:00140000
#0005b:00000022
#00454:14
#00458:00140000
#00754:14
#00758:00140000
#00858:0013
#00855:0013
#01055:13
#01058:13
#01155:00000013
#01158:00000013
#01358:14
#01354:00140000
#01458:0013
#01452:0013
#01952:1466
#0195a:14
#02052:0023000000001600
#0205b:00130000
#02058:00000066
#0215b:0023
#02154:0000000000000013
#02252:00660000
#0225b:0013
#02352:23000016
#0235a:13
#0235b:0013
#02358:00000056
#0245b:0023
#02554:13
#02559:13
#03052:6c00001c
#03055:0000002600000000
#03155:0000000000000014
#0315a:0000000000000014
#03352:0000001400000000
#03357:0000001400000000
#03457:0000000000000014
#03452:0000000000000014
#03552:0064
#03557:0064
#0375a:5400000000000014
#03755:5400000000000014
#03655:0000001400000000
#0365a:0000001400000000
#03855:0014
#0385a:0014
#03957:0000001400000000
#03952:0000001400000000
#04052:6435
#04058:0035
#04055:00240000
#0405a:00240000
#04057:64
#0425a:64
#0425b:0023
#04252:5423
#04859:0012
#04855:0012
#04358:16
#04352:00160000
#04952:0065
#05052:00230000
#05159:55
#0515b:00000023
#05259:0015
#05252:0015
#0545a:14
#05559:0000000000000015
#05554:0000000000000015
#05652:0065
#05657:0065
#0565b:0000000000230000
#05656:0000000000240000
#05854:5500000000650000
#05852:0023000000000015
#05856:0024000000000000
#05857:0000000000000015
#05859:55
#05752:0000001500000000
#05757:0000001500000000
#05957:0065
#0595b:0000000000230000
#05956:0000000000240000
#05952:0065
#06057:0055000000000000
#06054:0000001500000000
#06059:0000001500000000
#06159:0000000000000015
#06259:00650000
#06256:0000002400000000
#06352:0000001500000000
#06459:0045
#0645a:64
#06452:00240000
#06457:00240000
#06453:0045
#06455:64
#0665a:64
#0665b:00230000
#06652:54230000
#06759:0000000000000015
#06752:1600000000650000
#06758:16
#06856:00130000
#06859:0015
#06952:0000001500000000
#07052:1500000000000015
#07059:0000150000550000
#07359:1500000000000045
#07352:0000150000000065
#07259:0000001500000000
#07157:00130000
#07152:0015
#07456:00240000000000000000000000000000
#07452:00350035
#07459:0045
#07556:00000000000000000024000000000000
#07552:0000003500000000
#07559:0000005500004500
#07652:5535
#07659:5545
#07656:00230000
#07657:000000000000000000000000000000000000000000000000000000000000000000000000000000000000000000000000000000000000000000000000000000000000000000000000000000000000000000000000000000000000000000000000000000000000000000000000000000000000000000000000000000000000000000000000000000000000000000000000000000000000000000000000000000000000000000000000000000000000000000000000000000000000000000000000000000000000000000000000000000000000000000000000000000000000000000000000000000000000000000000000000000000000000000000000000000000000000000000000000000000000000000000000000000000000000000000000000000000000000000000000000000000000000000000000000000000000000000000000000000000000000000000000000000000000000000000000000000000000000000000000000000000000000000000000000000000000000000000000000000000000000000000000000000000000000000000000000000000000000000000000000000000000000000000000000000000000000000000000000000000000000000000000000000000000000000000000000000000000000000000023000000000000000000000000000000000000000000000000000000000000000000000000000000000000000000000000000000000000000000000000000000000000000000000000000000000000000000000000000000000000000000000000000000000000000000000000000000000000000000000000000000000000000000000000000000000000000000000000000000000000000000000000000000000000000000000000000000000000000000000000000000000000000000000000000000000000000000000000000000000000000000000000000000000000000000000000000000000000000000000000000000000000000000000000000000000000000000000000000000000000000000000000000000000000000000000000000000000000000000000000000000000000000000000000000000000000000000000000000000000000000000000000000000000000000000000000000000000000000000000000000000000000000000000000000000000000000000000000000000000000000000000000000000000000000000000000000000000000000000000000000000000000000000000000000000000000000000000000000000000000000000000000000000000000000000000000000000000000000000000000000000000000000000000000000000000000000000000000000000000000000000000000000000000000000000000000000000000000000000000000000000000000000000000000000000000000000000000000000000000000000000000000000000000000000000000000000000000000000000000000000000000000000000000000000000000000000000000000000000000000000000000000000000000000000000000000000000000000000000000000000000000000000000000000000000000000000000000000000000000000000000000000000000000000000000000000000000000000000000000000000000000000000000000000000000000000000000000000000000000000000000000000000000000000000000000000000000000000000000000000000000000000000000000000000000000000000000000000000000000000000000000000000000000000000000000000000000000000000000000000000000000000000000000000000000000000000000000000000000000000000000000000000000000000000000000000000000000000000000000000000000000000000000000000000000000000000000000000000000000000000000000000000000000000000000000000000000000000000000000000000000000000000000000000000000000000000000000000000000000000000000000000000000000000000000000000000000000000000000000000000000000000000000000000000000000000000000000000000000000000000000000000000000000000000000000000000000000000000000000000000000000000000000000000000000000000000000000000000000000000000000000000000000000000000000000000000000000000000000000000000000000000000000000000000000000000000000000000000000000000000000000000000000000000000000000000000000000000000000000000000000000000000000000000000000000000000000000000000000000000000000000000000000000000000000000000000000000000000000000000000000000000000000000000000000000000000000000000000000000000000000000000000000000000000000000000000000000000000000000000000000000000000000000000000000000000000000000000000000000000000000000000000000000000000000000000000000000000000000000000000000000000000000000000000000000000000000000000000000000000000000000000000000000000000000000000000000000000000000000000
#07858:6422000000000000
#07854:64
#07856:0022000000000000
#07958:00460000
#07952:00360000
#08258:14
#08259:00140000
#08553:00140000
#08554:14
#08759:15
#08752:0000001500000000
#08858:0046
#08855:00250000
#08859:65
#08852:36
#09054:14
#09053:0000001400000000
#09052:00000014
#09058:64
#0905b:00000023
#09158:0014
#09154:0054
#09159:0000000000000014
#09252:00230000
#0925a:00140000
#09354:14
#09353:0000001400000000
#09352:00000014
#09452:00140000
#09459:0000000000000014
#0945a:00640000
#09458:0014
#0955a:00140014
#09552:00000054
#09654:14
#09658:14
#09752:0000001500000000
#09759:0000001500000000
#1015c:0022
#10157:0022
#01655:13
#0165b:13
#01758:0013
#01752:0013
#0055a:00000014
#0025a:00000014
#000380:1232000000000000
#0003b0:00000032320000000000000052000000
#0013a0:24
#000361:0000000000001232
#000331:00000000000000000000000000000032
#001331:32
#001321:00240000
#0013a1:0000000000000014
#0023a1:0024000000000000
#002381:00142400
#003321:0000001400240000
#003341:00000014
#004341:24
#0043a1:0000000000000014
#0053a1:0024000000000000
#005381:00142400
#006321:0000001400240000
#006341:00000014
#007341:24
#007351:0000000013000023
#0073b0:0000000000000013
#0083b0:00330000
#008380:00000000005300002300000000000000
#008321:00130000
#008351:00000000005300002300000000000000
#009381:1300002300000000
#009320:0000001300003300
#009350:00000000000000000000000000530000
#010350:23
#0093b1:00000013
#009381:00000000000000000000000000530000
#010381:23
#010321:0000000013000023
#010380:0000000000000013
#011380:00000000330000000053000023000000
#0113b0:00000000005300003300000000000000
#011351:00000000130000000053000023000000
#011321:00000000005300003300000000000000
#0123b1:1300002300000000
#012321:00000014
#012341:00000000000000000000000000540000
#013341:00240000
#0123a0:00000014
#012380:00000000000000000000000000540000
#013380:24
#013321:0000000013000023
#0133b0:0000000000000013
#0143b0:00330000
#014380:00000000005300002300000000000000
#014351:00130000
#014321:00000000005300002300000000000000
#0153b1:1300002300000000
#015320:0000001300003300
#015350:00000000000000000000000000530000
#016350:23
#015381:00000013
#0153b1:00000000000000000000000000530000
#0163b1:23
#016321:0000000013000023
#0163b0:0000000000000013
#0173b0:00330000
#017380:00000000005300002300000000000000
#017351:00130000
#017321:00000000005300002300000000000000
#0183b1:1300002300000000
#018340:0000001400002400
#019320:0016
#020320:0053000000002600
#020381:00000016
#0213b1:0053
#022381:00260000
#022320:00160000
#023320:53000026
#023381:00000016
#0243b1:0053
#025391:23
#026361:0000001400240000
#028361:14240000
#030321:1c00002c
#030351:0000005600000000
#0313a1:0000000000140024
#031350:0000000000140024
#0323a0:00140024
#032351:00001424
#033321:0014002400000000
#033370:0014002400000000
#033370:0000000000000014
#034370:00240000
#034321:14240000
#0343a1:0000000000140000
#034371:0000000000000024
#034350:0000000000140000
#034320:0000000000000024
#035320:0000001434000000
#035350:00000024
#035371:0014
#0353a1:00000024
#036321:0014000000000000
#036351:0000002400000000
#036370:0014000000000000
#0363a0:0000002400000000
#0363a0:0000000000000014
#0373a0:34
#037370:00240000
#037351:14
#037321:00240000
#037351:0000000000140024
#0373a0:0000000000001424
#039370:0014002400000000
#039321:0000142400000000
#040321:1425
#040351:00540000
#040370:14
#0403a0:00540000
#040380:0025
#0423a0:14
#0423b0:0053
#043380:26
#042321:1453
#043321:00260000
#049321:0015
#050321:00530000
#051321:25
#051390:15
#0513b0:00000053
#052390:0025
#055340:0000000000150025
#055391:0000000000001525
#056321:00153500
#056361:0000000000540000
#056341:00000024
#056370:0015
#0563b0:0000000000530000
#056390:00000024
#057370:0015002500000000
#057321:0000152500000000
#057341:0000000000000015
#058341:35
#058321:0053000000000000
#058331:00240000
#058390:15
#058360:0054000000000000
#058380:00240000
#058340:0000000000150000
#058320:0000000000005525
#058371:0000000000001525
#059371:0000001535000000
#0593b1:0000000000530000
#059391:00000024
#059320:0015
#059360:0000000000540000
#059340:00000024
#060370:0015000000000000
#060390:0000552500000000
#060341:0000152500000000
#061321:0000000000000015
#062321:00250000
#062390:00150000
#062360:0000005400000000
#062370:0024
#063390:0000001500002500
#0643a0:14
#064370:00540000
#064390:0025
#064351:14
#064321:00540000
#064331:0025
#0663a1:14
#0663b1:0000533300003300
#067381:26
#066320:1400533300003300
#067320:26
#067320:0000000000150000
#067360:0000000000000033
#068360:00230000
#068391:00152500
#069371:00130023
#070391:0000000000150000
#070371:0000000000000033
#071371:00230000
#071320:0000153525000000
#072360:00130023
#073320:0000000000000015
#074360:00540000000000000000000000000000
#074320:00250000
#075390:0000001500002500
#075360:00000000000000000054000000000000
#076320:1525
#076360:00530000
#076391:1525
#076371:000000000000000000000000000000000000000000000000000000000000000000000000000000000000000000000000000000000000000000000000000000000000000000000000000000000000000000000000000000000000000000000000000000000000000000000000000000000000000000000000000000000000000000000000000000000000000000000000000000000000000000000000000000000000000000000000000000000000000000000000000000000000000000000000000000000000000000000000000000000000000000000000000000000000000000000000000000000000000000000000000000000000000000000000000000000000000000000000000000000000000000000000000000000000000000000000000000000000000000000000000000000000000000000000000000000000000000000000000000000000000000000000000000000000000000000000000000000000000000000000000000000000000000000000000000000000000000000000000000000000000000000000000000000000000000000000000000000000000000000000000000000000000000000000000000000000000000000000000000000000000000000000000000000000000000000000000000000000000000000053000000000000000000000000000000000000000000000000000000000000000000000000000000000000000000000000000000000000000000000000000000000000000000000000000000000000000000000000000000000000000000000000000000000000000000000000000000000000000000000000000000000000000000000000000000000000000000000000000000000000000000000000000000000000000000000000000000000000000000000000000000000000000000000000000000000000000000000000000000000000000000000000000000000000000000000000000000000000000000000000000000000000000000000000000000000000000000000000000000000000000000000000000000000000000000000000000000000000000000000000000000000000000000000000000000000000000000000000000000000000000000000000000000000000000000000000000000000000000000000000000000000000000000000000000000000000000000000000000000000000000000000000000000000000000000000000000000000000000000000000000000000000000000000000000000000000000000000000000000000000000000000000000000000000000000000000000000000000000000000000000000000000000000000000000000000000000000000000000000000000000000000000000000000000000000000000000000000000000000000000000000000000000000000000000000000000000000000000000000000000000000000000000000000000000000000000000000000000000000000000000000000000000000000000000000000000000000000000000000000000000000000000000000000000000000000000000000000000000000000000000000000000000000000000000000000000000000000000000000000000000000000000000000000000000000000000000000000000000000000000000000000000000000000000000000000000000000000000000000000000000000000000000000000000000000000000000000000000000000000000000000000000000000000000000000000000000000000000000000000000000000000000000000000000000000000000000000000000000000000000000000000000000000000000000000000000000000000000000000000000000000000000000000000000000000000000000000000000000000000000000000000000000000000000000000000000000000000000000000000000000000000000000000000000000000000000000000000000000000000000000000000000000000000000000000000000000000000000000000000000000000000000000000000000000000000000000000000000000000000000000000000000000000000000000000000000000000000000000000000000000000000000000000000000000000000000000000000000000000000000000000000000000000000000000000000000000000000000000000000000000000000000000000000000000000000000000000000000000000000000000000000000000000000000000000000000000000000000000000000000000000000000000000000000000000000000000000000000000000000000000000000000000000000000000000000000000000000000000000000000000000000000000000000000000000000000000000000000000000000000000000000000000000000000000000000000000000000000000000000000000000000000000000000000000000000000000000000000000000000000000000000000000000000000000000000000000000000000000000000000000000000000000000000000000000000000000000000000000000000000000000000000000000000000000000000000000000000000000000000000000000000000000000000000000000000000000000000000000000000000
#078341:14
#078361:0052000000000000
#079321:00260000
#078380:1452000000000000
#079380:00260000
#0793a0:0000000000000014
#0803a0:0024000000000000
#080340:00142400
#081320:0000001400240000
#081380:00000014
#082380:24
#082320:0000000000000014
#083320:0024000000000000
#083380:00142400
#0843a0:0000001400240000
#084340:00000014
#085340:24
#0853a0:0000000000000014
#0863a0:0024000000000000
#086340:00142400
#088390:15
#088350:00550000
#088380:0026
#090380:14
#0903b0:00000053
#091380:0024
#091341:0014
#092321:00530000
#093341:24
#0943a1:00140000
#094381:0024
#095321:00000014
#096341:24
#098371:13
#098381:00330000000000000000000000000000
#098391:0033000000000000
#0983a1:00000033000000000000000000000000
#1013c1:0052
#102381:0026
#098320:13
#098330:00330000000000000000000000000000
#098340:0033000000000000
#098350:00000033000000000000000000000000
#101370:0052
#102320:0026
#018940:00000014
#018920:000000000000000000000000000000000000000000000000000000000000000000000000000000000000000000000000000000000000000000000000000000000000000000000000000000000000000000000000000000000000000000000000000000000000000000000000000000000000000000000000000000000000000000000000000000000000000000000000000000000000000000000000000000000000000000000000000000000000000000000000000000000000000000000000000000000000000000000000000000000000000000000000000000000000000000000000000000000000000000000000000000000000000000000000000000000000000000000000000000000000000000000000000000000000000000000000000000000000000000000000000000000000000000000000000000000000000000000000000000000000000000000000000000000000000000000000000000000000000000000000000000000000000000000000000000000000000000000000000000000000000000000000000000000000000000000000000000000000000000000000000000000000000000000000000000000000000000000000000000000000000000000000000000000000000000000000000000000000000000000000000000000000000000000000000000000000000000000000000000000000000000000000000000000000000000000000000000000000000000000000000000000000000000000000000000000000000000000000000000000000000000000000000000000000000000000000000000000000000000000000000000000000000000000000000000000000000000000000000000000000000000000000000000000000000000000000000000000000000000000000000000000000000000000000000000000000000000000000000000000000000000000000000000000000000000000000000000000000000000000000000000000000000000000000000000000000000000000000000000000000000000000000000000000000000000000000000000000000000000000000000000000000000000000000000000000000000000000000000000000000000000000000000000000000000000000000000000000000000000000000000000000000000000000000000000000000000000000000000000000000000000000000000000000000000000000000000000000000000000000000000000000000000000000000000000000000000000000000000000000000000000000000000000000000000000000000000000000000000000000000000000000000000000000000000000000000000000000000000000000000000000000000000000000000000000000000000000000000000000000000000000000000000000000000000000000000000000000000000000000000000000000000000000000000000000000000000000000000000000000000000000000000000000000000000000000000000000000000000000000000000000000000000000000000000000000000000000000000000000000000000000000000000000000000000000000000000000000000000000000000000000000000000000000000000000000000000000000000000000000000000000000000000000000000000000000000000000000000000000000000000000000000000000000000000000000000000000000000000000000000000000000000000000000000000000000000000000000000000000000000000000000000000000000000000000000000000000000000000000000000000000000000000000000000000000000000000000000000000000000000000000000000000000000000000000000000000000000000000000000000000000000000000000000000000000000000000000000000000000000000000000000000000000000000000000000000000000000000000000000000000000000000000000000000000000000000000000000000000000000000000000000000000000000000000000000000000000000000000000000000000000000000000000000000000000000000000000000000000000000000000000000000000000000000000000000000000000000000000000000000000000000000000000000000000000000000000000000000000000000000000000000000000000000000000000000000000000000000000000000000000000000000000000000000000000000000000000000000000000000000000000000000000000000000000000000000000000000000000000000000000000000000000000000000000000000000000000000000000000000000000000000000000000000000000000000000000000000000000000000000000000000000000000000000000000000000000000000000000000000000000000000000000000000000000000000000000000000000000000000000000000000000000000000000000000000000000000000000000000000000000000000000000000000000000000000000000000000000000000000000000000000000000000000000000000000000000000000000000000000000000000000000000000000000000000000000000000000000000000005454
#019920:24
#018981:00000014
#0189a1:000000000000000000000000000000000000000000000000000000000000000000000000000000000000000000000000000000000000000000000000000000000000000000000000000000000000000000000000000000000000000000000000000000000000000000000000000000000000000000000000000000000000000000000000000000000000000000000000000000000000000000000000000000000000000000000000000000000000000000000000000000000000000000000000000000000000000000000000000000000000000000000000000000000000000000000000000000000000000000000000000000000000000000000000000000000000000000000000000000000000000000000000000000000000000000000000000000000000000000000000000000000000000000000000000000000000000000000000000000000000000000000000000000000000000000000000000000000000000000000000000000000000000000000000000000000000000000000000000000000000000000000000000000000000000000000000000000000000000000000000000000000000000000000000000000000000000000000000000000000000000000000000000000000000000000000000000000000000000000000000000000000000000000000000000000000000000000000000000000000000000000000000000000000000000000000000000000000000000000000000000000000000000000000000000000000000000000000000000000000000000000000000000000000000000000000000000000000000000000000000000000000000000000000000000000000000000000000000000000000000000000000000000000000000000000000000000000000000000000000000000000000000000000000000000000000000000000000000000000000000000000000000000000000000000000000000000000000000000000000000000000000000000000000000000000000000000000000000000000000000000000000000000000000000000000000000000000000000000000000000000000000000000000000000000000000000000000000000000000000000000000000000000000000000000000000000000000000000000000000000000000000000000000000000000000000000000000000000000000000000000000000000000000000000000000000000000000000000000000000000000000000000000000000000000000000000000000000000000000000000000000000000000000000000000000000000000000000000000000000000000000000000000000000000000000000000000000000000000000000000000000000000000000000000000000000000000000000000000000000000000000000000000000000000000000000000000000000000000000000000000000000000000000000000000000000000000000000000000000000000000000000000000000000000000000000000000000000000000000000000000000000000000000000000000000000000000000000000000000000000000000000000000000000000000000000000000000000000000000000000000000000000000000000000000000000000000000000000000000000000000000000000000000000000000000000000000000000000000000000000000000000000000000000000000000000000000000000000000000000000000000000000000000000000000000000000000000000000000000000000000000000000000000000000000000000000000000000000000000000000000000000000000000000000000000000000000000000000000000000000000000000000000000000000000000000000000000000000000000000000000000000000000000000000000000000000000000000000000000000000000000000000000000000000000000000000000000000000000000000000000000000000000000000000000000000000000000000000000000000000000000000000000000000000000000000000000000000000000000000000000000000000000000000000000000000000000000000000000000000000000000000000000000000000000000000000000000000000000000000000000000000000000000000000000000000000000000000000000000000000000000000000000000000000000000000000000000000000000000000000000000000000000000000000000000000000000000000000000000000000000000000000000000000000000000000000000000000000000000000000000000000000000000000000000000000000000000000000000000000000000000000000000000000000000000000000000000000000000000000000000000000000000000000000000000000000000000000000000000000000000000000000000000000000000000000000000000000000000000000000000000000000000000000000000000000000000000000000000000000000000000000000000000000000000000000000000000000000000000000000000000000000000000000000000000000000000000000000000000000000000000000000000000000000000000000000000000000000000000005454
#0199a1:24
#019971:00000013
#0209b1:000000000000000000000000000000000000000000000000000000000000000000000000000000000000000000000000000000000000000000000000000000000000000000000000000000000000000000000000000000000000000000000000000000000000000000000000000000000000000000000000000000000000000000000000000000000000000000000000000000000000000000000000000000000000000000000000000000000000000000000000000000000000000000000000000000000000000000000000000000000000000000000000000000000000000000000000000000000000000000000000000000000000000000000000000000000000000000000000000000000000000000000000000000000000000000000000000000000000000000000000000000000000000000000000000000000000000000000000000000000000000000000000000000000000000000000000000000000000000000000000000000000000000000000000000000000000000000000000000000000000000000000000000000000000000000000000000000000000000000000000000000000000000000000000000000000000000000000000000000000000000000000000000000000000000000000000000000000000000000000053230000000000000000000000000000000000000000000000000000000000000000000000000000000000000000000000000000000000000000000000000000000000000000000000000000000000000000000000000000000000000000000000000000000000000000000000000000000000000000000000000000000000000000000000000000000000000000000000000000000000000000000000000000000000000000000000000000000000000000000000000000000000000000000000000000000000000000000000000000000000000000000000000000000000000000000000000000000000000000000000000000000000000000000000000000000000000000000000000000000000000000000000000000000000000000000000000000000000000000000000000000000000000000000000000000000000000000000000000000000000000000000000000000000000000000000000000000000000000000000000000000000000000000000000000000000000000000000000000000000000000000000000000000000000000000000000000000000000000000000000000000000000000000000000000000000000000000000000000000000000000000000000000000000000000000000000000000000000000000000000000000000000000000000000000000000000000000000000000000000000000000000000000000000000000000000000000000000000000000000000000000000000000000000000000000000000000000000000000000000000000000000000000000000000000000000000000000000000000000000000000000000000000000000000000000000000000000000000000000000000000000000000000000000000000000000000000000000000000000000000000000000000000000000000000000000000000000000000000000000000000000000000000000000000000000000000000000000000000000000000000000000000000000000000000000000000000000000000000000000000000000000000000000000000000000000000000000000000000000000000000000000000000000000000000000000000000000000000000000000000000000000000000000000000000000000000000000000000000000000000000000000000000000000000000000000000000000000000000000000000000000000000000000000000000000000000000000000000000000000000000000000000000000000000000000000000000000000000000000000000000000000000000000000000000000000000000000000000000000000000000000000000000000000000000000000000000000000000000000000000000000000000000000000000000000000000000000000000000000000000000000000000000000000000000000000000000000000000000000000000000000000000000000000000000000000000000000000000000000000000000000000000000000000000000000000000000000000000000000000000000000000000000000000000000000000000000000000000000000000000000000000000000000000000000000000000000000000000000000000000000000000000000000000000000000000000000000000000000000000000000000000000000000000000000000000000000000000000000000000000000000000000000000000000000000000000000000000000000000000000000000000000000000000000000000000000000000000000000000000000000000000000000000000000000000000000000000000000000000000000000000000000000000000000000000000000000000000000000000000000000000000000000000000000000000000000000000000000000000000000000000000000000000000000000000000000000000000000000000000000000000000000000000000000000000000000000000000000000000000000
#021961:00130053
#021921:0053
#021941:000000000000000000000000000000000000000000000000000000000000000000000000000000000000000000000000000000000000000000000000000000000000000000000000000000000000000000000000000000000000000000000000000000000000000000000000000000000000000000000000000000000000000000000000000000000000000000000000000000000000000000000000000000000000000000000000000000000000000000000000000000000000000000000000000000000000000000000000000000000000000000000000000000000000000000000000000000000000000000000000000000000000000000000000000000000000000000000000000000000000000000000000000000000000000000000000000000000000000000000000000000000000000000000000000000000000000000000000000000000000000000000000000000000000000000000000000000000000000000000000000000000000000000000000000000000000000000000000000000000000000000000000000000000000000000000000000000000000000000000000000000000000000000000000000000000000000000000000000000000000000000000000000000000000000000000000000000000000000000000000000000000000000000000000000000000000000000000000000000000000000000000000000000000000000000000000000000000000000000000000000000000000000000000000000000000000000000000000000000000000000000000000000000000000000000000000000000000000000000000000000000000000000000000000000000000000000000000000000000000000000000000000000000000000000000000000000000000000000000000000000000000000000000000000000000000000000000000000000000000000000000000000000000000000000000000000000000000000000000000000000000000000000000000000000000000000000000000000000000000000000000000000000000000000000000000000000000000000000000000000000000000000000000000000000000000000000000000000000000000000000000000000000000000000000000000000000000000000000000000000000000000000000000000000000000000000000000000000000000000000000000000000000000000000000000000000000000000000000000000000000000000000000000000000000000000000000000000000000000000000000000000000000000000000000000000000000000000000000000000000000000000000000000000000000000000000000000000000000000000000000000000000000000000000000000000000000000000000000000000000000000000000000000000000000000000000000000000000000000000000000000000000000000000000000000000000000000000000000000000000000000000000000000000000000000000000000000000000000000000000000000000000000000000000000000000000000000000000000000000000000000000000000000000000000000000000000000000000000000000000000000000000000000000000000000000000000000000000000000000000000000000000000000000000000000000000000000000000000000000000000000000000000000000000000000000000000000000000000000000000000000000000000000000000000000000000000000000000000000000000000000000000000000000000000000000000000000000000000000000000000000000000000000000000000000000000000000000000000000000000000000000000000000000000000000000000000000000000000000000000000000000000000000000000000000000000000000000000000000000000000000000000000000000000000000000000000000000000000000000000000000000000000000000000000000000000000000000000000000000000000000000000000000000000000000000000000000000000000000000000000000000000000000000000000000000000000000000000000000000000000000000000000000000000000000000000000000000000000000000000000000000000000000000000000000000000000000000000000000000000000000000000000000000000000000000000000000000000000000000000000000000000000000000000000000000000000000000000000000000000000000000000000000000000000000000000000000000000005353535353230000000000000000000000000000000000000000000000000000000000000000000000000000000000000000000000000000000000000000000000000000000000000000000000000000000000000000000000000000000000000000000000000000000000000000000000000000000000000000000000000000000000000000000000000000000000000000000000000000000000000000000000000000000000000000000000000000000000000000000000000000000000000000000000000000000000000000000000000000000000000000000000000000000000000000000000000000000000000000000000
#024921:0000001300000053
#024961:0000000000530000
#024941:000000000000000000000000000000000000000000000000000000000000000000000000000000000000000000000000000000000000000000000000000000000000000000000000000000000000000000000000000000000000000000000000000000000000000000000000000000000000000000000000000000000000000000000000000000000000000000000000000000000000000000000000000000000000000000000000000000000000000000000000000000000000000000000000000000000000000000000000000000000000000000000000000000000000000000000000000000000000000000000000000000000000000000000000000000000000000000000000000000000000000000000000000000000000000000000000000000000000000000000000000000000000000000000000000000000000000000000000000000000000000000000000000000000000000000000000000000000000000000000000000000000000000000000000000000000000000000000000000000000000000000000000000000000000000000000000000000000000000000000000000000000000000000000000000000000000000000000000000000000000000000000000000000000000000000000000000000000000000000000000000000000000000000000000000000000000000000000000000000000000000000000000000000000000000000000000000000000000000000000000000000000000000000000000000000000000000000000000000000000000000000000000000000000000000000000000000000000000000000000000000000000000000000000000000000000000000000000000000000000000000000000000000000000000000000000000000000000000000000000000000000000000000000000000000000000000000000000000000000000000000000000000000000000000000000000000000000000000000000000000000000000000000000000000000000000000000000000000000000000000000000000000000000000000000000000000000000000000000000000000000000000000000000000000000000000000000000000000000000000000000000000000000000000000000000000000000000000000000000000000000000000000000000000000000000000000000000000000000000000000000000000000000000000000000000000000000000000000000000000000000000000000000000000000000000000000000000000000000000000000000000000000000000000000000000000000000000000000000000000000000000000000000000000000000000000000000000000000000000000000000000000000000000000000000000000000000000000000000000000000000000000000000000000000000000000000000000000000000000000000000000000000000000000000000000000000000000000000000000000000000000000000000000000000000000000000000000000000000000000000000000000000000000000000000000000000000000000000000000000000000000000000000000000000000000000000000000000000000000000000000000000000000000000000000000000000000000000000000000000000000000000000000000000000000000000000000000000000000000000000000000000000000000000000000000000000000000000000000000000000000000000000000000000000000000000000000000000000000000000000000000000000000000000000000000000000000000000000000000000000000000000000000000000000000000000000000000000000000000000000000000000000000000000000000000000000000000000000000000000000000000000000000000000000000000000000000000000000000000000000000000000000000000000000000000000000000000000000000000000000000000000000000000000000000000000000000000000000000000000000000000000000000000000000000000000000000000000000000000000000000000000000000000000000000000000000000000000000000000000000000000000000000000000000000000000000000000000000000000000000000000000000000000000000000000000000000000000000000000000000000000000000000000000000000000000000000000000000000000000000000000000000000000000000000000000000000000000000000000000000000000000000000000000000000000000000000000000000000000000000000000000000000000000000000000000000000000000000000000000000000000000000000000000000000000000000000000000000000000000000000000000000000000000000000000000000000000000000000000000000000000000000000000000000000000000000000000000000000000000000000000000000000000000000000000000000000000000000000000000000000000000000000000000000000000000000000000000000000000000000000000000000000000000000000000000000000000000000000000000000000000000000000000000000000000000000000000000000005353535353
#025941:23
#032951:00000014
#032931:000000000000000000000000000000000000000000000000000000000000000000000000002400000000000000000000
#0329a0:00000014
#032980:000000000000000000000000000000000000000000000000000000000000000000000000002400000000000000000000
#034970:00140000
#034990:000000000000000000000000002400000000000000000000000000000000000000000000000000000000000000000000
#034921:00140000
#034941:000000000000000000000000002400000000000000000000000000000000000000000000000000000000000000000000
#035951:00000014
#035931:000000000000000000000000000000000000000000000000000000000000000000000000002400000000000000000000
#0359a0:00000014
#035980:000000000000000000000000000000000000000000000000000000000000000000000000002400000000000000000000
#037970:00140000
#037990:000000000000000000000000002400000000000000000000000000000000000000000000000000000000000000000000
#037921:00140000
#037941:000000000000000000000000002400000000000000000000000000000000000000000000000000000000000000000000
#0389a1:00000014
#038981:000000000000000000000000000000000000000000000000000000000000000000000000002400000000000000000000
#038950:00000014
#038930:000000000000000000000000000000000000000000000000000000000000000000000000002400000000000000000000
#043970:0000000000000000000000000000000000000000000000000000000000000000000000000000000000000000000000000000000000000000000000000000000012000000000000000000000000000000000000000000000000000000000000000000000000000000000000000000000000000000000000000000000000000022
#044970:1200000000000000000000000000000000000000000000000000000000000000000000000000000000000000000000000000000000000000000000000000002200000000000000000000000000000000000000000000000000000000000000000000000000000000000000000000000000000000000000000000000000000000
#044970:0000000000000000000000000000000000000000000000000000000000000000000000000000000000000000000000000000000000000000000000000000000012000000000000000000000000000000000000000000000000000000000000000000000000000000000000000000000000000000000000000000000000000022
#045970:1200000000000000000000000000000000000000000000000000000000000000000000000000000000000000000000000000000000000000000000000000002200000000000000000000000000000000000000000000000000000000000000000000000000000000000000000000000000000000000000000000000000000000
#045970:0000000000000000000000000000000000000000000000000000000000000000000000000000000000000000000000000000000000000000000000000000000012000000000000000000000000000000000000000000000000000000000000000000000000000000000000000000000000000000000000000000000000000022
#046970:12
#046990:0000000000000052000000000000000000000000000000000000000000000000000000000000000000000000000000000000000000000000000000000000002200000000000000000000000000000000000000000000000000000000000000000000000000000000000000000000000000000000000000000000000000000000
#046971:001200000000000000000000000000000000000000000000000000000000000000000000000000000000000000000000000000000000000000000000000000000000000000000000000000000000000000000000000000000000000000000000000000000000000000000000000000000000000000000000000000000000000000000000000000000000000000000000000000000000000000000000000000000000000000000000000000000000000000000000000000000000000000000000000000000000000000000000000000000000000000000000000000000000000000000000000000000000000000000000000000000000000000000000000000000000000000000000000000000000000000000000000000000000000000000000000000000000000000000000000000000000000000000000000000000000000000000000000000000000000000000000000000000000000000000000000000000000000000000000000000000000000000000000000000000000000000000000000000000000000000000000000000000000000000000000000000000000000000000000000000000000000000000000000000000000000000000000000000000000000000000000000000000000000000000000000000000000000000000000000000000000000000000000000000000000000000000000000000000000000000000000000000000000000000000000000000000000000000000000000000000000000000000000000000000000000000000000000000000000000000000000000000000000000000000000000000000000000000000000000000000000000000000000000000000000000000000000000000000000000000000000000000000000000000000000000000000000000000000000000000000000000000000000000000000000000000000000000000000000000000000000000000000000000000000000000000000000000000000000000000000000000000000000000000000000000000000000000000000000000000000000000000000000000000000000000000000000000000000000000000000000000000000000000000000000000000000000000000000000000000000000000000000000000000000000000000000000000000000000000000000000000000000000000000000000000000000000000000000000000000000000000000000000000000000000000000000000000000000000000000000000000000000000000000000000000000000000000000000000000000000000000000000000000000000000000000000000000000000000000000000000000000000000000000000000000000000000000000000000000000000000000000000000000000000000000000000000000000000000000000000000000000000000000000000000000000000000000000000000000000000000000000000000000000000000000000000000000000000000000000000000000000000000000000000000000000000000000000000000000000000000000000000000000000000000000000000000000000000000000000000000000000000000000000000000000000000000000000000000000000000000000000000000000000000000000000000000000000000000000000000000000000000000000000000000000000000000000000000000000000000000000000000000000000000000000000000000000000000000000000000000000000000000000000000000000000000000000000000000000000000000000000000000000000000000000000000000000000000000000000000000000000000000000000000000000000000000000000000000000000000000000000000000000000000000000000000000000000000000000000000000000000000000000000000000000000000000000000000000000000000000000000000000000000000000000000000000000000000000000000000000000000000000000000000000000000000000000000000000000000000000000000000000000000000000000000000000000000000000000000000000000000000000000000000000000000000000000000000000000000000000000000000000000000000000000000000000000000000000000000000000000000000000000000000000000000000000000000000000000000000000000000000000000000000000000000000000000000000000000000000000000000000000000000000000000000000000000000000000000000000000000000000000000000000000000000000000000000000000000000000000000000000000000000000000000000000000000000000000000000000000000000000000000000000000000000000000000000000000000000000000000000000000000000000000000000000000000000000000000000000000000000000000000000000000000000000000000000000000000000000000000000000000000000000000000000000000000000000000000000000000000000000000000000000000000000000000000000000000000000000000000000000000000000000000000000000000000000000000000000000000000000000000000000000000000000000000000000000000
#046951:0000000000000052000000000000000000000000000000000000000000000000000000000000000000000000000000000000000000000000000000000000002200000000000000000000000000000000000000000000000000000000000000000000000000000000000000000000000000000000000000000000000000000000
#046991:0000000000000000000000000000000000000000000000000000000000000000000000000000000000000000000000000000000000000000000000000000000012000000000000000000000000000000000000000000000000000000000000000000000000000000000000000000000000000000000000000000000000000022
#046950:0000000000000000000000000000000000000000000000000000000000000000000000000000000000000000000000000000000000000000000000000000000012000000000000000000000000000000000000000000000000000000000000000000000000000000000000000000000000000000000000000000000000000022
#047990:1200000000000000000000000000000000000000000000000000000000000000000000000000000000000000000000000000000000000000000000000000002200000000000000000000000000000000000000000000000000000000000000000000000000000000000000000000000000000000000000000000000000000000
#047951:1200000000000000000000000000000000000000000000000000000000000000000000000000000000000000000000000000000000000000000000000000002200000000000000000000000000000000000000000000000000000000000000000000000000000000000000000000000000000000000000000000000000000000
#047991:0000000000000000000000000000000000000000000000000000000000000000000000000000000000000000000000000000000000000000000000000000000012000000000000000000000000000000000000000000000000000000000000000000000000000000000000000000000000000000000000000000000000000022
#047950:0000000000000000000000000000000000000000000000000000000000000000000000000000000000000000000000000000000000000000000000000000000012000000000000000000000000000000000000000000000000000000000000000000000000000000000000000000000000000000000000000000000000000022
#048990:1200000000000000000000000000000000000000000000000000000000000000000000000000000000000000000000000000000000000000000000000000002200000000000000000000000000000000000000000000000000000000000000000000000000000000000000000000000000000000000000000000000000000000
#048951:1200000000000000000000000000000000000000000000000000000000000000000000000000000000000000000000000000000000000000000000000000002200000000000000000000000000000000000000000000000000000000000000000000000000000000000000000000000000000000000000000000000000000000
#056941:00000014
#056921:000000000000000000000000000000000000000000000000000000000000000000000000002400000000000000000000
#056990:00000014
#056970:000000000000000000000000000000000000000000000000000000000000000000000000002400000000000000000000
#058980:00140000
#0589a0:000000000000000000000000002400000000000000000000000000000000000000000000000000000000000000000000
#058931:00140000
#058951:000000000000000000000000002400000000000000000000000000000000000000000000000000000000000000000000
#059941:00000014
#059921:000000000000000000000000000000000000000000000000000000000000000000000000002400000000000000000000
#059990:00000014
#059970:000000000000000000000000000000000000000000000000000000000000000000000000002400000000000000000000
#062970:0014
#062990:000000000000000000000000000000000000000000000000002400000000000000000000000000000000000000000000
#062921:0014
#062941:000000000000000000000000000000000000000000000000002400000000000000000000000000000000000000000000
#068951:0014
#068931:000000000000000000000000000000000000000000000000002400000000000000000000000000000000000000000000
#071971:0014
#071991:000000000000000000000000000000000000000000000000002400000000000000000000000000000000000000000000
#079981:0014
#0799a1:000000000000000000000000000000000000000000000000002400000000000000000000000000000000000000000000
#079941:0000000000000014
#079921:000000000000000000000000000000000000000000000000000000000000000000000000000000000000002400000000
#080981:00140000
#0809a1:000000000000000000000000002400000000000000000000000000000000000000000000000000000000000000000000
#081941:14
#081921:002400000000000000000000000000000000000000000000000000000000000000000000000000000000000000000000
#081981:0000001400000000
#0819a1:000000000000000000000000000000000000002400000000000000000000000000000000000000000000000000000000
#081941:00000014
#081921:000000000000000000000000000000000000000000000000000000000000000000000000002400000000000000000000
#082941:0014
#082921:000000000000000000000000000000000000000000000000002400000000000000000000000000000000000000000000
#082981:0000000000000014
#0829a1:000000000000000000000000000000000000000000000000000000000000000000000000000000000000002400000000
#083941:00140000
#083921:000000000000000000000000002400000000000000000000000000000000000000000000000000000000000000000000
#084981:14
#0849a1:002400000000000000000000000000000000000000000000000000000000000000000000000000000000000000000000
#084941:0000001400000000
#084921:000000000000000000000000000000000000002400000000000000000000000000000000000000000000000000000000
#084981:00000014
#0849a1:000000000000000000000000000000000000000000000000000000000000000000000000002400000000000000000000
#085981:0014
#0859a1:000000000000000000000000000000000000000000000000002400000000000000000000000000000000000000000000
#085941:0000000000000014
#085921:000000000000000000000000000000000000000000000000000000000000000000000000000000000000002400000000
#086981:00140000
#0869a1:000000000000000000000000002400000000000000000000000000000000000000000000000000000000000000000000
#087921:14
#087961:000000000000000000000000000000000000000000000000000000000000000000000000000000000000000000000000000000000000000000000000000000000000000000000000000000000000000000000000000000000000000000000000000000000000000000000000000000000000000000000000000000000000000000000000000000000000000000000000000000000000000000000000000000000000000000000000000000000000000000000000000000000000000000000000000000000000000000000000000000000000000000000000000000000000000000000000000000000000000000000000000000000000000000000000000000000000000000000000000000000000000000000000000000000000000000000000000000000000000000000000000000000000000000000000000000000000000000000000000000000000000000000000000000000000000000000000000000000000000000000000000000000000000000000000000000000000000000000000000000000000000000000000000000000000000000000000000000000000000000000000000000000000000000000000000000000000000000000000000000000000000000000000000000000000000000000000000000000000000054005454240000000000000000000000000000000000000000000000000000000000000000000000000000000000000000000000000000000000000000000000000000000000000000000000000000000000000000000000000000000000000000000000000000000000000000000000000000000000000000000000000000000000000000000000000000000000000000000000000000000000000000000000000000000000000000000000000000000000000000000000000000000000000000000000000000000000000000000000000000000000000000000000000000000000000000000000000000000000000000000000000000000000000000000000000000000000000000000000000000000000000000000000000000000000000000000000000000000000000000000000000000000000000000000000000000000000000000000000000000000000000000000000000000000000000000000000000000000000000000000000000000000000000000000000000000000000000000000000000000000000000000000000000000000000000000000000000000000000000000000000000000000000000000000000000000000000000000000000000000000000000000000000000000000000000000000000000000000000000000000000000000000000000000000000000000000000000000000000000000000000000000000000000000000000000000000000000000000000000000000000000000000000000000000000000000000000000000000000000000000000000000000000000000000000000000000000000000000000000000000000000000000000000000000000000000000000000000000000000000000000000000000000000000000000000000000000000000000000000000000000000000000000000000000000000000000000000000000000000000000000000000000000000000000000000000000000000000000000000000000000000000000000000000000000000000000000000000000000000000000000000000000000000000000000000000000000000000000000000000000000000000000000000000000000000000000000000000000000000000000000000000000000000000000000000000000000000000000000000000000000000000000000000000000000000000000000000000000000000000000000000000000000000000000000000000000000000000000000000000000000000000000000000000000000000000000000000000000000000000000000000000000000000000000000000000000000000000000000000000000000000000000000000000000000000000000000000000000000000000000000000000000000000000000000000000000000000000000000000000000000000000000000000000000000000000000000000000000000000000000000000000000000000000000000000000000000000000000000000000000000000000000000000000000000000000000000000000000000000000000000000000000000000000000000000000000000000000000000000000000000000000000000000000000000000000000000000000000000000000000000000000000000000000000000000000000000000000000000000000000000000000000000000000000000000000000000000000000000000000000000000000000000000000000000000000000000000000000000000000000000000000000000000000000000000000000000000000000000000000000000000000000000000000000000000000000000000000000000000000000000000000000000000000000000000000000000000000000000000000000000000000000000000000000000000000000000000000000000000000000000000000000000000000000000000000000000000000000000000000000000000000000000000000000000000000000000000000000000000000000000
#0879a1:0000001400000000
#087961:000000000000000000000000000000000000000000000000000000000000000000000000000000000000000000000000000000000000000000000000000000000000000000000000000000000000000000000000000000000000000000000000000000000000000000000000000000000000000000000000000000000000000000000000000000000000000000000000000000000000000000000000000000000000000000000000000000000000000000000000000000000000000000000000000000000000000000000000000000000000000000000000000000000000000000000000000000000000000000000000000000000000000000000000000000000000000000000000000000000000000000000000000000000000000000000000000000000000000000000000000000000000000000000000000000000000000000000000000000000000000000000000000000000000000000000000000000000000000000000000000000000000000000000000000000000000000000000000000000000000000000000000000000000000000000000000000000000000000000000000000000000000000000000000000000000000000000000000000000000000000000000000000000000000000000000000000000000000000000000000000000000000000000000000000000000000000000000000000000000000000000000000000000000000000000000000000000000000000000000000000000000000000000000000000000000000000000000000000000000000000000000000000000000000000000000000000000000000000000000000000000000000000000000000000000000000000000000000000000000000000000000000000000000000000000000000000000000000000000000000000000000000000000000000000000000000000000000000000000000000000000000000000000000000000000000000000000000000000000000000000000000000000000000000000000000000000000000000000000000000000000000000000000000000000000000000000000000000000000000000000000000000000000000000000000000000000000000000000000000000000000000000000000000000000000000000000000000000000000000000000000000000000000000000000000000000000000000000000000000000000000000000000000000000000000000000000000000000000000000000000000000000000000000000000000000000000000000000000000000000000000000000000000000000000000000000000000000000000000000000000000000000000000000000000000000000000000000000000000000000000000000000000000000000000000000000000000000000000000000000000000000000000000000000000000000000000000000000000000000000000000000000000000000000000000000000000000000000000000000000000000000000000000000000000000000000000000000000000000000000000000000000000000000000000000000000000000000000000000000000000000000000000000000000000000000000000000000000000000000000000000000000000000000000000000000000000000000000000054005454240000000000000000000000000000000000000000000000000000000000000000000000000000000000000000000000000000000000000000000000000000000000000000000000000000000000000000000000000000000000000000000000000000000000000000000000000000000000000000000000000000000000000000000000000000000000000000000000000000000000000000000000000000000000000000000000000000000000000000000000000000000000000000000000000000000000000000000000000000000000000000000000000000000000000000000000000000000000000000000000000000000000000000000000000000000000000000000000000000000000000000000000000000000000000000000000000000000000000000000000000000000000000000000000000000000000000000000000000000000000000000000000000000000000000000000000000000000000000000000000000000000000000000000000000000000000000000000000000000000000000000000000000000000000000000000000000000000000000000000000000000000000000000000000000000000000000000000000000000000000000000000000000000000000000000000000000000000000000000000000000000000000000000000000000000000000000000000000000000000000000000000000000000000000000000000000000000000000000000000000000000000000000000000000000000000000000000000000000000000000000000000000000000000000000000000000000000000000000000000000000000000000000000000000000000000000000000000000000000000000000000000000000000000000000000000000000000000000000000000000000000000000000000000000000000000000000000000000000000000000000000000000000000000000000000000000000000000000000000000000
#087921:000000000000000000000000000000000000000000000000000000000000000000000000000000000000000000000000000000000000000000000000000000000000000000000000000000000000000000000000000000000000000000000000000000000000000000000000000000000000000000000000000000000000000000000000000000000000000000000000000000000000000000000000000000000000000000000000000000000000000000000000000000000000000000000000000000000000000000000000000000000000000000000000000000000000000000000000000000000000000000000000000000000000000000000000000000000000000000000000000000000000000000000000000000000000000000000000000000000000000000000000000000000000000000000000000000000000000000000000000000000000000000000000000000000000000000000000000000000000000000000000000000000000000000000000000000000000000000000000000000000000000000000000000000000000000000000000000000000000000000000000000000000000000000000000000000000000000000000000000000000000000000000000000000000000000000000000000000000000000000000000000000000000000000000000000000000000000000000000000000000000000000000000000000000000000000000000000000000000000000000000000000000000000000000000000000000000000000000000000000000000000000000000000000000000000000000000000000000000000000000000000000000000000000000000000000000000000000000000000000000000000000000000000000000000000000000000000000000000000000000000000000000000000000000000000000000000000000000000000000000000000000000000000000000000000000000000000000000000000000000000000000000000000000000000000000000000000000000000000000000000000000000000000000000000000000000000000000000000000000000000000000000000000000000000000000000000000000000000000000000000000000000000000000000000000000000000000000000000000000000000000000000000000000000000000000000000000000000000000000000000000000000000000000000000000000000000000000000000000000000000000000000000000000000000000000000000000000000000000000000000000000000000000000000000000000000000000000000000000000000000000000000000000000000000000000000000000000000000000000000000000000000000000000000000000000000000000000000000000000000000000000000000000000000000000000000000000000000000000000000000000000000000000000000000000000000000000000000000000000000000000000000000000000000000000000000000000000000000000000000000000000000000000000000000000000000000000000000000000000000000000000000000000000000000000000000000000000000000000000000000000000000000000000000000000000000000000000000000000000000000000000000000000000000000000000000000000000000000000000000000000000000000000000000000000000000000000000000000000000000000000000000000000000000000000000000000000000000000000000000000000000000000000000000000000000000000000000000000000000000000000000000000000000000000000000000000000000000000000000000000000000000000000000000000000000000000000000000000000000000000000000000000000000000000000000000000000000000000000000000000000000000000000000000000000000000000000000000000000000000000140000000000000000000000000000000000000000000000000000000000000000000000000000000000000000000000000000000000000000000000000000000000000000000000000000000000000000000000000000000000000000000000000000000000000000000000000000000000000000000000000000000000000000000000000000000000000000000000000000000000000000000000000000000000000000000000000000000000000000000000000000000000000000000000000000000000000000000000000000000000000000000000000000000000000000000000000000000000000000000000000000000000000000000000000000000000000000000000000000000000000000000000000000000000000000000000000000000000000000000000000000000000000000000000000000000000000000000000000000000000000000000000000000000000000000000000000000000000000000000000000000000000000000000000000000000000000000000000000000000000000000000000000000000000000000000000000000000000000000000000000000000000000000000000000000000000000000000000000000000000000000000000000000000000000000000000000000000000000000565656
#087961:0000000000000054
#088921:26
