This file was generated by Ched 2.7.0.0.
#TITLE ""
#ARTIST ""
#DESIGNER ""
#DIFFICULTY 0
#PLAYLEVEL
#SONGID ""
#WAVE ""
#WAVEOFFSET 0
#JACKET ""
#REQUEST "ticks_per_beat 480"
#00002: 4
#BPM01: 192
#00008: 01
#TIL00: ""
#VOLUME: ""
#HISPEED 00
#MEASUREHS 00
#00118:0000000000130000
#00115:00000013
#0011b:0000000000000013
#00119:23230000
#00114:23230000
#00112:0024
#0021b:0013000000333333
#00215:00130000
#00218:0013
#00315:0013000000000000
#00318:00130013
#00312:0000001300130000
#0041b:0000000000130000
#00412:00000013
#00418:0000240000000013
#00414:2424
#00518:0013000013000000
#00512:00130000
#0051b:0000000000331333
#00612:0013000000000000
#0061b:00130000
#00615:0000001300130000
#0061a:00000014
#00818:00000013
#00815:0000000000000013
#00817:0014000000000000
#00812:00240000
#00717:00000014
#00712:0000000024000024
#00710:0041
#00915:0000140000140000
#0091a:2400002400002400
#01015:00130000
#01018:0000001300000000
#01019:00000014
#01012:0024
#01013:0000000000000024
#0111a:0014000000000000
#01114:00240014
#01213:00140000
#01212:0000000000140000
#0121a:24
#01219:0000002400000000
#01218:00000024
#01318:00140000
#0131a:00000014
#01312:0024
#01314:0000000000000024
#01418:0014000000001300
#01415:0000000000000013
#01412:00240000
#01512:00140000
#01514:0000000000140000
#0151a:24000024
#01518:0000002400000000
#01615:00130000
#01618:0000001300000000
#0161a:00000014
#01614:0024
#01612:0000000000000024
#01718:0014000000001300
#01715:0000000000000013
#01714:00240000
#01812:00140000
#01814:0000000000140000
#01818:24000024
#0181a:0000002400000000
#01912:00140000
#0191a:00000014
#01917:0000000000000034
#01910:0041
#01913:0000005400000000
#01914:0054
#02017:3434140000000000
#0201a:0000000000340000
#02115:0000003434343414
#02112:00140000
#02218:00000014
#02214:0000000000000014
#02212:0034343400000000
#02318:14
#0231a:0000003434000000
#02415:0000001300130013
#02418:00001313
#02513:0000000000000013
#02618:13130000
#02615:0013000000331300
#02613:0000001300000000
#02718:00130013
#02715:0000001300130013
#0271a:0013
#0281a:14
#02815:0013
#02818:0000333313000000
#02912:00130000
#02915:0013
#0291b:00130000
#02918:0013
#03018:00000013
#0301b:0000000000000033
#0311b:3313333300000000
#03117:0024
#03110:0041
#03212:00141400
#03218:00000013
#03215:0000000000000013
#03319:13
#03314:0013000000000000
#0331a:00130000
#03315:00000013
#03312:0000000000000033
#0361b:00000013
#03614:13
#03619:0013000000000000
#03613:00130000
#03618:0000000000000033
#03717:0013000000000000
#03718:3300333300000000
#0351a:00141400
#03515:00000013
#03518:0000000000000013
#03512:0000001400000000
#03412:3313333300000000
#03812:00140000
#0381a:0014
#03815:00000013
#03818:0000000000000013
#03913:13
#0391a:0013000000000000
#03916:00140000
#0401a:14
#04012:14
#0401b:0000000000000013
#04115:13130000
#0411b:0013001300000000
#04112:00001313
#04118:0000000000130013
#04215:0014
#04212:23
#04518:14
#04318:0012
#0431f:0011
#04814:14
#04818:14
#04616:0012
#04912:14
#0491a:14
#04915:00001333
#05012:00163333
#05015:33
#05118:13333316
#05215:00000013
#0521b:33330000
#05318:13
#05315:00130000
#0531a:00001414
#05312:0000000000140014
#0551a:00120000
#05514:00120000
#05519:24
#05513:24
#0551f:0021
#0561b:00130013
#05615:0000130000000013
#05612:0013
#05618:0013
#05718:13
#05715:0013000000000034
#05712:00000014
#0571b:00130000
#05710:41
#05815:3414343400000000
#05918:0000130000000013
#05915:0000001300000000
#0591b:0013
#05912:00000013
#06015:13
#06018:0013000000000000
#0601a:00000014
#06012:00130000
#06017:0000000000000034
#06117:3414343400000000
#06212:00130013
#06218:0000130000000013
#0621b:0013
#06215:0013
#06315:13
#06318:0013000000000000
#06312:00130000
#06415:13
#0641b:00130000
#06412:0000130000000013
#06418:23
#06518:13130013
#06515:0013000000130013
#06512:0000001300000000
#0651b:0013
#06612:00000014
#0661b:23
#06615:0000000000000034
#06715:3414343400000000
#06712:0025
#06812:00130013
#06818:0000130000000013
#0681b:0013
#06815:0013
#06914:13
#0691a:0013000000001400
#06916:00130000
#06917:0000000000000034
#07017:3414343400000000
#07019:0025
#07112:00130000
#07118:0000001300000000
#07115:0000000013000013
#0711b:00000013
#07219:13
#07213:0013000000000000
#07212:00000014
#07217:00130000
#07215:0000000000000034
#07315:3414343400000000
#07312:0025
#07310:0041
#07417:00130000
#07419:0013
#0741b:00000013
#07414:0023
#07412:00230000
#07416:00000023
#07512:14
#0751a:0014000000000000
#07514:00140000
#07612:1400000000000013
#07618:00130000
#07615:00130000
#0761a:24
#07717:13
#07713:0013000000000000
#07718:00130000
#07714:0000001300000000
#0771b:0013
#07716:0000000000130000
#0771a:00000013
#07715:0000000000000013
#07918:0000000000140000
#07914:00000014
#0791a:0000000000000014
#07912:0024
#0801a:0014000014000000
#08014:00140000
#08017:0000000000341434
#08114:0014000000000000
#08118:00140014
#08112:0000001400140000
#08214:0000000000140000
#08218:00000014
#08212:2400000000000014
#08216:00240000
#0821a:0024
#08312:0014000014000000
#08318:00140000
#08315:0000000000341434
#08418:0014000000000000
#08414:00140014
#0841a:0000001400140000
#08518:0000000000140000
#08514:00000014
#0851a:2400000000000014
#08516:00240000
#08512:0024
#0861a:0014000014000000
#08614:00140000
#08617:0000000000341434
#08714:00140000
#08713:0000000000140000
#0871a:24
#08719:0000002400000000
#08718:00000024
#0881a:0000000000000014
#08812:24
#08810:0041
#08915:14140000
#0891a:0014001400000000
#08912:00001414
#08917:0000000000140014
#09315:00140000
#09314:0000000000140000
#0931a:24
#09319:0000002500000000
#09318:00000026
#09417:00000014
#09412:2600000024000025
#09418:00260000
#09518:0014000026000000
#09512:00260026
#10117:0012
#09817:13
#09812:23
#07819:23
#09012:24
#0961a:2400343434343434
#09612:0000343434343434
#0971a:3434340000000000
#09712:3434340000000000
#10213:006a
#00152:0014
#0035a:14
#00258:0063
#00558:0063
#0055b:00000063
#00454:0014
#00658:14
#0065a:00000064
#00757:00140000
#00852:0014
#0105a:14
#01154:00001414
#01358:14140000
#01452:0014
#0165a:14
#01754:0014
#01958:14
#01954:0014
#0195a:00000064
#0205a:00000014
#02057:00640000
#02155:0000000000000064
#02152:00640000
#02252:0014
#0235a:00000014
#02358:64
#0255a:0014
#02752:34
#02655:00000023
#02653:0000006300000000
#0285a:64
#02855:0063
#02858:0053
#02952:00630014
#02955:0063
#0295b:00530000
#02958:0053
#0295a:00000014
#03157:0014
#0315b:0023000000000000
#03058:00000063
#0335a:00130000
#03355:00000053
#0365b:00000053
#03653:00130000
#03757:0023000000000000
#0375a:0014
#03452:0023000000000000
#03455:0014
#03956:00140000
#04058:0014
#0405a:64
#04052:54
#04054:0014
#04252:63
#04255:0024
#04352:35
#04358:0022
#04558:64
#04854:5412
#0485a:0012
#04858:64
#04656:0022
#04955:0023
#05052:00660000
#05158:23000056
#0525b:0013
#05352:0000000000000014
#05558:0016
#0555a:00220000
#05559:64
#05554:00220000
#05553:54
#05552:0016
#05852:0034
#05855:0024000000000000
#05752:00000064
#0575b:00130000
#0605a:00000054
#06052:00130000
#06157:0024000000000000
#0615a:0044
#06352:00530000
#06454:0014
#06458:6314
#06455:63
#0645b:00230000
#06452:00230000
#0665b:53
#06652:00000064
#06755:0024000000000000
#06752:0035
#0695a:00000054
#06956:00130000
#07057:0024000000000000
#07059:0045
#07155:0013
#06855:0013
#0685b:0013
#07252:00000064
#07257:00130000
#07355:0024000000000000
#07352:0035
#07456:00000013
#0745b:00000013
#07652:6434
#0765a:6444
#07658:00230000
#07655:00230000
#07554:00640000
#07957:17
#07952:0014
#07859:23
#0815a:14
#08158:00000014
#0805a:0064
#08057:00000024
#08352:0054
#08355:00000024
#08454:00000014
#08452:14
#0825a:0014
#08552:0014
#0865a:0064
#08657:00000024
#0875a:14
#08759:0000001400000000
#08758:00000014
#08855:0016
#08852:64
#09758:0000001600000000
#09752:0000001600000000
#09852:63
#10157:0022
#002380:0013
#0023b0:0000000000333333
#0033a0:24
#005380:0013
#0053b0:0000000000333333
#006380:24
#0063a0:00000014
#007370:00240000
#008320:00142400
#0093a0:00000014
#0103a0:24
#011340:00142400
#012380:00000014
#013380:24
#014320:00142400
#0153a0:00000014
#0163a0:24
#017340:00142400
#018380:00000014
#019380:24
#0193a0:00000014
#019370:0000000000000034
#020370:3434340000000000
#0203a0:0000000000342400
#021320:00140000
#021350:0000003434343434
#022320:0034343424000000
#023380:14
#0233a0:0000003434002400
#0253a0:1424
#026330:0000001300000000
#026350:0000000000333300
#027320:24
#0283a0:14
#028380:0000333333000000
#0293b0:00330000
#029380:0033
#0293a0:00000024
#028351:0013
#029321:00330024
#029351:0033
#030381:00000013
#0303b1:0000000000000033
#0313b1:3333333300000000
#031371:0024
#033351:00000013
#033321:0000000000000033
#034321:3333333300000000
#034351:0024
#0363b1:00000013
#036381:0000000000000033
#037381:3300333300000000
#037371:0033000000000000
#0373a1:0024
#0403a1:14
#040381:0024
#040320:14
#040340:0024
#042320:13
#042350:0054
#043320:25
#043380:0012
#045380:34
#0463a0:0022
#046361:0012
#048341:3422
#048380:14
#0483a0:0022
#049350:00001333
#050350:33
#050320:00363333
#051320:23
#051381:13333336
#0523b1:33332300
#055391:14
#0553a1:00520000
#055381:0026
#055330:14
#055340:00520000
#055320:0026
#057320:00000014
#057350:0000000000000034
#058350:3434343400000000
#058320:0024
#0603a0:00000014
#060370:0000000000000034
#061370:3434343400000000
#0613a0:0024
#063320:00130000
#064350:33
#064320:00530000
#064340:0024
#064381:1324
#0643b1:00530000
#0663b1:13
#066371:0024
#066321:00000014
#066351:0000000000000034
#067351:3434343400000000
#067321:0025
#0693a1:00000014
#069371:0000000000000034
#070371:3434343400000000
#070391:0025
#072321:00000014
#072351:0000000000000034
#073351:3434343400000000
#073321:0025
#075341:00140000
#076321:3424
#076351:00530000
#0763a0:1424
#076380:00530000
#078390:13
#079370:27
#0803a0:0014
#080370:0000000000343434
#0813a0:24
#083320:0014
#083350:0000000000343434
#084320:24
#0863a0:0014
#086370:0000000000343434
#0873a0:24
#088320:14
#088350:0026
#090320:14
#092340:0028
#0963a0:1400343434343434
#0973a0:3434340000000000
#097380:0000002600000000
#096321:1400343434343434
#097321:3434342600000000
#098321:13
#101371:5252
#102331:002a
#019920:00140000
#019940:000000000000000000000000000000000000000000000000000000000000000000000000000000000000000000000000000000000000000000000000000000000000000000000000000000000000000000000000000000000000000000000000000000000000000000000000000000000000000000000000000000000000000000000000000000000000000000000000000000000000000000000000000000000000000000000000000000000000000000000000000000000000000000000000000000000000000000000000000000000000000000000000000000000000000000000000000000000000000000000000000000000000000000000000000000000000000000000000000000000000000000000000000000000000000000000000000000000000000000000000000000000000000000000000000000000000000000000000000000000000000000000000000000000000000000000000000000000000000000000000000000000000000000000000000000000000000000000000000000000000000000000000000000000000000000000000000000000000000000000000000000000000000000000000000000000000000000000000000000000000000000000000000000000000000000000000000000000000000000000000000000000000000000000000000000000000000000000000000000000000000000000000000000000000000000000000000000000000000000000000000000000000000000000000000000000000000000000000000000000000000000000000000000000000000000000000000000000000000000000000000000000000000000000000000000000000000000000000000000000000000000000000000000000000000000000000000000000000000000000000000000000000000000000000000000000000000000000000000000000000000000000000000000000000000000000000000000000000000000000000000000000000000000000000000000000000000000000000000000000000000000000000000000000000000000000000000000000000000000000000000000000000000000000000000000000000000000000000000000000000000000000000000000000000000000000000000000000000000000000000000000000000000000000000000000000000000000000000000000000000000000000000000000000000000000000000000000000000000000000000000000000000000000000000000000000000000000000000000000000000000000000000000000000000000000000000000000000000000000000054240000000000000000000000000000000000000000000000000000000000000000000000000000000000000000000000000000000000000000000000000000000000000000000000000000000000000000000000000000000000000000000000000000000000000000000000000000000000000000000000000000000000000000000000000000000000000000000000000000000000000000000000000000000000000000000000000000000000000000000000000000000000000000000000000000000000000000000000000000000000000000000000000000000000000000000000000000000000000000000000000000000000000000000000000000000000000000000000000000000000000000000000000000000000000000000000000000000000000000000000000000000000000000000000000000000000000000000000000000000000000000000000000000000000000000000000000000000000000000000000000000000000000000000000000000000000000000000000000000000000000000000000000000000000000000000000000000000000000000000000000000000000000000000000000000000000000000000000000000000000000000000000000000000000000000000000000000000000000000000000000000000000000000000000000000000000000000000000000000000000000000000000000000000000000000000000000000000000000000000000000000000000000000000000000000000000000000000000000000000000000000000000000000000000000000000000000000000000000000000000000000000000000000000000000000000000000000000000000000000000000000000000000000000000000000000000000000000000000000000000000000000000000000000000000000000000000000000000000000000000000000000000000000000000000000000000000000000000000000000000000000000000000000000000000000000000000000000000000000000000000000000000000000000000000000000000000000000000000000000000000000000000000000000000000000000000000000000000000000000000000000000000000000000000000000000000000000000000000000000000000000000000000000000000000000000000000000000000000000000000000000000000000000000000000000000000000000000000000000000000000000000000000000000000000000000000000000000000000000000000000000000000000000000000000000000000000000000000000000000000
