This file was generated by Ched 2.7.0.0.
#TITLE ""
#ARTIST ""
#DESIGNER ""
#DIFFICULTY 0
#PLAYLEVEL
#SONGID ""
#WAVE ""
#WAVEOFFSET 0
#JACKET ""
#REQUEST "ticks_per_beat 480"
#00002: 4
#BPM01: 192
#00008: 01
#TIL00: "43'960:10000, 43'1440:1"
#VOLUME: ""
#HISPEED 00
#MEASUREHS 00
#00116:0014000000000000
#00119:52132500
#00115:5200001600001500
#00115:52
#00114:00130000
#00112:0015
#00117:0000000000150000
#00113:0000000000000015
#0011a:0000000000000024
#00216:0014000000140000
#00214:00151400
#00215:0000000000000014
#00213:00000014
#0021a:00240000
#00219:0024
#00218:00000024
#00212:000000000000000000000000000000000000000000000000005400000000000000000000005400000000000000000000
#00319:15
#00314:0015000000000000
#00316:0000150000140000
#00318:0000001500000000
#00317:00000015
#00312:2500002400002400
#00416:0014000000000000
#00417:0000001400150000
#00412:0015
#00415:00000015
#00413:2400000000000015
#00418:14
#00419:00142500
#00414:00240000
#0041a:005400000000000000000000005400000000000000000000000000000000000000000000000000000000240000000000
#00512:000000000000140000000000000000000000000000000000005400000000000000000000005400000000000000000000
#00514:00151400
#00516:1400000000140000
#00515:0000000000000014
#00513:00000014
#0051a:00240000
#00519:0024
#00518:00000024
#00619:15
#00614:0015000000000000
#00616:00151400
#00618:00000000000015000000000000130000
#0061a:0000000000140000
#00615:0000000000002313
#00612:2500002400000000
#00716:0014000000001300
#0071a:24140000
#00712:14240000
#00713:0000000000000013
#00714:0023
#00710:0041
#00815:0013000000000000
#00812:00130013
#00814:0013
#0081b:00000013
#0081a:0000000000000013
#00917:00130000
#0091a:0000001300000000
#00918:0000000000130000
#0091b:00000013
#00919:23
#01019:13
#0101b:00130000
#01012:00130000
#01014:0000001300000000
#01013:00000013
#01015:0000000000000013
#01016:0023
#01112:0013000013000000
#01114:00130013
#01118:000000000000000000000000000000000000000000000000005300000000000000000000130000000000000000000000
#01116:0053
#0111a:000000000000000000000000000000000000000000000000000000000000000000000000005300000000000000000000
#0121a:000000000000000000000000130000000000005300000000000000000000000000000000000000000000000000000000
#01218:0000001300000000
#01219:00000013
#01213:0000001300000000
#01217:2300000000130000
#01215:0013
#01212:0000000000130000
#0131b:1300001300000000
#01315:0013000000000000
#01313:00130000
#01318:0000130000000023
#01316:00000013
#01314:0023
#01414:0013
#01412:00230013
#0141b:00000013
#0141a:0013000000000013
#0161b:0000130000000023
#01612:00130000
#01614:0000001300000000
#01613:00000013
#01619:13
#01616:0023
#01718:000000000000130000000000000000000000000000000000005300000000000000000000000000000000000000000000
#01712:0013
#0171a:00000013
#01716:00005313
#01714:000000000000000000000000230000000000000000000000000000000000000000000000005300000000000000000000
#01517:00130000
#01513:0000000000130000
#01519:23
#01515:0000002300000000
#0151b:00000023
#0181a:00130000
#01815:0000000000130000
#01814:00000013
#0181b:0000000000000013
#01817:23
#01812:0000002300000000
#01819:00000023
#01816:000000000000000000000000000000000000000000000000000000000000000000000000005300000000000000000000
#0191b:1323
#01917:00130013
#01919:0000001300000013
#01912:000000130000005500000000
#01914:000000130000000000130000005400000000000000000000
#01916:2413
#01910:0041
#02012:00130015
#0201b:13
#02016:0013000000000000
#02018:000000000000130000000000000000000000005400000000
#0201a:0000000000140000
#02017:00000013
#02019:000000000055
#02116:00130000
#02114:0000001300000000
#02112:0013
#02117:0000000000130000
#02115:00000013
#02113:0000000000000013
#0211b:00130000000000001300000000000000
#02212:000000000000000000000000000000000000000000000000000000000000000000000000000000000000000000000000000000000000000000000000000000000000000000000000000000000000000000000000000000000000000000000000000000000000000000000000000000000000000000000000000000000000000000000000000000000000000000000000000000000000000000000000000000000000000000000000000000000000000000000000000000000000000000000000000000000000000000000000000000000000000000000000000000000000000000000000000000000000000000000000130000000000000000000000000000000000000000000000000000000000000000000000000000000000000000000000000000000000000000000000000000000000000000000000000000000000000000000000000000000000000000000000000000000000000000000000000000000000000000000000000000000000000000000000000000000000000000000000000000000000000000000000000000000000000000000000000000000000000000000000000000000000000000000000000000000000000000000000000000000000000000000000000000000000000000000000000000000000000000000000000000000000000000000000000000000000000000000000000000000000000000000000000000000000000000000000000000000000000000000000000000000000000000000000000000000000000000000000000000000000000000000000000000000000000000000000000000000000000000000000000000000000000000000000000000000000000000000000000000000000000000000000000000005500000000000000000000000000000000000000000000000000000000000000000000000000000000000000000000000000000000000000000000000000000000000000000000000000000000000000000000000000000000000000000000000000000000000000000000000000000000000000000000000000000000000000000000000000000000000000000000000000000000000000000000000000000000000000000000000000000000000000000000000000000000000000000000000000000000000000000000000000000000000000000000000000000000000000000000000000000000000000000000000000000000000000000000000000000000000000000000000000000000000000000000000000000000000000000000000000000000000000000000000000000000000000000000000000000000000000000000000000000000000000000000000000000000000000000000000000000000000000000000000000000000000000000000000000000000000000000000000000000000000000000000000000000000000000000000000000000000000000000000000000000000000000000000000000000000000000131300000000000000000000000000000000000000000000000000000000000000000000000000000000000000000000000000000000000000000000000000000000000000000000000000000000000000000000000000000000000000000000000000000000000000000000000000000000000000000000000000000000000000000000000000000000000000000000000000000000000000000000000000000000000000000000000000000000000000000000000000000000000000000000000000000000000000000000000000000000000000000000000000000000000000000000000000000000000000000000000000000000000000000000000000000000000000000000000000000000000000000000000000000000000000000000000000000000000000000000000000000000000000000000000000000000000000000000000000000000000000000000000000000000000000000000000000000000000000000000130000000000000000000000000000000000000000000000000000000000000000000000000000000000000000000000000000000000000000000000000000000000000000000000000000000000000000000000000000000000000000000000000000000000000000000000000000000000000000000000000000000000000000000000000000000000000000000000000000000000000000000000000000000000000000000000000000000000000000000000000000000000000000000000000000000000000000000000000000000000000000000000000000000000000000000000000000000000000000000000000000000000000000000000000000000000000000000000000000000000000000000000000000000000000000000000000000000000000000000000000000000000000000000000000000000000000000000000000000000000000000000000000000000000000000000000000000000000000000000000000000000000000000000000000000000000000000000000000000000000000000000000000000000000000000000000000000000000000000000000000000000000000000000000000000000000000000000000000000000000000000000000000000000000000000000000000000000000000000000000
#02216:00130000
#02219:000000000000000000000000000000000000000000000000000000000000000000000000000000000000000000000000000000000000000000000000000000000000000000000000000000000000000000000000000000000000000000000000000000000000000000000000000000000000000000000000000000000000000000000000000000000000000000000000000000000000000000000000000000000000000000000000000000000000000000000000000000000000000000000000000000000000000000000000000000000000000000000000000000000000000000000000000000000000000000000000000000000000000000000000000000000000000000000000000000000000000000000000000000000000000000000000000000000000000000000000000000000000000000000000000000000000000000000000000000000000000000000000000000000000000000000000000000000000000000000000000000000000000000000000000000000000000000000000000000000000000000000000000000000000000000000000000000000000000000000000000000000000000000000000000000000000000000000000000000000000000000000000000000000000000000000000000000000000000000000000151500000000000000000000000000000000000000000000000000000000000000000000000000000000000000000000000000000000000000000000000000000000000000000000000000000000000000000000000000000000000000000000000000000000000000000000000000000000000000000000000000000000000000000000000000000000000000000000000000000000000000000000000000000000000000000000000000000000000000000000000000000000000000000000000000000000000000000000000000000000000000000000000000000000000000000000000000000000000000000000000000000000000000000000000000000000000000000000000000000000000000000000000000000000000000000000000000000000000000000000000000000000000000000000000000000000000000000000000000000000000000000000000000000000000000000000000000000000000000000000000000000000000000000000000000000000000000000000000000000000000000000000000000000000000000000000000000000000000000000000000000000000000000000000000000000000000000000000000000000000000000000000000000000000000000000000000000000000000000000000000000000000000000000000000000000000000000000000000000000000000000000000000000000000000000000000000000000000000000000000000000000000000000000000000000000000000000000000000000000000000000000000000000000000000000000000000000000000000000000000000000000000000000000000000000000000000000000000000000000000000000000000000000000000000000000000000000000000000000000000000000000000000000000000000000000000000000000000000000000000000000000000000000000000000000000000000000000000000000000000000000000000000000000000000000000000000000000000000000000000000000000000000000000000000000000000000000000000000000000000000000000000000000000000000000000000000000000000000000000000000000000000000000000000000000000000000000000000000000000000000000000000000000000000000000000000000000000000000000000000000000000000000000000000000000000000000000000000000000000000000000000000000000000000000000000000000000000000000000000000000000000000000000000000000000000000000000000000000000000000000000000000000000000000000000000000000000000000000000000000000000000000000000000000000000000000000000000000000000000000000000000000000000000000000000000000000000000000000000000000000000000000000000000000000000000000000000000000000000000000000000000000000000000000000000000000000000000000000000000000000000000000000000000000000000000000000000000000000000000000000000000000000000000000000000000000000000000000000000000000000000000000000000000000000000000000000000000000000000000000000000000000000000000000000000000000000000000000000000000000000000000000000000000000000000000000000000000000000000000000000000000000000000000000000000000000000000000000000000000000000000000000000000000000000000000000000000000000000000000000000000000000000000000000000000000000000000000000000000000000000000000000000000000000000000000000000000000000000000000000000000000000000000000000000000000000000000000000000000000000000000000000000000000000000000000000000000000000000000000000
#0221b:0000000000000013
#02218:0013
#02214:000000000000005400000000000000000000000000000000
#02318:13
#0231b:000000000000000000130000130000000000005300000000
#02319:000000000000000000000000000000000000000000000000000000000000000000000000005300000000000000000000
#02314:000000000000000000000000000000000000000000000000000000000000000000000000005300000000000000000000
#02312:000000000000000000000000000000000000005300000000
#02316:000000000000000000000000000000000000000000000000000000000000000000000000000000000000000000000000000000000000000000000000000000000000000000000000000000000000000000000000000000000000000000000000000000000000000000000000000000000000000000000000000000000000000000000000000000000000000000000000000000000000000000000000000000000000000000000000000000000000000000000000000000000000000000000000000000000000000000000000000000000000000000000000000000000000000000000000000000000000000000000000000000000000000000000000000000000000000000000000000000000000000000000000000000000000000000000000000000000000000000000000000000000000000000000000000000000000000000000000000000000000000000000000000000000000000000000000000000000000000000000000000000000000000000000000000000000000000000000000000000000000000000000000000000000000000000000000000000000000000000000000000000000000000000000000000000000000000000000000000000000000000000000000000000000000000000000000000000000000000000000000000000000000000000000000000000000000000000000000000000000000000000000000000000000000000000000000000000000000000000000000000000000000000000000000000000000000000000000000000000000000000000000000000000000000000000000000000000000000000000000000000000000000000000000000000000000000000000000000000000000000000000000000000000000000000000000000000000000000000000000000000000000000000000000000000000000000000000000000000000000000000000000000000000000000000000000000000000000000000000000000000000000000000000000000000000000000000000000000000000000000000000000000000000000000000000000000000000000000000000000000000000000000000000000000000000000000000000000000000000000000000000000000000000000000000000000000000000000000000000000000000000000000000000000000000000000000000000000000000000000000000000000000000000000000000000000000000000000000000000000000000000000000000000000000000000000000000000000000000000000000000000000000000000000000000000000000000000000000000000000000000000000000000000000000000000000000000000000000000000000000000000000000000000000000000000000000000000000000000000000000000000000000000000000000000000000000000000000000000000000000000000000000000000000000000000000000000000000000000000000000000000000000000000000000000000000000000000000000000000000000000000000000000000000000000000000000000000000000000000000000000000000000000000000000000000000000000000000000000000000000000000000000000000000000000000000000000000000000000000000000000000000000000000000000000000000000000000000000000000000000000000000000000000000000000000000000000000000000000000000000000000000000000000000000000000000000000000000000000000000000000000000000000000000000000000000000000000000000000000000000000000000000000000000000000000000000000000000000000000000000000000000000000000000000000000000000000000000000000000000000000000000000000000000000000000000000000000000000000000000000000000000000000000000000000000000000000000000000000000747474000000000000000000000000000000000000000000000000000000000000000000000000000000000000000000000000000000000000000000000000000000000000000000000000000000000000000000000000000000000000000000000000000000000000000000000000000000000000000000000000000000000000000000000000000000000000000000000000000000000000000000000000000000000000000000000000000000000000000000000000000000000000000000000000000000000000000000000000000000000000000000000000000000000000000000000000000000000000000000000000000000000000000000000000000000000000000000000000000000000000000000000000000000000000000000000000000000000000000000000000000000000000000000000000000000000000000000000000000000000000000000000000000000000000000000000000000000000000000000000000000000000000000000000000000000000000000000000000000000000000000000000000000000000000000000000000000000000000000000000000000000000000000000000000000000000000000000000000000000000000000000000000000000000000000000000000000000000000000000000000
#02412:0000001300000000
#02415:00001313
#02418:0000000000130013
#02512:13
#0251b:13
#02518:0000000000001212
#02616:1212000000140014
#02618:0000131325001500
#02613:00001525
#02713:15
#02715:0000131300000000
#02718:2500000013130000
#02714:0000000000001414
#02818:16261622
#02816:00000012
#02815:0016001600000000
#02812:26162600
#02918:13241526
#02914:00140000
#02912:00000016
#02915:23
#02913:0025
#03017:0000000000000000000000000000000000000000000000000012000000000000
#0311a:0000000000000014
#03118:0026
#03112:000000000000000000000000000000000000000000000000240000000000000000000000000000000000006400000000
#03115:0000000000240064
#03110:0041
#03117:000000000000000000000000000000000000000000000000000000000000000000000000000000000000005400000000
#03212:0014140024000000
#03212:00140000
#0321a:000000000000000000000000000000000000000000000000006400000000000000000000140000000000000000000000
#03216:0000000000000015
#03217:0024
#03215:000000000000000000000000000000000000000000000000006400000000000000000000000000000000000000000000
#03319:15
#0331a:0000141400000000
#03315:0000141400000000
#03312:260000000000000000000000000000000000005400000000000000000000000000000000000000000000000000000000
#03317:000000000000000000000000000000000000005400000000000000000000000000000000000000000000000000000000
#03512:000000000000000000000000000000000000000000000000006400000000000000000000140000000000000000000000
#03515:0000000024000015
#0351a:0014140024000000
#0351a:00140000
#03517:000000000000000000000000000000000000000000000000006400000000000000000000000000000000000000000000
#03612:150000000000000000000000000000000000005400000000000000000000000000000000000000000000000000000000
#03615:0000141400000000
#0361a:0000141400000000
#03618:16
#03617:000000000000000000000000000000000000005400000000000000000000000000000000000000000000000000000000
#03712:006400000000000000000000130000000000000000000000260000000000000000000000140000000000140000000000
#03718:00000000001300130000000000000000
#03715:240000000000000000000000000000000000130000000000000000000000000000000000000000000000005400000000
#0371a:240000000000000000000000000000000000000000000000000000000000000000000000000000000000006400000000
#03717:006400000000000000000000000000000000000000000000000000000000240000000000000000000000640000000000
#03812:000000000000000000000000000000000000000000000000006400000000000000000000140000000000000000000000
#03815:0000000024000015
#03818:00000016
#0381a:0014140024000000
#0381a:00140000
#03817:000000000000000000000000000000000000000000000000006400000000000000000000000000000000000000000000
#03912:1500141400000000
#03917:0000141400000000
#03918:26
#0391a:000000000000000000000000000000000000005400000000000000000000000000000000000000000000000000000000
#03915:000000000000000000000000000000000000005400000000000000000000000000000000000000000000000000000000
#03412:006400000000000000000000240000000000000000000000160000000000000000000000000000000000140000000000
#0341a:240000000000000000000000006400000000000000000000240000000000000000000000000000000000006400000000
#03415:240000000000000000000000006400000000000000000000000000000000000000000000000000000000005400000000
#03417:006400000000000000000000240000000000000000000000000000000000240000000000000000000000640000000000
#04012:1600000024000016
#04014:00000000000000000000000000000000140000000000000000000000000000000064000000000000000000000000000000000000000000000000000000000000
#04019:2500000000000025
#04016:0000000000000000000000000000000000640000000000000000000000000000
#04115:1500000000160016
#04118:0014000016000000
#04114:00140000
#04116:0000001500000000
#04112:0013000015001600
#04119:00000015
#0411b:00230000
#04818:0000000000001213
#04816:00000000000000000000000000120000
#04815:00000000000000000000000000000013
#04817:0052
#04919:15
#04916:0014000000000000
#0491a:00130000
#04913:00130016
#04915:0016
#04912:25
#05012:15141500
#05013:00000016
#05018:00120000
#05019:0012
#0501b:0000000000001212
#05115:16
#05117:00160000
#05119:0015
#0511a:00000014
#05113:0012120000000000
#05219:15
#05215:0016
#05218:0000151400001222
#05213:00000000001500000000000000000000
#05214:005200000000000000000000000000000000000000140000000000000000000000000000000000000000000000000000
#05216:1200000000002212
#05212:005200000000000000000000000000000000000000000000
#05315:2313000000000000
#05314:0000241400000000
#05313:0000000025150000
#05312:0000000000002616
#05318:1323142415251626
#05515:00130013000000000000240000006400
#0551b:13
#05518:0013000000000000
#0551a:0000140000001414
#05516:0000001400000000
#05512:000000000000000000000000000000000000000000000000240000000000000000000000000000000000006400000000
#05517:0027
#0551f:0021
#0561b:00130000000000000000000000000000
#05612:0000241264000000
#05615:000000000000140000000000000000000000000000000000006400000000000000000000140000000000000000000000
#05617:0000000024000014
#0561a:000000000000000000000000000000000000000000000000006400000000000000000000140000000000000000000000
#0571a:140000000000000000000000000000000000005400000000000000000000000000000000000000000000000000000000
#0571a:14
#0571b:00000000000000000013000000000000
#05712:1700141400002412
#05715:000000000000000000000000000000000000005400000000000000000000140000000000000000000000000000000000
#05717:0000141400000000
#05719:0013000000000000
#05710:41
#05817:24231700
#05812:640000000000000000000000230000000000000000000000140000000000000000000000000000000000006400000000
#0581a:006400000000000000000000000000000000000000000000000000000000000000000000140000000000140000000000
#05815:006400000000000000000000000000000000000000000000000000000000240000000000000000000000640000000000
#05819:000000000000000000000000006300000000000000000000000000000000000000000000000000000000000000000000
#05814:000000000000000000000000006300000000000000000000000000000000000000000000000000000000000000000000
#05915:000000000000140000000000000000000000000000000000006400000000000000000000140000000000000000000000
#05916:0000000000000014
#0591a:000000000000000000000000000000000000000000000000006400000000000000000000140000000000000000000000
#0591b:00130000000000000000000000000000
#05912:0000241264000000
#05917:0024
#06012:140000000000000000000000000000000000005400000000000000130000000000000000000000000000000000000000
#06012:14
#06017:170000000000000000000000000000000000005400000000000000000000140000000000000000000000000000000000
#0601a:0000141400002400
#0601c:0000000000000012
#06015:0000141400000000
#06112:006400000000000000000000140000000000000000000000270000000000000000000000140000000000140000000000
#06118:00000000001400140000000000000000
#06114:0000001400000000
#06115:240000000000000000000000000000000000000000000000000000000000000000000000000000000000005400000000
#06117:006400000000000000000000000000000000000000000000000000000000240000000000000000000000640000000000
#0611a:640000000000000000000000000000000000000000000000000000000000000000000000000000000000006400000000
#06216:0000001300000000
#06217:00130000240000006400130024000000
#0621b:0000000000130000
#0621a:000000000000140000000000000000000000000000000000006400000000000000000000000000000000000000000000
#06212:0024
#06215:000000000000000000000000000000000000000000000000006400000000000000000000000000000000000000000000
#06317:170000000000000000000000000000000000005400000000000000000000140000000000000000000000000000000000
#06312:240000000000000000000000000000000000005400000000000000130000000000000000000000000000000000000000
#0631a:0000141400002400
#0631c:0000000000000012
#06315:0000141400000000
#06314:0013000000000000
#06412:2700160024000025
#06418:0000000000000026
#0641a:64
#06417:006500000000000000000000000000000000000000000000000000000000000000000000000000000000000000000000
#06414:000066000000000000000000000000000000000000000000006400000000000000000000000000000000000000000000
#06416:000000000000000000000000006400000000000000000000
#06516:15
#06514:0014000000000000
#06515:0000001500160016
#0651b:0013000000000000
#06519:0015
#06512:00232615
#06518:00240026
#06715:00000016
#06714:23
#06719:23
#06712:00000000000000000000000000000000000000000000000000000000000000000000000000000000000000000000000000000000000000000000000000000000000000000000000000000000000000000000000000000000000000000000000000000000000000000000000000000000000000000000000000000000000000000000000000000000000000000000000000000000000000000000000000000000000000000000000000000000000000000000000000000000000000000000000000000000000000000000000000000000000000000000000000000000000000000000000000000000000000000000000000000000000000000000000000000000000000000000000000000000000000000000000000000000000000000000000000000000000000000000000000000000000000000000000000000000000000000000000000000000000000000000000000000000000000000000000000000000000000000000000000000000000000000000000000000000000000000000000000000000000000000000000000000000000000000000000000000000000000000000000000000000000000000000000000000000000000000000000000000000000000000000000000000000000000000000000000000000000000000000000000000000000000000000000000000000000000000000000000000000000000000000000000000000000000000000000000000000000000000000000000000000000000000000000000000000000000000000000000000000000000000000000000000000000000000000000000000000000000000000000000000000000000000000000000000000000000000000000000000000000000000000000000000000000000000000000000000000000000000000000000000000000000000000000000000000000000000000000000000000000000000000000000000000000000000000000000000000000000000000000000000000000000000000000000000000000000000000000000000000000000000000000000000000000000000000000000000000000000000000000000000000000000000000000000000000000000000000000000000000000000000000000000000000000000000000000000000000000000000000000000000000000000000000000000000000000000000000000000000000000000000000000000000000000000000000000000000000000000000000000000000000000000000000000000000000000000000000000000000000000000000000000000000000000000000000000000000000000000000000008c000000000000000000000000000000000000000000000000000000000000000000000000000000000000000000000000000000000000000000000000000000000000000000000000000000000000000000000000000000000000000000000000000000000000000000000000000000000000000000000000000000000000000000000000000000000000000000000000000000000000000000000000000000000000000000000000000000000000000000000000000000000000000000000000000000000000000000000000000000000000000000000000000000000000000000000000000000000000000000000000000000000000000000000000000000000000000000000000000000000000000000000000000000000000000000000000000000000000000000000000000000000000000000000000000000000000000000000000000000000000000000000000000000000000000000000000000000000000000000000000000000000000000000000000000000000000000000000000000000000000000000000000000000000000000000000000000000000000000000000000000000000000000000000000000000000000000000000000000000000000000000000000000000000000000000000000000000000000000000000000000000000000000000000000000000000000000000000000000000000000000000000000000000000000000000000000000000000000000000000000000000000000000000000000000000000000000000000000000000000000000000000000000000000000000000000000000000000000000000000000000000000000000000000000000000000000000000000000000000000000000000000000000000000000000000000000000000000000000000000000000000000000000000000000000000000000000000000000000000000000000000000000000000000000000000000000000000000000000000000000260000000000000000000000000000000000000000000000000000000000000000000000000000000000000000000000000000000000000000000000000000000000000000000000000000000000000000000000000000000000000000000000000000000000000000000000000000000000000000000000000000000000000000000000000000000000000000000000000000000000000000000000000000000000000000000000000000000000000000000000000000000000000000000000000000000000000000000000000000000000000000000000000000000000000000000000000000000000000000000000
#06718:0000000000000026
#06819:0015000025002500
#06812:0015000025002500
#06816:0000000000000016
#06814:00280000
#06918:0014000000000000
#06915:0000150000151500
#0691b:23130000
#06916:0000000000000015
#06912:280000000000000000260000000000000000005500000000
#06919:0000002500000000
#06914:000000000000000000000000000000000000000000000000000000000000000000000000005400000000000000000000
#0691a:00000064
#07014:000000000000000000000000005400000000000000000000000000000000140000000000000000000000000000000000
#07016:1500001528001500
#07012:540000000000005500000000540000000000130000250000
#07015:0015150000000000
#07018:005400000000000000000000000000000000000000000000000000000000000000000000000000000000260000000000
#0701a:00540000
#07019:005500000000000000000000000000000000000000000000
#07116:0015150000001500
#07115:0000001515000015
#07118:000000000000000000000000005400000000000000000000000000000000000000000000005400000000000000000000
#07119:000000000000005500000000000000000000005500000000
#07114:000000000000000000000000000000000000000000000000005400000000000000000000000000000000000000000000
#07112:000000000000640000000000005500000000540000000000
#07218:0014000000000000
#07215:0000150000151500
#0721b:00130000
#07216:0000000000000015
#07212:280000000000000000260000000000000000005500000000
#07219:0000002500000000
#0721a:54000064
#07214:000000000000000000000000000000000000000000000000000000000000000000000000005400000000000000000000
#07314:000000000000000000000000005400000000000000000000000000000000130000000000130000000000000000000000
#07317:00000000000000000000001300000000
#07316:1500001528000000
#07315:0015150000000000
#07318:005400000000000000000000000000000000000000000000000000000000000000000000000000000000260000000000
#07312:540000000000005500000000540000000000000000250000
#07310:0041
#0731a:00540000
#07319:005500000000000000000000000000000000000000000000
#07415:1313000000000000
#07418:00130000000000002600000000000000
#07416:0000001600000000
#07414:0000000000160000
#07417:0000000000000017
#07419:00250025
#07412:00262526
#07519:0013132500000000
#07516:00000013000000000000000000000000
#07518:0000000013132600
#07515:00000000000000000013000000000000
#07514:0000000000000016
#07512:0000002600002500
#0751a:24
#07618:000000000000000000000000160000000000000000000000006500000000000000000000000000000000260000000000
#07619:25
#07612:2700000000000026
#0761a:0024
#07613:006700000000000000000000000000000000000000000000000000000000000000000000000000000000000000000000
#07614:006700000000000000000000000000000000000000000000
#07616:000000000000000000000000006600000000000000000000
#07716:1600001400000000
#07714:0016000000000018
#07718:00241626
#07715:0000000000160000
#07712:00262616
#0771a:0024000000000000
#0781a:00140014000000000000000000000000
#07816:0014000014000000
#07812:26000000000000000000000000000000160000000000000000000000140000000000000014000000000000000000000000000063000000000000000000000000
#07818:0000002600160000
#07815:00000026
#07814:00000000000000000000000000000000000000000000000000000000000000000000000000000000000000000000000000650000000000000000000000000000
#07813:0000000000000000000000000000000000000000000000000064000000000000
#06616:0000000000000014
#06618:16000013000026001300130016000000
#06615:00001300130000000013000000000000
#06612:2600001600002600
#0421b:0000001300000000
#04212:2c8c8c000000000000000000000000000000000000000000000000000000000000000000000000000000000000000000000000000000000000000000000000000000000000000000000000000000000000000000000000000000000000000000000000000000000000000000000000000000000000000000000000000000000000000000000000000000000000000000000000000000000000000000000000000000000000000000000000000000000000000000000000000000000000000000000000000000000000000000000000000000000000000000000000000000000000000000000000000000000000000000000000000000000000000000000000000000000000000000000000000000000000000000000000000000000000000000000000000000000000000000000000000000000000000000000000000000000000000000000000000000000000000000000000000000000000000000000000000000000000000000000000000000000000000000000000000000000000000000000000000000000000000000000000000000000000000000000000000000000000000000000000000000000000000000000000000000000000000000000000000000000000000000000000000000000000000000000000000000000000000000000000000000000000000000000000000000000000000000000000000000000000000000000000000000000000000000000000000000000000000000000000000000000000000000000000000000000000000000000000000000000000000000000000000000000000000000000000000000000000000000000000000000000000000000000000000000000000000000000000000000000000000000000000000000000000000000000000000000000000000000000000000000000000000000000000000000000000000000000000000000000000000000000000000000000000000000000000000000000000000000130000000000000000000000000000000000000000000000000000000000000000000000000000000000000000000000000000000000000000000000000000000000000000000000000000000000000000000000000000000000000000000000000000000000000000000000000000000000000000000000000000000000000000000000000000000000000000000000000000000000000000000000000000000000000000000000000000000000000000000000000000000000000000000000000000000000000000000000000000000000000000000000000000000000000000000000000000000000000000000000000000000000000000000000000000000000000000000000000000000000000000000000000000000000000000000000000000000000000000000000000000000000000000000000000000000000000000000000000000000000000000000000000000000000000000000000000000000000000000000000000000000000000000000000000000000000000000000000000000000000000000000000000000000000000000000000000000000000000000000000000000000000000000000000000000000000000000000000000000000000000000000000000000000000000000000000000000000000000000000000000000000000000000000000000000000000000000000000000000000000000000000000000000000000000000000000000000000000000000000000000000000000000000000000000000000000000000000000000000000000000000000000000000000000000000000000000000000000000000000000000000000000000000000000000000000000000000000000000000000000000000000000000000000000000000000000000000000000000000000000000000000000000000000000000000000000000000000000000000000000000000000000000000000000000000000000000000000000000000000000640000000000000000000000000000000000000000000000000000000000000000000000000000000000000000000000000000000000000000000000000000000000000000000000000000000000000000000000000000000000000000000000000000000000000000000000000000000000000000000000000000000000000000000000000000000000000000000000000000000000000000000000000000000000000000000000000000000000000000000000000000000000000000000000000000000000000000000000000000000000000000000000000000000000000000000000000000000000000000000000000000000000000000000000000000000000000000000000000000000000000000000000000000000000000000000000000000000000000000000000000000000000000000000000000000000000000000000000000000000000000000000000000000000000000000000000000000000000000000000000000000000000000000000000000000000000000000000000000000000000000000000000000000000000000000000000000000000000000000000000000000000000000000000000000000000000000000000000000000000000000000000000000000000000000000000000000000000000000000000000
#04219:0000000000000065
#07914:00000000000000000000000000000000006500000000000000000000000000000000000000000000140000000000000000000000000000000000000000000000
#07916:00002815
#07915:26260000
#07918:0000000000000026
#07912:63000000000000000000000000000000000000630000000000000000000000006300000000000000000000000000000000000000000000002500000000000000
#07917:00650000000000000000000000000000000000000000000000000000000000000000000000000000000000000000000000000000000000000000000000000000
#07919:0064000000000000000000000000000000000000000000000000000000000000
#0791b:00000063000000000000000000000000630000000000000000000000000000000000000000000000000000000000000000000000000000000000000000000000
#07913:0000000000000000006400000000000000000000000000000000000000000000
#08016:0015000000001400
#08018:0014
#08015:0000000000140000
#08014:0000000000000013
#0801a:000000000000000000000000240000000000000000000000005400000000000000000000000000000000000000000000
#08012:00272523
#08019:000000000000000000000000000000000000000000000000000000000000000000000000005400000000000000000000
#08118:0014000000000000
#08115:0000150000150000
#08112:2800002600002400
#08117:00000027
#0811b:23
#08119:0000002500000000
#08214:1400000000140000
#08216:00142815
#08217:0014000000000000
#08219:2500001300000000
#08212:005400000000000000000000000000000000000000000000230000000000000000000000130000000000250000000000
#0821b:00230000
#08218:0000000000000026
#08213:000000000000000000000000005400000000000000000000000000000000000000000000000000000000000000000000
#08316:1415000000001400
#08318:0014
#08315:0000000000140000
#08314:0000000000000013
#0831a:000000000000000000000000240000000000000000000000005400000000000000000000000000000000000000000000
#08312:00272523
#08319:000000000000000000000000000000000000000000000000000000000000000000000000005400000000000000000000
#08418:0014000000000000
#08415:0000150000150000
#0841b:23130000
#08416:0014
#08412:2800002600002400
#08417:00000027
#08419:0000002500000000
#08514:14
#08516:00140000
#08517:0014000000000000
#08519:2500001300000000
#08518:0000000000140026
#08515:00000015
#0851b:00232300
#08512:005400000000000000000000000000000000000000000000280000000000000000000000000000000000260000000000
#0851a:00000024
#08513:000000000000000000000000005400000000000000000000000000000000000000000000000000000000000000000000
#08618:0016000026001400
#08616:15280000
#08614:0014
#08617:0000000000140000
#08615:0000000000000014
#08612:000000000000000000000000240000000000000000000000005400000000000000000000260000000000000000000000
#0861a:000000000000000000000000000000000000000000000000000000000000000000000000005400000000000000000000
#08718:00001300130000000013000000000000
#08715:00000013000000001300130000000000
#08716:0000000000000014
#08712:2500002500002500
#08719:2500002500002500
#08818:000000000000000000000000160000000000000000000000006500000000000000000000000000000000000000000000
#0881b:0000000000000013
#08819:25
#08812:27
#0881a:0024
#08815:0000000000000026
#08810:0041
#08813:006700000000000000000000000000000000000000000000000000000000000000000000000000000000000000000000
#08814:006700000000000000000000000000000000000000000000
#08816:000000000000000000000000006600000000000000000000
#08912:1500130000151300
#08919:0015001500000015
#0891b:0013
#08915:00262626
#09012:16000016
#09018:0000001600000000
#09015:00002400001400000000000000001600
#09017:00000000000000002400001400000000
#09019:25
#09116:0014000000000000
#09119:15250000
#09112:2500150026000016
#09118:0016
#09115:00000000000016000000260000160000
#09218:00160000
#09215:26000016000016000000000000001600
#09216:0000000000140000
#09212:00001525
#09219:00002515
#09312:16000000000026000016000016000000
#09318:26000016000016002300130026000000
#09315:0023130000000016
#09418:0000000016000026
#09412:25000000150000002600001300001600
#09415:0000001600261600
#09416:0014000000000000
#09419:15250000
#0951b:00130000000000000000000000000000
#09515:2616001600000000
#09516:0000000000140000
#09517:0000000000000012
#09513:0015
#09518:00162514
#09514:00000024
#09512:00260000
#0961b:0000000013230000
#0961c:0000122200000000
#0961a:0000000000001424
#09612:2600221223132414
#09618:26
#09719:1525000000000000
#09712:2515261600000000
#09718:0000162600000000
#0431f:0011
#04312:65000000000000000000000000000000000000000000000000000000000000000000000000000000000000000000000000000000000000000000000000000000000000000000000000000000000000000000000000000000000000000000000000000000000000000000000000000000000000000000000000000000000000000000000000000000000000000000000000000000000000000000000000000000000000000000000000000000000000000000000000000000000000000000000000000000000000000000000000000000000000000000000000000000000000000000000000000000000000000000000000000000000000000000000000000000000000000000000000000000000000000000000000000000000000000000000000000000000000000000000000000000000000000000000000000000000000000000000000000000000000000000000000000000000000000000000000000000000000000000000000000000000000000000000000000000000000000000000000000000000000000000000000000000000000000000000000000000000000000000000000000000000000000000000000000000000000000000000000000000000000000000000000000000000000000000000000000000000000000000000068000000000000000000000000000000000000000000000000000000000000000000000000000000000000000000000000000000000000000000000000000000000000000000000000000000000000000000000000000000000000000000000000000000000000000000000000000000000000000000000000000000000000000000000000000000000000000000000000000000000000000000000000000000000000000000000000000000000000000000000000000000000000000000000000000000000000000000000000000000000000000000000000000000000000000000000000000000000000000000000000000000000000000000000000000000000000000000000000000000000000000000000000000000000000000000000000000000000000000000000000000000000000000000000000000000000000000000000000000000000000000000000000000000000000000000000000000000000000000000000000000000000000000000000000000000000000000000000000000000000000000000000000000000000000000000000000000000000000000000000000000000000000000000000000000000000000000000000000000000000000000000000000000000000000000000000000000000000000000000008c6c0000000000000000000000000000000000000000000000000000000000000000000000000000000000000000000000000000000000000000000000000000000000000000000000000000000000000000000000000000000000000000000000000000000000000000000000000000000000000000000000000000000000000000000000000000000000000000000000000000000000000000000000000000000000000000000000000000000000000000000000000000000000000000000000000000000000000000000000000000000000000000000000000000000000000000000000000000000000000000000000000000000000000000000000000000000000000000000000000000000000000000000000000000000000000000000000000000000000000000000000000000000000000000000000000000000000000000000000000000000000000000000000000000000000000000000000000000000000000000000000000000000000000000000000000000000000000000000000000000000000000000000000000000000000000000000000000000000000000000000000000000000000000000000000000000000000000000000000000000000000000000000000000000000000000000000000000000000000000000000000000000000000000000000000000000000000000000000000000000000000000000000000000000000000000000000000000000000000000000000000000000000000000000000000000000000000000000000000000000000000000000000000000000000000000000000000000000000000000000000000000000000000000000000000000000000000000000000000000000000000000000000000000000000000000000000000000000000000000000000000000000000000000000000000000000000000000000000000000000000000000000000000000000000000000000000000000000000000000000000000000000000000000000000000000000000000000000000000000000000000000000000000000000000000000000000000000000000000000000000000000000000000000000000000000000000000000000000000000000000000000000000000000000000000000000000000000000000000000000000000000000000000000000000000000000000000000000000000000000000000000000000000000000000000000000000000000000000000000000000000000000000000000000000000000000000000000000000000000000000000000000000000000000000000000000000000000000000000000000000000
#04318:0066000000000000
#04314:0000006a00000000
#0001a:0052000000000000
#00018:00000052000000000000000000000000
#00019:00520000
#00019:00520000
#00014:0000000000000052
#00016:00000000000000000000000000000052
#05412:5c
#09812:53
#09814:00540000000000000000000000000000
#09816:0055000000000000
#09818:00000056000000000000000000000000
#09915:00000062000000000000000000000000
#09917:0062
#09913:00000000000000000000000000620000
#10014:00620000000000000000000000000000
#10015:0000000000000000000000620000000000000000000000000000000000000000
#10016:0000000000000000000000000000000000000000006200000000000000000000
#10117:0000000000620000000000000000000000000000000000000000000000000000
#1011c:0000000000720000000000000000000000000000000000000000000000000000
#10212:008c
#00159:00430000
#00152:0035
#00153:0000000000000035
#00155:32
#00254:00350000
#00359:45
#00358:0000004500000000
#00357:00000045
#00452:0035
#00453:0000000000000035
#0045a:0000000000000054
#00554:00350000
#00556:24
#00659:45
#00658:0000004500000000
#00656:0024
#00652:0000006400000000
#0075a:00140000
#00752:14
#00854:0013
#00859:0013
#01059:13
#01054:13
#01152:0013
#01154:00000013
#0135b:13
#01353:00130000
#01454:0013
#01459:0013
#01752:0013
#0175a:00000013
#01659:13
#01654:13
#01952:000000000000006500000000
#0195b:1313
#02052:00230065
#02058:00130000
#02059:000000000055
#02153:0000000000000013
#0215b:00230000000000002300000000000000
#02252:000000000000000000000000000000000000000000000000000000000000000000000000000000000000000000000000000000000000000000000000000000000000000000000000000000000000000000000000000000000000000000000000000000000000000000000000000000000000000000000000000000000000000000000000000000000000000000000000000000000000000000000000000000000000000000000000000000000000000000000000000000000000000000000000000000000000000000000000000000000000000000000000000000000000000000000000000000000000000000000000000000000000000000000000000000000000000000000000000000000000000000000000000000000000000000000000000000000000000000000000000000000000000000000000000000000000000000000000000000000000000000000000000000000000000000000000000000000000000000000000000000000000000000000000000000000000000000000000000000000000000000000000000000000000000000000000000000000000000000000000000000000000000000000000000000000000000000000000000000000000000000000000000000000000000000000000000000000000000000000000000000000000000000000000000000000000000000000000000000000000000000000000000000000000000000000000000000000000000000000000000000000000000000000000000000000000000000000000000000000000000000000000000000000000000000000000000000000000000000000000000000000000000000000000000000000000000000000000000000000000000000000000000000006500000000000000000000000000000000000000000000000000000000000000000000000000000000000000000000000000000000000000000000000000000000000000000000000000000000000000000000000000000000000000000000000000000000000000000000000000000000000000000000000000000000000000000000000000000000000000000000000000000000000000000000000000000000000000000000000000000000000000000000000000000000000000000000000000000000000000000000000000000000000000000000000000000000000000000000000000000000000000000000000000000000000000000000000000000000000000000000000000000000000000000000000000000000000000000000000000000000000000000000000000000000000000000000000000000000000000000000000000000000000000000000000000000000000000000000000000000000000000000000000000000000000000000000000000000000000000000000000000000000000000000000000000000000000000000000000000000000000000000000000000000000000000000000000000000000000000232300000000000000000000000000000000000000000000000000000000000000000000000000000000000000000000000000000000000000000000000000000000000000000000000000000000000000000000000000000000000000000000000000000000000000000000000000000000000000000000000000000000000000000000000000000000000000000000000000000000000000000000000000000000000000000000000000000000000000000000000000000000000000000000000000000000000000000000000000000000000000000000000000000000000000000000000000000000000000000000000000000000000000000000000000000000000000000000000000000000000000000000000000000000000000000000000000000000000000000000000000000000000000000000000000000000000000000000000000000000000000000000000000000000000000000000000000000000000000000000230000000000000000000000000000000000000000000000000000000000000000000000000000000000000000000000000000000000000000000000000000000000000000000000000000000000000000000000000000000000000000000000000000000000000000000000000000000000000000000000000000000000000000000000000000000000000000000000000000000000000000000000000000000000000000000000000000000000000000000000000000000000000000000000000000000000000000000000000000000000000000000000000000000000000000000000000000000000000000000000000000000000000000000000000000000000000000000000000000000000000000000000000000000000000000000000000000000000000000000000000000000000000000000000000000000000000000000000000000000000000000000000000000000000000000000000000000000000000000000000000000000000000000000000000000000000000000000000000000000000000000000000000000000000000000000000000000000000000000000000000000000000000000000000000000000000000000000000000000000000000000000000000000000000000000000000000000000000000000000000
#02259:000000000000000000000000000000000000000000000000000000000000000000000000000000000000000000000000000000000000000000000000000000000000000000000000000000000000000000000000000000000000000000000000000000000000000000000000000000000000000000000000000000000000000000000000000000000000000000000000000000000000000000000000000000000000000000000000000000000000000000000000000000000000000000000000000000000000000000000000000000000000000000000000000000000000000000000000000000000000000000000000000000000000000000000000000000000000000000000000000000000000000000000000000000000000000000000000000000000000000000000000000000000000000000000000000000000000000000000000000000000000000000000000000000000000000000000000000000000000000000000000000000000000000000000000000000000000000000000000000000000000000000000000000000000000000000000000000000000000000000000000000000000000000000000000000000000000000000000000000000000000000000000000000000000000000000000000000000000000000000000000656500000000000000000000000000000000000000000000000000000000000000000000000000000000000000000000000000000000000000000000000000000000000000000000000000000000000000000000000000000000000000000000000000000000000000000000000000000000000000000000000000000000000000000000000000000000000000000000000000000000000000000000000000000000000000000000000000000000000000000000000000000000000000000000000000000000000000000000000000000000000000000000000000000000000000000000000000000000000000000000000000000000000000000000000000000000000000000000000000000000000000000000000000000000000000000000000000000000000000000000000000000000000000000000000000000000000000000000000000000000000000000000000000000000000000000000000000000000000000000000000000000000000000000000000000000000000000000000000000000000000000000000000000000000000000000000000000000000000000000000000000000000000000000000000000000000000000000000000000000000000000000000000000000000000000000000000000000000000000000000000000000000000000000000000000000000000000000000000000000000000000000000000000000000000000000000000000000000000000000000000000000000000000000000000000000000000000000000000000000000000000000000000000000000000000000000000000000000000000000000000000000000000000000000000000000000000000000000000000000000000000000000000000000000000000000000000000000000000000000000000000000000000000000000000000000000000000000000000000000000000000000000000000000000000000000000000000000000000000000000000000000000000000000000000000000000000000000000000000000000000000000000000000000000000000000000000000000000000000000000000000000000000000000000000000000000000000000000000000000000000000000000000000000000000000000000000000000000000000000000000000000000000000000000000000000000000000000000000000000000000000000000000000000000000000000000000000000000000000000000000000000000000000000000000000000000000000000000000000000000000000000000000000000000000000000000000000000000000000000000000000000000000000000000000000000000000000000000000000000000000000000000000000000000000000000000000000000000000000000000000000000000000000000000000000000000000000000000000000000000000000000000000000000000000000000000000000000000000000000000000000000000000000000000000000000000000000000000000000000000000000000000000000000000000000000000000000000000000000000000000000000000000000000000000000000000000000000000000000000000000000000000000000000000000000000000000000000000000000000000000000000000000000000000000000000000000000000000000000000000000000000000000000000000000000000000000000000000000000000000000000000000000000000000000000000000000000000000000000000000000000000000000000000000000000000000000000000000000000000000000000000000000000000000000000000000000000000000000000000000000000000000000000000000000000000000000000000000000000000000000000000000000000000000000000000000000000000000000000000000000000000000000000000000000000000000000000000000000000000000
#02258:0013
#02358:13
#0235b:0023
#02356:00000014
#02558:0045
#02553:0035
#02552:23
#0255b:23
#02858:0046
#02852:0036
#02954:00340000
#02958:0045
#02952:00000036
#03155:16
#03158:0046
#03057:0000000000000000000000000000000000000000000000000022000000000000
#02758:15
#02753:15
#03257:00140000
#03252:00140000
#03359:45
#03357:00000014
#03352:00000014
#03652:00000014
#03658:46
#03657:00000014
#03952:35
#0395a:00000014
#03955:00000014
#03452:0036
#04052:36
#04059:6500000000000045
#04057:0047
#04054:00240000
#04152:0035
#04159:00000045
#0415b:00430000
#04252:006c6c000000000000000000000000000000000000000000000000000000000000000000000000000000000000000000000000000000000000000000000000000000000000000000000000000000000000000000000000000000000000000000000000000000000000000000000000000000000000000000000000000000000000000000000000000000000000000000000000000000000000000000000000000000000000000000000000000000000000000000000000000000000000000000000000000000000000000000000000000000000000000000000000000000000000000000000000000000000000000000000000000000000000000000000000000000000000000000000000000000000000000000000000000000000000000000000000000000000000000000000000000000000000000000000000000000000000000000000000000000000000000000000000000000000000000000000000000000000000000000000000000000000000000000000000000000000000000000000000000000000000000000000000000000000000000000000000000000000000000000000000000000000000000000000000000000000000000000000000000000000000000000000000000000000000000000000000000000000000000000000000000000000000000000000000000000000000000000000000000000000000000000000000000000000000000000000000000000000000000000000000000000000000000000000000000000000000000000000000000000000000000000000000000000000000000000000000000000000000000000000000000000000000000000000000000000000000000000000000000000000000000000000000000000000000000000000000000000000000000000000000000000000000000000000000000000000000000000000000000000000000000000000000000000000000000000000000000000000000000000230000000000000000000000000000000000000000000000000000000000000000000000000000000000000000000000000000000000000000000000000000000000000000000000000000000000000000000000000000000000000000000000000000000000000000000000000000000000000000000000000000000000000000000000000000000000000000000000000000000000000000000000000000000000000000000000000000000000000000000000000000000000000000000000000000000000000000000000000000000000000000000000000000000000000000000000000000000000000000000000000000000000000000000000000000000000000000000000000000000000000000000000000000000000000000000000000000000000000000000000000000000000000000000000000000000000000000000000000000000000000000000000000000000000000000000000000000000000000000000000000000000000000000000000000000000000000000000000000000000000000000000000000000000000000000000000000000000000000000000000000000000000000000000000000000000000000000000000000000000000000000000000000000000000000000000000000000000000000000000000000000000000000000000000000000000000000000000000000000000000000000000000000000000000000000000000000000000000000000000000000000000000000000000000000000000000000000000000000000000000000000000000000000000000000000000000000000000000000000000000000000000000000000000000000000000000000000000000000000000000000000000000000000000000000000000000000000000000000000000000000000000000000000000000000000000000000000000000000000000000000000000000000000000000000000000000000000000000000000000000000000000000000000000000000000000000000000000000000000000000000000000000000000000000000000000000000000000000000000000000000000000000000000000000000000000000000000000000000000000000000000000000000000000000000000000000000000000000000000000000000000000000000000000000000000000000000000000000000000000000000000000000000000000000000000000000000000000000000000000000000000000000000000000000000000000000000000000000000000000000000000000000000000000000000000000000000000000000000000000000000000000000000000000000000000000000000000000000000000000000000000000000000000000000000000000000000000000000000000000000000000000000000000000000000000000000000000000000000000000000000000000000000000000000000000000000000000000000000000000000000000000000000000000000000000000000000000000000000000000000000000000000000000000000000000000000000000000000000000000000000000000000000000000000000000000000000000000000000000000000000000000000000000000000000000000000000000000000000000000000
#0425b:0000002300000000
#04352:001c
#04857:0012
#04959:45
#0495c:0012
#0495a:00630000
#05255:0016
#05252:003200000000000000000000000000000000000000000000
#05254:003200000000000000000000000000000000000000000000000000000000000000000000000000000000000000000000
#05256:32
#05153:00620000
#05452:1c
#05557:0047
#0555a:0000000000000064
#05657:00340000
#0565b:00230000000000000000000000000000
#05652:0000642200000000
#0565a:00000014
#0575b:00000000000000000023000000000000
#05752:3700000000006422
#05757:00000034
#0575a:000000000000000000000000000000000000005400000000000000000000000000000000000000000000000000000000
#03752:0036
#05857:0047
#0585a:0000000000000064
#05955:00000034
#0595b:00230000000000000000000000000000
#05952:0000642200000000
#05957:00340000
#06057:47
#06052:000000000000000000000000000000000000006400000000000000230000000000000000000000000000000000000000
#0605c:0000000000000022
#0605a:00000054
#06055:00000044
#06152:0037
#06155:000000000000000000000000000000000000000000000000000000000000000000000000000000000000006400000000
#0385a:00140000
#03855:00140000
#06257:00230000640000000000230034000000
#06256:0000002300000000
#06252:00340034
#0625a:000000000000000000000000000000000000000000000000005400000000000000000000000000000000000000000000
#06255:000000000000000000000000000000000000000000000000005400000000000000000000000000000000000000000000
#0625b:0000000000230000
#06357:47
#06352:000000000000000000000000000000000000006400000000000000230000000000000000000000000000000000000000
#0635c:0000000000000022
#0635a:00000054
#06355:00000044
#0355a:00140000
#03555:00140000
#06452:3700260000000035
#06457:0047
#06454:005600000000000000000000000000000000000000000000
#06559:0045
#06552:00330035
#06752:000000001c000036
#06758:0000000000000046
#06854:00180000
#06952:3800003600000000
#07056:0048
#07058:0000000000000046
#07252:3800003600000000
#07356:0048
#07358:0000000000000046
#07459:00450045
#07452:00003566
#07457:0000000000000027
#07552:3800003600003500
#07659:45
#07654:006700000000000000000000000000000000000000000000
#07652:0000000038000036
#07658:00260000
#07758:0046
#07752:00360036
#07852:00360000
#07858:0000000000460000
#07855:00000036
#06658:46
#06652:0000003600000000
#0715a:0014
#07956:0048
#07958:0000000000000046
#07952:0000000000000065
#07955:46360000
#0805a:00440000
#08152:3800003600003400
#08159:0000005500000000
#08256:0048
#08258:0000000000000046
#08252:0000000000000065
#0835a:00440000
#08356:24
#08452:3800003600003400
#08459:0000005500000000
#08456:0024
#08656:25
#08652:00340000
#08552:0000000038000066
#08558:0000000000000046
#08752:35000035
#08759:0000004500000000
#08858:00260000
#08859:45
#08854:006700000000000000000000000000000000000000000000
#08852:0038
#0885b:0000000000000013
#08952:00130013
#0895b:0013
#09059:45000045
#09052:0000003500000000
#09055:00000000002400000000000000000000
#09057:00000000000000000000002400000000
#09152:3536
#09159:00450000
#09155:00000000000000000000000000260000
#09158:0000000000000046
#09255:00000026000000000000000000000000
#09252:00360035
#09259:0045
#09358:46000046
#09352:0000003600000000
#09452:3536
#09458:0000000000000046
#09459:00450000
#09558:0045
#09554:00000034
#09552:00360000
#09652:36
#09658:46
#09758:0000001600000000
#09752:0000001600000000
#10157:0000000000220000000000000000000000000000000000000000000000000000
#0003a0:1222000000000000
#000390:00120000
#001390:22
#000341:0000000000001222
#0013a0:0000000000000014
#0023a0:0024000000000000
#003320:0000001400240000
#0043a0:0000000000000014
#005360:54
#0053a0:0024000000000000
#006320:0000001400240000
#006360:0054
#007380:0013
#0073b0:00000000000000000053000023000000
#007370:0000000000000013
#0073a0:00000000000000000000000000000053
#0083a0:0023000000000000
#008360:00130000
#008390:00000000005300002300000000000000
#009350:13
#009320:00530000230000000000000000000000
#009360:0000001300000000
#009330:00000000000000530000230000000000
#009370:00000013
#009340:00000000000000000000000000530000
#010340:23
#0103b0:0013
#010380:00000000000000000053000023000000
#0103a0:0000000000000013
#010370:00000000000000000000000000000053
#011370:0023000000000000
#011390:00130000
#011360:00000000005300002300000000000000
#012320:13
#012350:00530000230000000000000000000000
#012340:00000013
#012370:00000000000000000000000000530000
#013370:23
#013380:0013
#0133b0:00000000000000000053000023000000
#013330:0000000000000013
#013360:00000000000000000000000000000053
#014360:0023000000000000
#014360:00130000
#014390:00000000005300002300000000000000
#015350:13
#015320:00530000230000000000000000000000
#0153a0:0000001300000000
#015370:00000000000000530000230000000000
#015370:00000013
#015340:00000000000000000000000000530000
#016340:23
#0163b0:0013
#016380:00000000000000000053000023000000
#016360:0000000000000013
#016330:00000000000000000000000000000053
#017330:0023000000000000
#017390:00130000
#017360:00000000005300002300000000000000
#018320:13
#018350:00530000230000000000000000000000
#018370:0000001300000000
#0183a0:00000000000000530000230000000000
#019320:000000000000001500000000
#020320:00530055
#0213b0:00530000000000000000000000000000
#022390:000000000000000000000000000000000000000000000000000000000000000000000000000000000000000000000000000000000000000000000000000000000000000000000000000000000000000000000000000000000000000000000000000000000000000000000000000000000000000000000000000000000000000000000000000000000000000000000000000000000000000000000000000000000000000000000000000000000000000000000000000000000000000000000000000000000000000000000000000000000000000000000000000000000000000000000000000000000000000000000000000000000000000000000000000000000000000000000000000000000000000000000000000000000000000000000000000000000000000000000000000000000000000000000000000000000000000000000000000000000000000000000000000000000000000000000000000000000000000000000000000000000000000000000000000000000000000000000000000000000000000000000000000000000000000000000000000000000000000000000000000000000000000000000000000000000000000000000000000000000000000000000000000000000000000000000000000000000000000000000000005500000000000000000000000000000000000000000000000000000000000000000000000000000000000000000000000000000000000000000000000000000000000000000000000000000000000000000000000000000000000000000000000000000000000000000000000000000000000000000000000000000000000000000000000000000000000000000000000000000000000000000000000000000000000000000000000000000000000000000000000000000000000000000000000000000000000000000000000000000000000000000000000000000000000000000000000000000000000000000000000000000000000000000000000000000000000000000000000000000000000000000000000000000000000000000000000000000000000000000000000000000000000000000000000000000000000000000000000000000000000000000000000000000000000000000000000000000000000000000000000000000000000000000000000000000000000000000000000000000000000000000000000000000000000000000000000000000000000000000000000000000000000000000000000000000000000000000000000000000000000000000000000000000000000000000000000000000000000000000000000000000000000000000000000000000000000000000000000000000000000000000000000000000000000000000000000000000000000000000000000000000000000000000000000000000000000000000000000000000000000000000000000000000000000000000000000000000000000000000000000000000000000000000000000000000000000000000000000000000000000000000000000000000000000000000000000000000000000000000000000000000000000000000000000000000000000000000000000000000000000000000000000000000000000000000000000000000000000000000000000000000000000000000000000000000000000000000000000000000000000000000000000000000000000000000000000000000000000000000000000000000000000000000000000000000000000000000000000000000000000000000000000000000000000000000000000000000000000000000000000000000000000000000000000000000000000000000000000000000000000000000000000000000000000000000000000000000000000000000000000000000000000000000000000000000000000000000000000000000000000000000000000000000000000000000000000000000000000000000000000000000000000000000000000000000000000000000000000000000000000000000000000000000000000000000000000000000000000000000000000000000000000000000000000000000000000000000000000000000000000000000000000000000000000000000000000000000000000000000000000000000000000000000000000000000000000000000000000000000000000000000000000000000000000000000000000000000000000000000000000000000000000000000000000000000000000000000000000000000000000000000000000000000000000000000000000000000000000000000000000000000000000000000000000000000000000000000000000000000000000000000000000000000000000000000000000000000000000000000000000000000000000000000000000000000000000000000000000000000000000000000000000000000000000000000000000000000000000000000000000000000000000000000000000000000000000000000000000000000000000000000000000000000000000000000000000000000000000000000000000000000000000000000000000000000000000000000000000000000000000000000000000000000000000000000000000000000000000000000000
#022320:000000000000000000000000000000000000000000000000000000000000000000000000000000000000000000000000000000000000000000000000000000000000000000000000000000000000000000000000000000000000000000000000000000000000000000000000000000000000000000000000000000000000000000000000000000000000000000000000000000000000000000000000000000000000000000000000000000000000000000000000000000000000000000000000000000000000000000000000000000000000000000000000000000000000000000000000000000000000000000000000000000000000000000000000000000000000000000000000000000000000000000000000000000000000000000000000000000000000000000000000000000000000000000000000000000000000000000000000000000000000000000000000000000000000000000000000000000000000000000000000000000000000000000000000000000000000000000000000000000000000000000000000000000000000000000000000000000000000000000000000000000000000000000000000000000000000000000000000000000000000000000000000000000000000000000000000000000000000000000000000000000000000000000000000000000000000000000000000000000000000000000000000000000000000000000000000000000000000000000000000000000000000000000000000000000000000000000000000000000000000000000000000000000000000000000000000000000000000000000000000000000000000000000000000000000000000000000000000000000000000000000000000000000000000000000000000000000000000000000000000000000000000000000000000000000000000000000000000000000000000000000000000000000000000000000000000000000000000000000000000000000000000000000000000000000000000000000000000000000000000000000000000000000000000000000000000000000000000000000000000000000000000000000000000000000000000000000000000000000000000000000000000000000000000000000000000000000000000000000000000000000000000000000000000000000000000000000000000000000000000000000000000000000000000000000000000000000000000000000000000000000000000000000000000000000000000000000000000000000000000000000000000000000000000000000000000000000000000000000000000000000000000000000000000000000000000000000000000000000000000000000000000000000000000000000000000000000000000000000000000000000000000000000000000000000000000000000000000000000000000000000000000000000000000000000000000000000000000000000000000005300000000000000000000000000000000000000000000000000000000000000000000000000000000000000000000000000000000000000000000000000000000000000000000000000000000000000000000000000000000000000000000000000000000000000000000000000000000000000000000000000000000000000000000000000000000000000000000000000000000000000000000000000000000000000000000000000000000000000000000000000000000000000000000000000000000000000000000000000000000000000000000000000000000000000000000000000000000000000000000000000000000000000000000000000000000000000000000000000000000000000000000000000000000000000000000000000000000000000000000000000000000000000000000000000000000000000000000000000000000000000000000000000000000000000000000000000000000000000000000000000000000000000000000000000000000000000000000000000000000000000000000000000000000000000000000000000000000000000000000000000000000000000000000000000000000000000000000000000000000000000000000000000000000000000000000000000000000000000000000000000000000000000000000000000000000000000000000000000000000000000000000000000000000000000000000000000000000000000000000000000000000000000000000000000000000000000000000000000000000000000000000000000000000000000000000000000000000000000000000000000000000000000000000000000000000000000000000000000000000000000000000000000000000000000000000000000000000000000000000000000000000000000000000000000000000000000000000000000000000000000000000000000000000000000000000000000000000000000000000000000000000000000000000000000000000000000000000000000000000000000000000000000000000000000000000000000000000000000000000000000000000000000000000000000000000000000000000000000000000000000000000000000000000000000000000000000000000000000000000
#023360:000000000000000000000000000000000000000000000000000000000000000000000000000000000000000000000000000000000000000000000000000000000000000000000000000000000000000000000000000000000000000000000000000000000000000000000000000000000000000000000000000000000000000000000000000000000000000000000000000000000000000000000000000000000000000000000000000000000000000000000000000000000000000000000000000000000000000000000000000000000000000000000000000000000000000000000000000000000000000000000000000000000000000000000000000000000000000000000000000000000000000000000000000000000000000000000000000000000000000000000000000000000000000000000000000000000000000000000000000000000000000000000000000000000000000000000000000000000000000000000000000000000000000000000000000000000000000000000000000000000000000000000000000000000000000000000000000000000000000000000000000000000000000000000000000000000000000000000000000000000000000000000000000000000000000000000000000000000000000000000000000000000000000000000000000000000000000000000000000000000000000000000000000000000000000000000000000000000000000000000000000000000000000000000000000000000000000000000000000000000000000000000000000000000000000000000000000000000000000000000000000000000000000000000000000000000000000000000000000000000000000000000000000000000000000000000000000000000000000000000000000000000000000000000000000000000000000000000000000000000000000000000000000000000000000000000000000000000000000000000024000000000000000000000000000000000000000000000000000000000000000000000000000000000000000000000000000000000000000000000000000000000000000000000000000000000000000000000000000000000000000000000000000000000000000000000000000000000000000000000000000000000000000000000000000000000000000000000000000000000000000000000000000000000000000000000000000000000000000000000000000000000000000000000000000000000000000000000000000000000000000000000000000000000000000000000000000000000000000000000000
#020391:000000000015
#0213b1:0053
#022391:00550000
#022321:00000000000000000053000000000000
#023361:000000000000000000000000000000000000000000000000000000000000000000000000000000000000000000000000000000000000000000000000000000000000000000000000000000000000000000000000000000000000000000000000000000000000000000000000000000000000000000000000000000000000000000000000000000000000000000000000000000000000000000000000000000000000000000000000000000000000000000000000000000000000000000000000000000000000000000000000000000000000000000000000000000000000000000000000000000000000000000000000000000000000000000000000000000000000000000000000000000000000000000000000000000000000000000000000000000000000000000000000000000000000000000000000000000000000000000000000000000000000000000000000000000000000000000000000000000000000000000000000000000000000000000000000000000000000000000000000000000000000000000000000000000000000000000000000000000000000000000000000000000000000000000000000000000000000000000000000000000000000000000000000000000000000000000000000000000000000000000000000000000000000000000000000000000000000000000000000000000000000000000000000000000000000000000000000000000000000000000000000000000000000000000000000000000000000000000000000000000000000000000000000000000000000000000000000000000000000000000000000000000000000000000000000000000000000000000000000000000000000000000000000000000000000000000000000000000000000000000000000000000000000000000000000000000000000000000000000000000000000000000000000000000000000000000000000000000000000000000000000000000000000000000000000000000000000000000000000000000000000000000000000000000000000000000000000000000000000000000000000000000000000000000000000000000000000000000000000000000000000000000000000000000000000000000000000000000000000000000000000000000000000000000000000000000000000000000000000000000000000000000000000000000000000000000000000000000000000000000000000000000000000000000000000000000000000000000000000000000000000000000000000000000000000000000000000000000000000000000000000000000000000000000000000000000000000000000000000000000000000000000000000000000000000000000000000000000000000000000000000000000000000000000000000000000000000000000000000000000000000000000000000000000000000000000000000000000000000000000000000000000000000000000000000000000000000000000000000000000000000000000000000000000000000000000000000000000000000000000000000000000000000000000000000000000000000000000000000000000000000000000000000000000000000000000000000000000000000000000000000000000000000000000000000000000000000000000000000000000000000000000000000000000000000000000000000000000000000000000000000000000000000000000000000000000000000000000000000000000000000000000000000000000000000000000000000000000000000000000000000000000000000000000000000000000000000000000000000000000000000000000000000000000000000000000000000000000000000000000000000000000000000000000000000000000000000000000000000000000000000000000000000000000000000000000000000000000000000000000000024000000000000000000000000000000000000000000000000000000000000000000000000000000000000000000000000000000000000000000000000000000000000000000000000000000000000000000000000000000000000000000000000000000000000000000000000000000000000000000000000000000000000000000000000000000000000000000000000000000000000000000000000000000000000000000000000000000000000000000000000000000000000000000000000000000000000000000000000000000000000000000000000000000000000000000000000000000000000000000000000000000000000000000000000000000000000000000000000000000000000000000000000000000000000000000000000000000000000000000000000000000000000000000000000000000000000000000000000000000000000000000000000000000000000000000000000000000000000000000000000000000000000000000000000000000000000000000000000000000000000000000000000000000000000000000000000000000000000000000000000000000000000000000000000000000000000000000000000000000000000000000000000000000000000000000000000000000000000000000000000
#022322:000000001500000000530000
#023362:00000024
#0233b3:0013
#023363:00000000000000000000000000000000000000000000000000000000000000000000000000000000000000000000000000000000000000000000000000000000000000000000000000000000000000000000000000000000000000000000000000000000000000000000000000000000000000000000000000000000000000000000000000000000000000000000000000000000000000000000000000000000000000000000000000000000000000000000000000000000000000000000000000000000000000000000000000000000000000000000000000000000000000000000000000000000000000000000000000000000000000000000000000000000000000000000000000000000000000000000000000000000000000000000000000000000000000000000000000000000000000000000000000000000000000000000000000000000000000000000000000000000000000000000000000000000000000000000000000000000000000000000000000000000000000000000000000000000000000000000000000000000000000000000000000000000000000000000000000000000000000000000000000000000000000000000000000000000000000000000000000000000000000000000000000000000000000000000002400000000000000000000000000000000000000000000000000000000000000000000000000000000000000000000000000000000000000000000000000000000000000000000000000000000000000000000000000000000000000000000000000000000000000000000000000000000000000000000000000000000000000000000000000000000000000000000000000000000000000000000000000000000
#025322:13
#025382:0025
#0253b1:13
#025331:0025
#030331:1a00005a00005a00
#030351:00560000560056000000000000000000560056000000000000000000000056005600000000000000000056005600005600000000000000000000000000000000
#030341:0058000000000058000000000000000000580000000000580000000000000000
#030361:00000054005400005400540054000054005400005400540000005400540000540054000054005400540000540054000000000000000000000000000000000000
#030371:00000000000000520052005200520000000000520052005200520052005200000000005200520052005200000000000000005200000000000000000000000000
#031351:26
#031351:0000000000140024
#031371:000000000000000000000000000000000000000000000000000000000000000000000000000000000000001400000000
#032371:00240000
#033371:000000000000000000000000000000000000001400000000000000000000000000000000240000000000000000000000
#033322:000000000000000000000000000000000000001400000000000000000000000000000000240000000000000000000000
#034372:0000000000140024
#034352:000000000000000000000000000000000000000000000000000000000000000000000000000000000000001400000000
#035352:00240000
#036322:000000000000000000000000000000000000001400000000000000000000000000000000240000000000000000000000
#036371:000000000000000000000000000000000000001400000000000000000000000000000000240000000000000000000000
#037371:0000000000140024
#037351:000000000000000000000000000000000000000000000000000000000000000000000000000000000000001400000000
#038351:00240000
#0393a1:000000000000000000000000000000000000001400000000000000000000000000000000240000000000000000000000
#039352:000000000000000000000000000000000000001400000000000000000000000000000000240000000000000000000000
#040392:15
#040342:00540000
#040372:0027
#042322:001c00000000000000000000000000000000000000000000000000000000000000000000000000000000000000000000000000000000000000000000000000000000000000000000000000000000000000000000000000000000000000000000000000000000000000000000000000000000000000000000000000000000000000000000000000000000000000000000000000000000000000000000000000000000000000000000000000000000000000000000000000000000000000000000000000000000000000000000000000000000000000000000000000000000000000000000000000000000000000000000000000000000000000000000000000000000000000000000000000000000000000000000000000000000000000000000000000000000000000000000000000000000000000000000000000000000000000000000000000000000000000000000000000000000000000000000000000000000000000000000000000000000000000000000000000000000000000000000000000000000000000000000000000000000000000000000000000000000000000000000000000000000000000000000000000000000000000000000000000000000000000000000000000000000000000000000000000000000000000000000000000000000000000000000000000000000000000000000000000000000000000000000000000000000000000000000000000000000000000000000000000000000000000000000000000000000000000000000000000000000000000000000000000000000000000000000000000000000000000000000000000000000000000000000000000000000000000000000000000000000000000000000000000000000000000000000000000000000000000000000000000000000000000000000000000000000000000000000000000000000000000000000000000000000000000000000000000000000000000000000530000000000000000000000000000000000000000000000000000000000000000000000000000000000000000000000000000000000000000000000000000000000000000000000000000000000000000000000000000000000000000000000000000000000000000000000000000000000000000000000000000000000000000000000000000000000000000000000000000000000000000000000000000000000000000000000000000000000000000000000000000000000000000000000000000000000000000000000000000000000000000000000000000000000000000000000000000000000000000000000000000000000000000000000000000000000000000000000000000000000000000000000000000000000000000000000000000000000000000000000000000000000000000000000000000000000000000000000000000000000000000000000000000000000000000000000000000000000000000000000000000000000000000000000000000000000000000000000000000000000000000000000000000000000000000000000000000000000000000000000000000000000000000000000000000000000000000000000000000000000000000000000000000000000000000000000000000000000000000000000000000000000000000000000000000000000000000000000000000000000000000000000000000000000000000000000000000000000000000000000000000000000000000000000000000000000000000000000000000000000000000000000000000000000000000000000000000000000000000000000000000000000000000000000000000000000000000000000000000000000000000000000000000000000000000000000000000000000000000000000000000000000000000000000000000000000000000000000000000000000000000000000000000000000000000000000000000000000000000000000000000000000000000000000000000000000000000000000000000000000000000000000000000000000000000000000000000000000000000000000000000000000000000000000000000000000000000000000000000000000000000000000000000000000000000000000000000000000000000000000000000000000000000000000000000000000000000000000000000000000000000000000000000000000000000000000000000000000000000000000000000000000000000000000000000000000000000000000000000000000000000000000000000000000000000000000000000000000000000000000000000000000000000000000000000000000000000000000000000000000000000000000000000000000000000000000000000000000000000000000000000000000000000000000000000000000000000000000000000000000000000000000000000000000000000000000000000000000000000000000000000000000000000000000000000000000000000000000000000000000000000000000000000000000000000000000000000000000000000000000000000000000000000000000000000000000000000000000000000000000000000000000000000000000000000000000000000000000000000000000
#043322:00000000000000000000000000000000000000000000000000000000000000000000000000000000000000000000000000000000000000000000000000000000000000000000000000000000000000000000000000000000000000000000000000000000000000000000000000000000000000000000000000000000000000000000000000000000000000000000000000000000000000000000000000000000000000000000000000000000000000000000000000000000000000000000000000000000000000000000000000000000000000000000000000000000000000000000000000000000000000000000000000000000000000000000000000000000000000000000000000000000000000000000000000000000000000000000000000000000000000000000000000000000000000000000000000000000000000000000000000000000000000000000000000000000000000000000000000000000000000000000000000000000000000000000000000000000000000000000000000000000000000000000000000000000000000000000000000000000000000000000000000000000000000000000000000000000000000000000000000000000000000000000000000000000000000000000000000000000000000000000000000000000000000000000000000000000000000000000000000000000000000000000000000000000000000000000000000000000000000000000000000000000000000000000000000000000000000000000000000000000000000000000000000000000000000000000000000000000000000000000000000000000000000000000000000000000000000000000000000000000000000000000000000000000000000000000000000000000000000000000000000000000000000000000000000000000000000000000000000000000000000000000000000000000000000000000000000000000000000000000000000000000000000000000000000000000000000000000000000000000000000000000000000000000000000000000000000000000000000000000000000000000000000000000000000000000000000000000000000000000000000000000000000000000000000000000000000000000000000000000000000000000000000000000000000000000000000000000000000000000000000000000000000000000000000000000000000000000000000000000000000000000000000000000000000000000000000000000000000000000000000000000000000000000000000000000000000000000000000000000002c000000000000000000000000000000000000000000000000000000000000000000000000000000000000000000000000000000000000000000000000000000000000000000000000000000000000000000000000000000000000000000000000000000000000000000000000000000000000000000000000000000000000000000000000000000000000000000000000000000000000000000000000000000000000000000000000000000000000000000000000000000000000000000000000000000000000000000000000000000000000000000000000000000000000000000000000000000000000000000000000000000000000000000000000000000000000000000000000000000000000000000000000000000000000000000000000000000000000000000000000000000000000000000000000000000000000000000000000000000000000000000000000000000000000000000000000000000000000000000000000000000000000000000000000000000000000000000000000000000000000000000000000000000000000000000000000000000000000000000000000000000000000000000000000000000000000000000000000000000000000000000000000000000000000000000000000000000000000000000000000000000000000000000000000000000000000000000000000000000000000000000000000000000000000000000000000000000000000000000000000000000000000000000000000000000000000000000000000000000000000000000000000000000000000000000000000000000000000000000000000000000000000000000000000000000000000000000000000000000000000000000000000000000000000000000000000000000000000000000000000000000000000000000000000000000000000000000000000000000000000000000000000000000000000000000000000000000000000000000000000000000000000000000000000000000000000000000000000000000000000000000000000000000000000000000000000000000000000000000000000000000000000000000000000000000000000000000000000000000000000000000000000000000000000000000000000000000000000000000000000000000000000000000000000000000000000000000000000000000000000000000000000000000000000000000000000000000000000000000000000000000000000000000000000000000000000000000000000000000000000000000000000000000000000000000000000000000000000000000000000
#042321:001c00000000000000000000000000000000000000000000000000000000000000000000000000000000000000000000000000000000000000000000000000000000000000000000000000000000000000000000000000000000000000000000000000000000000000000000000000000000000000000000000000000000000000000000000000000000000000000000000000000000000000000000000000000000000000000000000000000000000000000000000000000000000000000000000000000000000000000000000000000000000000000000000000000000000000000000000000000000000000000000000000000000000000000000000000000000000000000000000000000000000000000000000000000000000000000000000000000000000000000000000000000000000000000000000000000000000000000000000000000000000000000000000000000000000000000000000000000000000000000000000000000000000000000000000000000000000000000000000000000000000000000000000000000000000000000000000000000000000000000000000000000000000000000000000000000000000000000000000000000000000000000000000000000000000000000000000000000000000000000000000000000000000000000000000000000000000000000000000000000000000000000000000000000000000000000000000000000000000000000000000000000000000000000000000000000000000000000000000000000000000000000000000000000000000000000000000000000000000000000000000000000000000000000000000000000000000000000000000000000000000000000000000000000000000000000000000000000000000000000000000000000000000000000000000000000000000000000000000000000000000000000000000000000000000000000000000000000000000000000000000000000000000000000000000000000000000000000000000000000000000000000000000000000000000000000000000000000000000000000000000000000000000000000000000000000000000000000000000000000000000000000000000000000000000000000000000000000000000000000000000000000000000000000000000000000000000000000000000000000000000000000000000000000000000000000000000000000000000000000000000000000000000000000000000000000000000000000000000000000000000000000000000000000000000000000000000000000000000000000000
#0423b1:0000005300000000
#043321:002c
#0493a1:00130000
#0493c1:0022
#051331:00120000
#051361:00000022
#055351:0000000000140024
#0553a2:0000000000000014
#0563b2:00530000000000000000000000000000
#056372:00240000
#056321:0000145224000000
#0573a1:000000000000000000000000000000000000001400000000000000000000000000000000000000000000000000000000
#0573b1:00000000000000000053000000000000
#057371:00000024
#057322:0000000000001452
#058322:24
#058352:0000000000140024
#0583a1:0000000000000014
#0593b1:00530000000000000000000000000000
#059371:00240000
#059322:0000145224000000
#060322:000000000000000000000000000000000000001400000000000000530000000000000000000000000000000000000000
#060352:00000024
#0603a1:00000014
#0603c1:0000000000000052
#0613a1:24
#061371:0000000000140024
#061351:000000000000000000000000000000000000000000000000000000000000000000000000000000000000001400000000
#062371:00530000000000000000000000000000
#062321:00240000
#062372:00142400
#062362:0000005300000000
#0623a2:000000000000000000000000000000000000000000000000001400000000000000000000000000000000000000000000
#0623b2:0000000000530000
#062372:00000024
#062351:000000000000000000000000000000000000000000000000001400000000000000000000000000000000000000000000
#062371:0000000000530000
#062321:00000024
#063321:000000000000000000000000000000000000001400000000000000530000000000000000000000000000000000000000
#063351:00000024
#0633a2:00000014
#0633c2:0000000000000052
#0643a2:24
#064342:001600000000000000000000000000000000000000000000
#064322:00560000
#064372:0027
#067342:13
#067322:002c
#067391:13
#067321:00000000000000000000000000000000000000000000000000000000000000000000000000000000000000000000000000000000000000000000000000000000000000000000000000000000000000000000000000000000000000000000000000000000000000000000000000000000000000000000000000000000000000000000000000000000000000000000000000000000000000000000000000000000000000000000000000000000000000000000000000000000000000000000000000000000000000000000000000000000000000000000000000000000000000000000000000000000000000000000000000000000000000000000000000000000000000000000000000000000000000000000000000000000000000000000000000000000000000000000000000000000000000000000000000000000000000000000000000000000000000000000000000000000000000000000000000000000000000000000000000000000000000000000000000000000000000000000000000000000000000000000000000000000000000000000000000000000000000000000000000000000000000000000000000000000000000000000000000000000000000000000000000000000000000000000000000000000000000000000000000000000000000000000000000000000000000000000000000000000000000000000000000000000000000000000000000000000000000000000000000000000000000000000000000000000000000000000000000000000000000000000000000000000000000000000000000000000000000000000000000000000000000000000000000000000000000000000000000000000000000000000000000000000000000000000000000000000000000000000000000000000000000000000000000000000000000000000000000000000000000000000000000000000000000000000000000000000000000000000000000000000000000000000000000000000000000000000000000000000000000000000000000000000000000000000000000000000000000000000000000000000000000000000000000000000000000000000000000000000000000000000000000000000000000000000000000000000000000000000000000000000000000000000000000000000000000000000000000000000000000000000000000000000000000000000000000000000000000000000000000000000000000000000000000000000000000000000000000000000000000000000000000000000000000000000000000000000000000000000002c000000000000000000000000000000000000000000000000000000000000000000000000000000000000000000000000000000000000000000000000000000000000000000000000000000000000000000000000000000000000000000000000000000000000000000000000000000000000000000000000000000000000000000000000000000000000000000000000000000000000000000000000000000000000000000000000000000000000000000000000000000000000000000000000000000000000000000000000000000000000000000000000000000000000000000000000000000000000000000000000000000000000000000000000000000000000000000000000000000000000000000000000000000000000000000000000000000000000000000000000000000000000000000000000000000000000000000000000000000000000000000000000000000000000000000000000000000000000000000000000000000000000000000000000000000000000000000000000000000000000000000000000000000000000000000000000000000000000000000000000000000000000000000000000000000000000000000000000000000000000000000000000000000000000000000000000000000000000000000000000000000000000000000000000000000000000000000000000000000000000000000000000000000000000000000000000000000000000000000000000000000000000000000000000000000000000000000000000000000000000000000000000000000000000000000000000000000000000000000000000000000000000000000000000000000000000000000000000000000000000000000000000000000000000000000000000000000000000000000000000000000000000000000000000000000000000000000000000000000000000000000000000000000000000000000000000000000000000000000000000000000000000000000000000000000000000000000000000000000000000000000000000000000000000000000000000000000000000000000000000000000000000000000000000000000000000000000000000000000000000000000000000000000000000000000000000000000000000000000000000000000000000000000000000000000000000000000000000000000000000000000000000000000000000000000000000000000000000000000000000000000000000000000000000000000000000000000000000000000000000000000000000000000000000000000000000000000000000000000000000
#069392:000000000000000000000000000000000000000000000000000000000000000000000000000000000000000000000000000000000000000000000000000000000000000000000000000000000000000000000000000000000000000000000000000000000000000000000000000000000000000000000000000000000000000000000000000000000000000000000000000000000000000000000000000000000000000000000000000000000000000000000000000000000000000000000000000000000000000000000000000000000000000000000000000000000000000000000000000000000000000000000000000000000000000000000000000000000000000000000000000000000000000000000000000000000000000000000000000000000000000000000000000000000000000000000000000000000000000000000000000000000000000000000000000000000000000000000000000000000000000000000000000000000000000000000000000000000000000000000000000000000000000000000000000000000000000000000000000000000000000000000000000000000000000000000000000000000000000000000000000000000000000000000000000000000000000000000000000000000000000000000000000000000000000000000000000000000000000000000000000000000000000000000000000000000000000000000000000000000000000000000000000000000000000000000000000000000000000000000000000000000000000000000000000000000000000000000000000000000000000000000000000000000000000000000000000000000000000000000000000000000000000000000000000000000000000000000000000000000000000000000000000000000000000000000000000000000000000000000000000000000000000000000000000000000000000000000000000000000000000000000000150000000000000000000000000000000000000000000000000000000000000000000000000000000000000000000000000000000000000000000000000000000000000000000000000000000000000000000000000000000000000000000000000000000000000000000000000000000000000000000000000000000000000000000000000000000000000000000000000000000000000000000000000000000000000000000000000000000000000000000000000000000000000000000000000000000000000000000000000000000000000000000000000000000000000000000000000000000000000000000000000000000000000000000000000000000000000000000000000000000000000000000000000000000000000000000000000000000000000000000000000000000000000000000000000000000000000000000000000000000000000000000000000000000000000000000000000000000000000000000000000000000000000000000000000000000000000000000000000000000000000000000000000000000000000000000000000000000000000000000000000000000000000000000000000000000000000000000000000000000000000000000000000000000000000000000000000000000000000000000000000000000000000000000000000000000000000000000000000000000000000000000000000000000000000000000000000000000000000000000000000000000000000000000000000000000000000000000000000000000000000000000000000000000000000000000000000000000000000000000000000000000000000000000000000000000000000000000000000000000000000000000000000000000000000000000000000000000000000000000000000000000000000000000000000000000000000000000000000000000000000000000000000000000000000000000000000000000000000000000055000000000000000000000000000000000000000000000000000000000000000000000000000000000000000000000000000000000000000000000000000000000000000000000000000000000000000000000000000000000000000000000000000000000000000000000000000000000000000000000000000000000000000000000000000000000000000000000000000000000000000000000000000000000000000000000000000000000000000000000000000000000000000000000000000000000000000000000000000000000000000000000000000000000000000000000000000000000000000000000000000000000000000000000000000000000000000000000000000000000000000000000000000000000000000000000000000000000000000000000000000000000000000000000000000000000000000000000000000000000000000000000000000000000000000000000000000000000000000000000000000000000000000000000000000000000000000000000000000000000000000000000000000000000000000000000000000000000000000000000000000000000000000000000000000000000000000000000000000000000000000000000000000000000000000000000000000000000000000000000000
#0693a2:00000024
#069322:000000000000000000000000000000000000000000000000000000000000000000000000000000000000000000000000000000000000000000000000000000000000000000000000000000000000000000000000000000000000000000000000000000000000000000000000000000000000000000000000000000000000000000000000000000000000000000000000000000000000000000000000000000000000000000000000000000000000000000000000000000000000000000000000000000000000000000000000000000000000000000000000000000000000000000000000000000000000000000000000000000000000000000000000000000000000000000000000000000000000000000000000000000000000000000000000000000000000000000000000000000000000000000000000000000000000000000000000000000000000000000000000000000000000000000000000000000000000000000000000000000000000000000000000000000000000000000000000000000000000000000000000000000000000000000000000000000000000000000000000000000000000000000000000000000000000000000000000000000000000000000000000000000000000000000000000000000000000000000000000000000000000000000000000000000000000000000000000000000000000000000000000000000000000000000000000000000000000000000000000000000000000000000000000000000000000000000000000000000000000000000000000000000000000000000000000000000000000000000000000000000000000000000000000000000000000000000000000000000000000000000000000000000000000000000000000000000000000000000000000000000000000000000000000000000000000000000000000000000000000000000000000000000000000000000000000000000000000000000000000000000000000000000000000000000000000000000000000000000000000000000000000000000000000000000000000000000000000000000000000000000000000000000000000000000000000000000000000000000000000000000000000000000000000000000000000000000000000000000000000000000000000000000000000000000000000000000000000000000000000000000000000000000000000000000000000000000000000000000000000000000000000000000000000000000000000000000000000000000000000000000000000000000000000000000000000000000000000000000000000000000000000000000000000000000000000000000000000000000000000000000000000000000000000000000000000000000000000000000000000000000000000000000000000000000000000000000000000000000000000000000000000000000000000000000000000000000000000000000000000000000000000000000000000000000000000000000000000000000000000000000000000000000000000000000000000000000000000000000000000000000000000000000000000000000000000000000000000000000000000000000000000000000000000000000000000000000000000000000000000000000000000000000000000000000000000000000000000000000000000000000000000000000000000000000000000000000000000000000000000000000000000000000000000000000000000000000000000000000000000000000000000000000000000000000000000000000000000000000000000000000000000000000000000000000000000000000000000000000000000000000000000000000000000000000000000000000000000000000000000000000000000000000000000000000000000000000000000000000000000000000000000000000000000000000000000000000000000000000000000000000000000000000000000000000000000000000000000000000000000000000000000000000000000000000000000000000000000000000000000000000000000000000000000000000000000000015000000000000000000000000000000000000000000000000000000000000000000000000000000000000000000000000000000000000000000000000000000000000000000000000000000000000000000000000000000000000000000000000000000000000000000000000000000000000000000000000000000000000000000000000000000000000000000000000000000000000000000000000000000000000000000000000000000000000000000000000000000000000000000000000000000000000000000000000000000000000000000000000000000000000000000000000000000000000000000000000000000000000000000000000000000000000000000000000000000000000000000000000000000000000000000000000000000000000000000000000000000000000000000000000000000000000000000000000000000000000000000000000000000000000000000000000000000000000000000000000000000000000000000000000000000000000000000000000000000000000000000000000000055
#070322:24
#070392:000000000000000000000000000000000000000000000000000000000000000000000000000000000000000000000000000000000000000000000000000000000000000000000000000000000000000015000000000000000000000000000000000000000000000000000000000000000000000000000000000000000000000000000000000000000000000000000000000000000000000000000000000000000000000000000000000000000000000000000000000000000000000000000000000000000000000000000000000000000000000000000000000000000000000000000000000000000000000000000000000000000000000000000000000000000000000000000000000000000000000000000000000000000000000000000000000000000000000000000000000000000000000000000000000000000000000000000000000000000000000000000000000000000000000000000000000000000000000000000000000000000000000000000000000000000000000000000000000000000000000000000000000000000000000000000000000000000000000000000000000000000000000000000000000000000000000000000000000000000000000000000000000000000000000000000000000000000000000000000055000000000000000000000000000000000000000000000000000000000000000000000000000000000000000000000000000000000000000000000000000000000000000000000000000000000000000000000000000000000000000000000000000000000000000000000000000000000000000000000000000000000000000000000000000000000000000000000000000000000000000000000000000000000000000000000000000000000000000000000000000000000000000000000000000000000000000000000000000000000000000000000000000000000000000000000000000000000000000000000000000000000000000000000000000000000000000000000000000000000000000000000000000000000000000000000000000000000000000000000000000000000000000000000000000000000000000000000000000000000000000000000000000000000000000000000000000000000000000000000000000000000000000000000000000000000000000000000000000000000000000000000000000000000000000000000000000000000000000000000000000000000000000000000000000000000000000000000000000000000000000000000000000000000000000000000000000000000000000000000000000000000000000000000000000000000000000000000000000000000000000000000000000000000000000000000000000000000000000000000000000000000000000000000000000000000000000000000000000000000000000000000000000000000000000000000000000000000000000000000000000000000000000000000000000000000000000000000000000000000000000000000000000000000000000000000000000000000000000000000000000000000000000000000000000000000000000000000000000000000000000000000000000000000000000000000000000000000000000000000000000000000000000000000000000000000000000000000000000000000000000000000000000000000000000000000000000000000000000000000000000000000000000000000000000000000000000000000000000000000000000000000000000000000000000000000000000000000000000000000000000000000000000000000000000000000000000000000000000000000000000000000000000000000000000000000000000000000000000000000000000000000000000000000000000000000000000000000000000000000000000000000000000000000000000000000000000000000000000000000000000000000000000000000000000000000000000000000000000000000000000000000000000000000000000000000000000000000000000000000000000000000000000000000000000000000000000000000000000000000000000000000000000000000000000000000000000000000000000000000000000000000000000000000000000000000000000000000000000000000000000000000000000000000000000000000000000000000000000000000000000000000000000000000000000000000000000000000000000000000000000000000000000000000000000000000000000000000000000000000000000000000000000000000000000000000000000000000000000000000000000000000000000000000000000000000000000000000000000000000000000000000000000000000000000000000000000000000000000000000000000000000000000000000000000000000000000000000000000000000000000000000000000000000000000000000000000000000000000000000000000000000000000000000000000000000000000000000000000000000000000000000000000000000000000000000000000000000000000000000000000000000000000000000000000000000000000000000000000000000000
#0703a2:00240000
#070322:000000000000000000000000000000000000000000000000000000000000000000000000000000000000000000000000000000000000000000000000000000000000000000000000000000000000000000000000000000000000000000000000000000000000000000000000000000000000000000000000000000000000000000000000000000000000000000000000000000000000000000000000000000000000000000000000000000000000000000000000000000000000000000000000000000000000000000000000000000000000000000000000000000000000000000000000000000000000000000000000000000000000000000000000000000000000000000000000000000000000000000000000000000000000000000000000000000000000000000000000000000000000000000000000000000000000000000000000000000000000000000000000000000000000000000000000000000000000000000000000000000000000000000000000000000000000000000000000000000000000000000000000000000000000000000000000000000000000000000000000000000000000000000000000000000000000000000000000000000000000000000000000000000000000000000000000000000000000000000000000000000000000000000000000000000000000000000000000000000000000000000000000000000000000000000000000000000000000000000000000000000000000000000000000000000000000000015000000000000000000000000000000000000000000000000000000000000000000000000000000000000000000000000000000000000000000000000000000000000000000000000000000000000000000000000000000000000000000000000000000000000000000000000000000000000000000000000000000000000000000000000000000000000000000000000000000000000000000000000000000000000000000000000000000000000000000000000000000000000000000000000000000000000000000000000000000000000000000000000000000000000000000000000000000000000000000000000000000000000000000000000000000000000000000000000000000000000000000000000000000000000000000000000000000000000000000000000000000000000000000000000000000000000000000000000000000000000000000000000000000000000000000000000000000000000000000000000000000000000000000000000000000000000000000000000000000000000000000000000000055240000000000000000000000000000000000000000000000000000000000000000000000000000000000000000000000000000000000000000000000000000000000000000000000000000000000000000000000000000000000000000000000000000000000000000000000000000000000000000000000000000000000000000000000000000000000000000000000000000000000000000000000000000000000000000000000000000000000000000000000000000000000000000000000000000000000000000000000000000000000000000000000000000000000000000000000000000000000000000000000000000000000000000000000000000000000000000000000000000000000000000000000000000000000000000000000000000000000000000000000000000000000000000000000000000000000000000000000000000000000000000000000000000000000000000000000000000000000000000000000000000000000000000000000000000000000000000000000000000000000000000000000000000000000000000000000000000000000000000000000000000000000000000000000000000000000000000000000000000000000000000000000000000000000000000000000000000000000000000000000000000000000000000000000000000000000000000000000000000000000000000000000000000000000000000000000000000000000000000000000000000000000000000000000000000000000000000000000000000000000000000000000000000000000000000000000000000000000000000000000000000000000000000000000000000000000000000000000000000000000000000000000000000000000000000000000000000000000000000000000000000000000000000000000000000000000000000000000000000000000000000000000000000000000000000000000000000000000000000000000000000000000000000000000000000000000000000000000000000000000000000000000000000000000000000000000000000000000000000000000000000000000000000000000000000000000000000000000000000000000000000000000000000000000000000000000000000000000000000000000000000000000000000000000000000000000000000000000000000000000000000000000000000000000000000000000000000000000000000000000000000000000000000000000000000000000000000000000000000000000000000000000000000000000000000000000000000000000000000000000
#070322:0000000000000015
#071322:000000000000000000000000000000000000000000000000000000000000000000000000000000000000000000000000000000000000000000000000000000000000000000000000000000000000000000000000000000000000000000000000000000000000000000000000000000000000000000000000000000000000000000000000000000000000000000000000000000000000000000000000000000000000000000000000000000000000000000000000000000000000000000000000000000000000000000000000000000000000000000000000000000000000000000000000000000000000000000000000000000000000000000000000000000000000000000000000000000000000000000000000000000000000000000000000000000000000000000000000000000000000000000000000000000000000000000000000000000000000000000000000000000000000000000000000000000000000000000000000000000000000000000000000000000000000000000000000000000000000000000000000000000000000000000000000000000000000000000000000000000000000000000000000000000000000000000000000000000000000000000000000000000000000000000000000000000000000000000000055240000000000000000000000000000000000000000000000000000000000000000000000000000000000000000000000000000000000000000000000000000000000000000000000000000000000000000000000000000000000000000000000000000000000000000000000000000000000000000000000000000000000000000000000000000000000000000000000000000000000000000000000000000000000000000000000000000000000000000000000000000000000000000000000000000000000000000000000000000000000000000000000000000000000000000000000000000000000000000000000000000000000000000000000000000000000000000000000000000000000000000000000000000000000000000000000000000000000000000000000000000000000000000000000000000000000000000000000000000000000000000000000000000000000000000000000000000000000000000000000000000000000000000000000000000000000000000000000000000000000000000000000000000000000000000000000000000000000000000000000000000000000000000000000000000000000000000000000000000000000000000000000000000000000000000000000000000000000000000000000000000000000000000000000000000000000000000000000000000000000000000000000000000000000000000000000000000000000000000000000000000000000000000000000000000000000000000000000000000000000000000000000000000000000000000000000000000000000000000000000000000000000000000000000000000000000000000000000000000000000000000000000000000000000000000000000000000000000000000000000000000000000000000000000000000000000000000000000000000000000000000000000000000000000000000000000000000000000000000000000000000000000000000000000000000000000000000000000000000000000000000000000000000000000000000000000000000000000000000000000000000000000000000000000000000000000000000000000000000000000000000000000000000000000000000000000000000000000000000000000000000000000000000000000000000000000000000000000000000000000000000000000000000000000000000000000000000000000000000000000000000000000000000000000000000000000000000000000000000000000000000000000000000000000000000000000000000000000000000000000000000000000000000000000000000000000000000000000000000000000000000000000000000000000000000000000000000000000000000000000000000000000000000000000000000000000000000000000000000000000000000000000000000000000000000000000000000000000000000000000000000000000000000000000000000000000000000000000000000000000000000000000000000000000000000000000000000000000000000000000000000000000000000000000000000000000000000000000000000000000000000000000000000000000000000000000000000000000000000000000000000000000000000000000000000000000000000000000000000000000000000000000000000000000000000000000000000000000000000000000000000000000000000000000000000000000000000000000000000000000000000000000000000000000000000000000000000000000000000000000000000000000000000000000000000000000000000000000000000000000000000000000000000000000000000000000000000000000000000000000000000000000000000000000000000000000000000000000000000000000000000000000000000000000000000000000000000000000000000000000
#071392:000000000000000000000000000000000000000000000000000000000000000000000000000000000000000000000000000000000000000000000000000000000000000000000000000000000000000000000000000000000000000000000000000000000000000000000000000000000000000000000000000000000000000000000000000000000000000000000000000000000000000000000000000000000000000000000000000000000000000000000000000000000000000000000000000000000000000000000000000000000000000000000000000000000000000000000000000000000000000000000000000000000000000000000000000000000000000000000000000000000000000000000000000000000000000000000000000000000000000000000000000000000000000000000000000000000000000000000000000000000000000000000000000000000000000000000000000000000000000000000000000000000000000000000000000000000000000000000000000000000000000000000000000000000000000000000000000000000000000000000000000000000000000000000000000000000000000000000000000000000000000000000000000000000000000000000000000000000000000000000000000000000000000000000000000000000000000000000000000000000000000000000000000000000000000000000000000000000000000000000000000000000000000000000000000000000000000015000000000000000000000000000000000000000000000000000000000000000000000000000000000000000000000000000000000000000000000000000000000000000000000000000000000000000000000000000000000000000000000000000000000000000000000000000000000000000000000000000000000000000000000000000000000000000000000000000000000000000000000000000000000000000000000000000000000000000000000000000000000000000000000000000000000000000000000000000000000000000000000000000000000000000000000000000000000000000000000000000000000000000000000000000000000000000000000000000000000000000000000000000000000000000000000000000000000000000000000000000000000000000000000000000000000000000000000000000000000000000000000000000000000000000000000000000000000000000000000000000000000000000000000000000000000000000000000000000000000000000000000000000055000000000000000000000000000000000000000000000000000000000000000000000000000000000000000000000000000000000000000000000000000000000000000000000000000000000000000000000000000000000000000000000000000000000000000000000000000000000000000000000000000000000000000000000000000000000000000000000000000000000000000000000000000000000000000000000000000000000000000000000000000000000000000000000000000000000000000000000000000000000000000000000000000000000000000000000000000000000000000000000000000000000000000000000000000000000000000000000000000000000000000000000000000000000000000000000000000000000000000000000000000000000000000000000000000000000000000000000000000000000000000000000000000000000000000000000000000000000000000000000000000000000000000000000000000000000000000000000000000000000000000000000000000000000000000000000000000000000000000000000000000000000000000000000000000000000000000000000000000000000000000000000000000000000000000000000000000000000000000000000000000000000000000000000000000000000000000000000000000000000000000000000000000000000000000000000000000000000000000000000000000000000000000000000000000000000000000000000000000000000000000000000000000000000000000000000000000000000000000000000000000000000000000000000000000000000000000000000000000000000000000000000000000000000000000000000000000000000000000000000000000000000000000000000000000000000000000000000000000000000000000000000000000000000000000000000000000000000000000000000000000000000000000000000000000000000000000000000000000000000000000000000000000000000000000000000000000000000000000000000000000000000000000000000000000000000000000000000000000000000000000000000000000000000000000000000000000000000000000000000000000000000000000000000000000000000000000000000000000000000000000000000000000000000000000000000000000000000000000000000000000000000000000000000000000000000000000000000000000000000000000000000000000000000000000000000000000000000000000000000000
#0713a2:0024
#071322:000000000000000000000000000000000000000000000000000000000000000000000000000000000000000000000000000000000000000000000000000000000000000000000000000000000000000000000000000000000000000000000000000000000000000000000000000000000000000000000000000000000000000000000000000000000000000000000000000000000000000000000000000000000000000000000000000000000000000000000000000000000000000000000000000000000000000000000000000000000000000000000000000000000000000000000000000000000000000000000000000000000000000000000000000000000000000000000000000000000000000000000000000000000000000000000000000000000000000000000000000000000000000000000000000000000000000000000000000000000000000000000000000000000000000000000000000000000000000000000000000000000000000000000000000000000000000000000000000000000000000000000000000000000000000000000000000000000000000000000000000000000000000000000000000000000000000000000000000000000000000000000000000000000000000000000000000000000000000000000000000000000000000000000000000000000000000000000000000000000000000000000000000000000000000000000000000000000000000000000000000000000000000000000000000000000000000000000000000000000000000000000000000000000000000000000000000000000000000000000000000000000000000000000000000000000000000000000000000000000000000000000000000000000000000000000000000000000000000000000000000000000000000000000000000000000000000000000000000000000000000000000000000000000000000000000000000000000000000000000000000000000000000000000000000000000000000000000000000000000000000000000000000000000000000000000000000000000000000000000000000000000000000000000000000000000000000000000000000000000000000000000000000000000000000000000000000000000000000000000000000000000000000000000000000000000000000000000000000000000000000000000000000000000000000000000000000000000000000000000000000000000000000000000000000000000000000000000000000000000000000000000000000000000000000000000000000000000000000000000000000000000000000000000000000000000000000000000000000000000000000000000000000000000000000000000000000000000000000000000000000000000000000000000000000000000000000015000000000000000000000000000000000000000000000000000000000000000000000000000000000000000000000000000000000000000000000000000000000000000000000000000000000000000000000000000000000000000000000000000000000000000000000000000000000000000000000000000000000000000000000000000000000000000000000000000000000000000000000000000000000000000000000000000000000000000000000000000000000000000000000000000000000000000000000000000000000000000000000000000000000000000000000000000000000000000000000000000000000000000000000000000000000000000000000000000000000000000000000000000000000000000000000000000000000000000000000000000000000000000000000000000000000000000000000000000000000000000000000000000000000000000000000000000000000000000000000000000000000000000000000000000000000000000000000000000000000000000000000000000055240000000000000000000000000000000000000000000000000000000000000000000000000000000000000000000000000000000000000000000000000000000000000000000000000000000000000000000000000000000000000000000000000000000000000000000000000000000000000000000000000000000000000000000000000000000000000000000000000000000000000000000000000000000000000000000000000000000000000000000000000000000000000000000000000000000000000000000000000000000000000000000000000000000000000000000000000000000000000000000000000000000000000000000000000000000000000000000000000000000000000000000000000000000000000000000000000000000000000000000000000000000000000000000000000000000000000000000000000000000000000000000000000000000000000000000000000000000000000000000000000000000000000000000000000000000000000000000000000000000000000000000000000000000000000000000000000000000000000000000000000000000000000000000000000000000000000000000000000000000000000000000000000000000000000000000000000000000000000000000000
#071392:000000000000000000000000000000000000000000000000000000000000000000000000000000000000000000000000000000000000000000000000000000000000000000000000000000000000000000000000000000000000000000000000000000000000000000000000000000000000000000000000000000000000000000000000000000000000000000000000000000000000000000000000000000000000000000000000000000000000000000000000000000000000000000000000000000000000000000000000000000000000000000000000000000000000000000000000000000000000000000000000000000000000000000000000000000000000000000000000000000000000000000000000000000000000000000000000000000000000000000000000000000000000000000000000000000000000000000000000000000000000000000000000000000000000000000000000000000000000000000000000000000000000000000000000000000000000000000000000000000000000000000000000000000000000000000000000000000000000000000000000000000000000000000000000000000000000000000000000000000000000000000000000000000000000000000000000000000000000000000000000000000000000000000000000000000000000000000000000000000000000000000000000000000000000000000000000000000000000000000000000000000000000000000000000000000000000000000000000000000000000000000000000000000000000000000000000000000000000000000000000000000000000000000000000000000000000000000000000000000000000000000000000000000000000000000000000000000000000000000000000000000000000000000000000000000000000000000000000000000000000000000000000000000000000000000000000000000000000000000000000000000000000000000000000000000000000000000000000000000000000000000000000000000000000000000000000000000000000000000000000000000000000000000000000000000000000000000000000000000000000000000000000000000000000000000000000000000000000000000000000000000000000000000000000000000000000000000000000000000000000000000000000000000000000000000000000000000000000000000000000000000000000000000000000000000000000000000000000000000000000000000000000000000000000000000000000000000000000000000000000000000000000000000000000000000000000000000000000000000000000000000000000000000000000000000000000000000000000000000000000000000000000000000000000000000000000000000000000000000000000000000000000000000000000000000000000000000000000000000000000000000000000000000000000000000000000000000000000000000000000000000000000000000000000000000000000000000000000000000000000000000000000000000000000000000000000000000000000000000000000000000000000000000000000000000000000000000000000000000000000000000000000000000000000000000000000000000000000000000000000000000000000000000000000000000000000000000000000000000000000000000000000000000000000000000000000000000000000000000000000000000000000000000000000000000000000000000000000000000000000000000000000000000000000000000000000000000000000000000000000000000000000000000000000000000000000000000000000000000000000000000000000000000000000000000000000000000000000000000000000000000000000000000000000000000000000000000000000000000000000000000000000000000000000000000000000000000000000000000000000000000000000000000000000000000000000000000000000000000000000000000000000000000000000000000000000000015000000000000000000000000000000000000000000000000000000000000000000000000000000000000000000000000000000000000000000000000000000000000000000000000000000000000000000000000000000000000000000000000000000000000000000000000000000000000000000000000000000000000000000000000000000000000000000000000000000000000000000000000000000000000000000000000000000000000000000000000000000000000000000000000000000000000000000000000000000000000000000000000000000000000000000000000000000000000000000000000000000000000000000000000000000000000000000000000000000000000000000000000000000000000000000000000000000000000000000000000000000000000000000000000000000000000000000000000000000000000000000000000000000000000000000000000000000000000000000000000000000000000000000000000000000000000000000000000000000000000000000000000000055
#0723a2:24
#072392:000000000000000000000000000000000000000000000000000000000000000000000000000000000000000000000000000000000000000000000000000000000000000000000000000000000000000000000000000000000000000000000000000000000000000000000000000000000000000000000000000000000000000000000000000000000000000000000000000000000000000000000000000000000000000000000000000000000000000000000000000000000000000000000000000000000000000000000000000000000000000000000000000000000000000000000000000000000000000000000000000000000000000000000000000000000000000000000000000000000000000000000000000000000000000000000000000000000000000000000000000000000000000000000000000000000000000000000000000000000000000000000000000000000000000000000000000000000000000000000000000000000000000000000000000000000000000000000000000000000000000000000000000000000000000000000000000000000000000000000000000000000000000000000000000000000000000000000000000000000000000000000000000000000000000000000000000000000000000000000000000000000000000000000000000000000000000000000000000000000000000000000000000000000000000000000000000000000000000000000000000000000000000000000000000000000000000000000000000000000000000000000000000000000000000000000000000000000000000000000000000000000000000000000000000000000000000000000000000000000000000000000000000000000000000000000000000000000000000000000000000000000000000000000000000000000000000000000000000000000000000000000000000000000000000000000000000000000000000000000000150000000000000000000000000000000000000000000000000000000000000000000000000000000000000000000000000000000000000000000000000000000000000000000000000000000000000000000000000000000000000000000000000000000000000000000000000000000000000000000000000000000000000000000000000000000000000000000000000000000000000000000000000000000000000000000000000000000000000000000000000000000000000000000000000000000000000000000000000000000000000000000000000000000000000000000000000000000000000000000000000000000000000000000000000000000000000000000000000000000000000000000000000000000000000000000000000000000000000000000000000000000000000000000000000000000000000000000000000000000000000000000000000000000000000000000000000000000000000000000000000000000000000000000000000000000000000000000000000000000000000000000000000000000000000000000000000000000000000000000000000000000000000000000000000000000000000000000000000000000000000000000000000000000000000000000000000000000000000000000000000000000000000000000000000000000000000000000000000000000000000000000000000000000000000000000000000000000000000000000000000000000000000000000000000000000000000000000000000000000000000000000000000000000000000000000000000000000000000000000000000000000000000000000000000000000000000000000000000000000000000000000000000000000000000000000000000000000000000000000000000000000000000000000000000000000000000000000000000000000000000000000000000000000000000000000000000000000000000000000055000000000000000000000000000000000000000000000000000000000000000000000000000000000000000000000000000000000000000000000000000000000000000000000000000000000000000000000000000000000000000000000000000000000000000000000000000000000000000000000000000000000000000000000000000000000000000000000000000000000000000000000000000000000000000000000000000000000000000000000000000000000000000000000000000000000000000000000000000000000000000000000000000000000000000000000000000000000000000000000000000000000000000000000000000000000000000000000000000000000000000000000000000000000000000000000000000000000000000000000000000000000000000000000000000000000000000000000000000000000000000000000000000000000000000000000000000000000000000000000000000000000000000000000000000000000000000000000000000000000000000000000000000000000000000000000000000000000000000000000000000000000000000000000000000000000000000000000000000000000000000000000000000000000000000000000000000000000000000000000000
#0723a2:00000024
#072322:000000000000000000000000000000000000000000000000000000000000000000000000000000000000000000000000000000000000000000000000000000000000000000000000000000000000000000000000000000000000000000000000000000000000000000000000000000000000000000000000000000000000000000000000000000000000000000000000000000000000000000000000000000000000000000000000000000000000000000000000000000000000000000000000000000000000000000000000000000000000000000000000000000000000000000000000000000000000000000000000000000000000000000000000000000000000000000000000000000000000000000000000000000000000000000000000000000000000000000000000000000000000000000000000000000000000000000000000000000000000000000000000000000000000000000000000000000000000000000000000000000000000000000000000000000000000000000000000000000000000000000000000000000000000000000000000000000000000000000000000000000000000000000000000000000000000000000000000000000000000000000000000000000000000000000000000000000000000000000000000000000000000000000000000000000000000000000000000000000000000000000000000000000000000000000000000000000000000000000000000000000000000000000000000000000000000000000000000000000000000000000000000000000000000000000000000000000000000000000000000000000000000000000000000000000000000000000000000000000000000000000000000000000000000000000000000000000000000000000000000000000000000000000000000000000000000000000000000000000000000000000000000000000000000000000000000000000000000000000000000000000000000000000000000000000000000000000000000000000000000000000000000000000000000000000000000000000000000000000000000000000000000000000000000000000000000000000000000000000000000000000000000000000000000000000000000000000000000000000000000000000000000000000000000000000000000000000000000000000000000000000000000000000000000000000000000000000000000000000000000000000000000000000000000000000000000000000000000000000000000000000000000000000000000000000000000000000000000000000000000000000000000000000000000000000000000000000000000000000000000000000000000000000000000000000000000000000000000000000000000000000000000000000000000000000000000000000000000000000000000000000000000000000000000000000000000000000000000000000000000000000000000000000000000000000000000000000000000000000000000000000000000000000000000000000000000000000000000000000000000000000000000000000000000000000000000000000000000000000000000000000000000000000000000000000000000000000000000000000000000000000000000000000000000000000000000000000000000000000000000000000000000000000000000000000000000000000000000000000000000000000000000000000000000000000000000000000000000000000000000000000000000000000000000000000000000000000000000000000000000000000000000000000000000000000000000000000000000000000000000000000000000000000000000000000000000000000000000000000000000000000000000000000000000000000000000000000000000000000000000000000000000000000000000000000000000000000000000000000000000000000000000000000000000000000000000000000000000000000000000000000000000000000000000000000000000000000000000000000000000000000000000000000000000000000000000000015000000000000000000000000000000000000000000000000000000000000000000000000000000000000000000000000000000000000000000000000000000000000000000000000000000000000000000000000000000000000000000000000000000000000000000000000000000000000000000000000000000000000000000000000000000000000000000000000000000000000000000000000000000000000000000000000000000000000000000000000000000000000000000000000000000000000000000000000000000000000000000000000000000000000000000000000000000000000000000000000000000000000000000000000000000000000000000000000000000000000000000000000000000000000000000000000000000000000000000000000000000000000000000000000000000000000000000000000000000000000000000000000000000000000000000000000000000000000000000000000000000000000000000000000000000000000000000000000000000000000000000000000000055
#073322:24
#073392:000000000000000000000000000000000000000000000000000000000000000000000000000000000000000000000000000000000000000000000000000000000000000000000000000000000000000015000000000000000000000000000000000000000000000000000000000000000000000000000000000000000000000000000000000000000000000000000000000000000000000000000000000000000000000000000000000000000000000000000000000000000000000000000000000000000000000000000000000000000000000000000000000000000000000000000000000000000000000000000000000000000000000000000000000000000000000000000000000000000000000000000000000000000000000000000000000000000000000000000000000000000000000000000000000000000000000000000000000000000000000000000000000000000000000000000000000000000000000000000000000000000000000000000000000000000000000000000000000000000000000000000000000000000000000000000000000000000000000000000000000000000000000000000000000000000000000000000000000000000000000000000000000000000000000000000000000000000000000000000055000000000000000000000000000000000000000000000000000000000000000000000000000000000000000000000000000000000000000000000000000000000000000000000000000000000000000000000000000000000000000000000000000000000000000000000000000000000000000000000000000000000000000000000000000000000000000000000000000000000000000000000000000000000000000000000000000000000000000000000000000000000000000000000000000000000000000000000000000000000000000000000000000000000000000000000000000000000000000000000000000000000000000000000000000000000000000000000000000000000000000000000000000000000000000000000000000000000000000000000000000000000000000000000000000000000000000000000000000000000000000000000000000000000000000000000000000000000000000000000000000000000000000000000000000000000000000000000000000000000000000000000000000000000000000000000000000000000000000000000000000000000000000000000000000000000000000000000000000000000000000000000000000000000000000000000000000000000000000000000000000000000000000000000000000000000000000000000000000000000000000000000000000000000000000000000000000000000000000000000000000000000000000000000000000000000000000000000000000000000000000000000000000000000000000000000000000000000000000000000000000000000000000000000000000000000000000000000000000000000000000000000000000000000000000000000000000000000000000000000000000000000000000000000000000000000000000000000000000000000000000000000000000000000000000000000000000000000000000000000000000000000000000000000000000000000000000000000000000000000000000000000000000000000000000000000000000000000000000000000000000000000000000000000000000000000000000000000000000000000000000000000000000000000000000000000000000000000000000000000000000000000000000000000000000000000000000000000000000000000000000000000000000000000000000000000000000000000000000000000000000000000000000000000000000000000000000000000000000000000000000000000000000000000000000000000000000000000000000000000000000000000000000000000000000000000000000000000000000000000000000000000000000000000000000000000000000000000000000000000000000000000000000000000000000000000000000000000000000000000000000000000000000000000000000000000000000000000000000000000000000000000000000000000000000000000000000000000000000000000000000000000000000000000000000000000000000000000000000000000000000000000000000000000000000000000000000000000000000000000000000000000000000000000000000000000000000000000000000000000000000000000000000000000000000000000000000000000000000000000000000000000000000000000000000000000000000000000000000000000000000000000000000000000000000000000000000000000000000000000000000000000000000000000000000000000000000000000000000000000000000000000000000000000000000000000000000000000000000000000000000000000000000000000000000000000000000000000000000000000000000000000000000000000000000000000000000000000000000000000000000000000000000000000000000000000000000000000000000000000000
#0733a2:00240000
#073322:000000000000000000000000000000000000000000000000000000000000000000000000000000000000000000000000000000000000000000000000000000000000000000000000000000000000000000000000000000000000000000000000000000000000000000000000000000000000000000000000000000000000000000000000000000000000000000000000000000000000000000000000000000000000000000000000000000000000000000000000000000000000000000000000000000000000000000000000000000000000000000000000000000000000000000000000000000000000000000000000000000000000000000000000000000000000000000000000000000000000000000000000000000000000000000000000000000000000000000000000000000000000000000000000000000000000000000000000000000000000000000000000000000000000000000000000000000000000000000000000000000000000000000000000000000000000000000000000000000000000000000000000000000000000000000000000000000000000000000000000000000000000000000000000000000000000000000000000000000000000000000000000000000000000000000000000000000000000000000000000000000000000000000000000000000000000000000000000000000000000000000000000000000000000000000000000000000000000000000000000000000000000000000000000000000000000000015000000000000000000000000000000000000000000000000000000000000000000000000000000000000000000000000000000000000000000000000000000000000000000000000000000000000000000000000000000000000000000000000000000000000000000000000000000000000000000000000000000000000000000000000000000000000000000000000000000000000000000000000000000000000000000000000000000000000000000000000000000000000000000000000000000000000000000000000000000000000000000000000000000000000000000000000000000000000000000000000000000000000000000000000000000000000000000000000000000000000000000000000000000000000000000000000000000000000000000000000000000000000000000000000000000000000000000000000000000000000000000000000000000000000000000000000000000000000000000000000000000000000000000000000000000000000000000000000000000000000000000000000000055240000000000000000000000000000000000000000000000000000000000000000000000000000000000000000000000000000000000000000000000000000000000000000000000000000000000000000000000000000000000000000000000000000000000000000000000000000000000000000000000000000000000000000000000000000000000000000000000000000000000000000000000000000000000000000000000000000000000000000000000000000000000000000000000000000000000000000000000000000000000000000000000000000000000000000000000000000000000000000000000000000000000000000000000000000000000000000000000000000000000000000000000000000000000000000000000000000000000000000000000000000000000000000000000000000000000000000000000000000000000000000000000000000000000000000000000000000000000000000000000000000000000000000000000000000000000000000000000000000000000000000000000000000000000000000000000000000000000000000000000000000000000000000000000000000000000000000000000000000000000000000000000000000000000000000000000000000000000000000000000000000000000000000000000000000000000000000000000000000000000000000000000000000000000000000000000000000000000000000000000000000000000000000000000000000000000000000000000000000000000000000000000000000000000000000000000000000000000000000000000000000000000000000000000000000000000000000000000000000000000000000000000000000000000000000000000000000000000000000000000000000000000000000000000000000000000000000000000000000000000000000000000000000000000000000000000000000000000000000000000000000000000000000000000000000000000000000000000000000000000000000000000000000000000000000000000000000000000000000000000000000000000000000000000000000000000000000000000000000000000000000000000000000000000000000000000000000000000000000000000000000000000000000000000000000000000000000000000000000000000000000000000000000000000000000000000000000000000000000000000000000000000000000000000000000000000000000000000000000000000000000000000000000000000000000000000000000000000000000000000
#074322:00000016
#074372:0000000000000057
#075322:28
#076342:001700000000000000000000000000000000000000000000
#076382:00560000
#076322:0028
#078322:00000000000000000000000000000000000000000000000000000000000000000000000000000000000000000000000000000013000000000000000000000000
#079322:23
#0793b2:00000013000000000000000000000000230000000000000000000000000000000000000000000000000000000000000000000000000000000000000000000000
#079322:00000000000000000000000000000000000000130000000000000000000000002300000000000000000000000000000000000000000000000000000000000000
#079322:0000000000000015
#080322:0023000000000000
#081392:0000001500000000
#0813b2:0000000000230000
#082322:0000000000000015
#083362:54
#083322:0023000000000000
#084392:0000001500000000
#084362:0054
#0843b2:0000000000230000
#085322:0000000000000016
#086362:55
#086322:0026000000000000
#088342:001700000000000000000000000000000000000000000000
#088382:00560000
#088322:0028
#090352:00001400005400000000000000000000
#090322:0000002500000000
#090372:00000000000000001400005400000000
#090392:00000025
#091352:00000000000000000000160000560000
#091382:0000000000000026
#092352:16000056000000000000000000000000
#092322:00260000
#098382:00000016000000000000000000000000
#1013c2:0000000000220000000000000000000000000000000000000000000000000000
#101371:0000000000120000000000000000000000000000000000000000000000000000
#102321:002c
#0009a0:0012000000000000
#000980:00000052000000000000000000000000
#000990:00220000
#000940:0000000000000012
#000960:00000000000000000000000000000052
#001950:22
#002940:0014
#002920:000000000000000000000000000000000000000000000000002400000000000000000000000000000000000000000000
#002930:00000014
#002920:000000000000000000000000000000000000000000000000000000000000000000000000002400000000000000000000
#004980:14
#0049a0:002400000000000000000000000000000000000000000000000000000000000000000000000000000000000000000000
#004990:00140000
#0049a0:000000000000000000000000002400000000000000000000000000000000000000000000000000000000000000000000
#005940:0014
#005920:000000000000000000000000000000000000000000000000002400000000000000000000000000000000000000000000
#005930:00000014
#005920:000000000000000000000000000000000000000000000000000000000000000000000000002400000000000000000000
#011960:0013
#011980:000000000000000000000000000000000000000000000000002300000000000000000000000000000000000000000000
#011980:00000013
#0119a0:000000000000000000000000000000000000000000000000000000000000000000000000002300000000000000000000
#012980:0000001300000000
#0129a0:000000000000000000000000000000000000002300000000000000000000000000000000000000000000000000000000
#017960:0013
#017980:000000000000000000000000000000000000000000000000002300000000000000000000000000000000000000000000
#017960:00000013
#017940:000000000000000000000000000000000000000000000000000000000000000000000000002300000000000000000000
#018940:00000013
#018960:000000000000000000000000000000000000000000000000000000000000000000000000002300000000000000000000
#019960:0013
#019920:000000000000002500000000
#020970:00000013
#020990:000000000025
#022960:00130000
#022920:002500
#023960:00000014
#0239b0:000000000000000000000000000000000000002300000000
#023961:000000000000000000000000000000000000000000000000000000000000000000000000000000000000000000000000000000000000000000000000000000000000000000000000000000000000000000000000000000000000000000000000000000000000000000000000000000000000000000000000000000000000000000000000000000000000000000000000000000000000000000000000000000000000000000000000000000000000000000000000000000000000000000000000000000000000000000000000000000000000000000000000000000000000000000000000000000000000000000000000000000000000000000000000000000000000000000000000000000000000000000000000000000000000000000000000000000000000000000000000000000000000000000000000000000000000000000000000000000000000000000000000000000000000000000000000000000000000000000000000000000000000000000000000000000000000000000000000000000000000000000000000000000000000000000000000000000000000000000000000000000000000000000000000000000000000000000000000000000000000000000000000000000000000000000000000000000000000000000000000000000000000000000000000000000000000000000000000000000000000000000000000000000000000000000000000000000000000000000000000000000000000000000000000000000000000000000000000000000000000000000000000000000000000000000000000000000000000000000000000000000000000000000000000000000000000000000000000000000000000000000000000000000000000000000000000000000000000000000000000000000000000000000000000000000000000000000000000000000000000000000000000000000000000000000000000000000000000000000000000000000000000000000000000000000000000000000000000000000000000000000000000000000000000000000000000000000000000000000000000000000000000000000000000000000000000000000000000000000000000000000000000000000000000000000000000000000000000000000000000000000000000000000000000000000000000000000000000000000000000000000000000000000000000000000000000000000000000000000000000000000000000000000000000000000000000000000000000000000000000000000000000000000000000000000000000000000000000000000000000000000000000000000000000000000000000000000000000000000000000000000000000000000000000000000000000000000000000000000000000000000000000000000000000000000000000000000000000000000000000000000000000000000000000000000000000000000000000000000000000000000000000000000000000000000000000000000000000000000000000000000000000000000000000000000000000000000000000000000000000000000000000000000000000000000000000000000000000000000000000000000000000000000000000000000000000000000000000000000000000000000000000000000000000000000000000000000000000000000000000000000000000000000000000000000000000000000000000000000000000000000000000000000000000000000000000000000000000000000000000000000000000000000000000000000000000000000000000000000000000000000000000000000000000000000000000000000000000000000000000000000000000000000000000000000000000000000000000000000000000000000000000000000000000000000000000000000000000000000000000000000000000000000000000000000000000000000000000000000000000001400000000000000000000000000000000000000000000000000000000000000000000000000000000000000000000000000000000000000000000000000000000000000000000000000000000000000000000000000000000000000000000000000000000000000000000000000000000000000000000000000000000000000000000000000000000000000000000000000000000000000000000000000000000000000000000000000000000000000000000000000000000000000000000000000000000000000000000000000000000000000000000000000000000000000000000000000000000000000000000000000000000000000000000000000000000000000000000000000000000000000000000000000000000000000000000000000000000000000000000000000000000000000000000000000000000000000000000000000000000000000000000000000000000000000000000000000000000000000000000000000000000000000000000000000000000000000000000000000000000000000000000000000000000000000000000000000000000000000000000000000000000000000000000000000000000000000000000000000000000000000000000000000000000000000000000000000000000000000000000
#023921:000000000000000000000000000000000000002300000000
#0319a1:0000000000000014
#031971:000000000000000000000000000000000000000000000000000000000000000000000000000000000000002400000000
#031950:0000000000000014
#031920:000000000000000000000000000000000000000000000000000000000000000000000000000000000000002400000000
#032970:0014
#0329a0:000000000000000000000000000000000000000000000000002400000000000000000000000000000000000000000000
#032921:0014
#032951:000000000000000000000000000000000000000000000000002400000000000000000000000000000000000000000000
#0339a1:0000001400000000
#033971:000000000000000000000000000000000000002400000000000000000000000000000000000000000000000000000000
#033950:0000001400000000
#033920:000000000000000000000000000000000000002400000000000000000000000000000000000000000000000000000000
#034950:14
#034920:002400000000000000000000000000000000000000000000000000000000000000000000000000000000000000000000
#0349a1:14
#034971:002400000000000000000000000000000000000000000000000000000000000000000000000000000000000000000000
#034971:00140000
#0349a1:000000000000000000000000002400000000000000000000000000000000000000000000000000000000000000000000
#034920:00140000
#034950:000000000000000000000000002400000000000000000000000000000000000000000000000000000000000000000000
#034920:0000000000000014
#034950:000000000000000000000000000000000000000000000000000000000000000000000000000000000000002400000000
#034971:0000000000000014
#0349a1:000000000000000000000000000000000000000000000000000000000000000000000000000000000000002400000000
#035951:0014
#035921:000000000000000000000000000000000000000000000000002400000000000000000000000000000000000000000000
#0359a0:0014
#035970:000000000000000000000000000000000000000000000000002400000000000000000000000000000000000000000000
#036950:0000001400000000
#036920:000000000000000000000000000000000000002400000000000000000000000000000000000000000000000000000000
#0369a1:0000001400000000
#036971:000000000000000000000000000000000000002400000000000000000000000000000000000000000000000000000000
#037951:14
#037921:002400000000000000000000000000000000000000000000000000000000000000000000000000000000000000000000
#0379a0:14
#037970:002400000000000000000000000000000000000000000000000000000000000000000000000000000000000000000000
#037920:0000000000000014
#037950:000000000000000000000000000000000000000000000000000000000000000000000000000000000000002400000000
#037971:0000000000000014
#0379a1:000000000000000000000000000000000000000000000000000000000000000000000000000000000000002400000000
#038951:0014
#038921:000000000000000000000000000000000000000000000000002400000000000000000000000000000000000000000000
#0389a0:0014
#038970:000000000000000000000000000000000000000000000000002400000000000000000000000000000000000000000000
#039970:0000001400000000
#0399a0:000000000000000000000000000000000000002400000000000000000000000000000000000000000000000000000000
#039921:0000001400000000
#039951:000000000000000000000000000000000000002400000000000000000000000000000000000000000000000000000000
#040921:0014
#040961:0000000000000000000000000000000000240000000000000000000000000000
#043921:00001c2c
#052961:12
#052921:002200000000000000000000000000000000000000000000
#055951:0000000000000014
#055921:000000000000000000000000000000000000000000000000000000000000000000000000000000000000002400000000
#056971:0014
#0569a1:000000000000000000000000000000000000000000000000002400000000000000000000000000000000000000000000
#056920:0014
#056950:000000000000000000000000000000000000000000000000002400000000000000000000000000000000000000000000
#057970:0000001400000000
#0579a0:000000000000000000000000000000000000002400000000000000000000000000000000000000000000000000000000
#057921:0000001400000000
#057951:000000000000000000000000000000000000002400000000000000000000000000000000000000000000000000000000
#058921:14
#058951:002400000000000000000000000000000000000000000000000000000000000000000000000000000000000000000000
#058970:14
#0589a0:002400000000000000000000000000000000000000000000000000000000000000000000000000000000000000000000
#058970:00130000
#058990:000000000000000000000000002300000000000000000000000000000000000000000000000000000000000000000000
#058921:00130000
#058941:000000000000000000000000002300000000000000000000000000000000000000000000000000000000000000000000
#058951:0000000000000014
#058921:000000000000000000000000000000000000000000000000000000000000000000000000000000000000002400000000
#059971:0014
#0599a1:000000000000000000000000000000000000000000000000002400000000000000000000000000000000000000000000
#059920:0014
#059950:000000000000000000000000000000000000000000000000002400000000000000000000000000000000000000000000
#060950:0000001400000000
#060920:000000000000000000000000000000000000002400000000000000000000000000000000000000000000000000000000
#0609a1:0000001400000000
#060971:000000000000000000000000000000000000002400000000000000000000000000000000000000000000000000000000
#0619a1:14
#061971:002400000000000000000000000000000000000000000000000000000000000000000000000000000000000000000000
#061950:14
#061920:002400000000000000000000000000000000000000000000000000000000000000000000000000000000000000000000
#061970:0000000000000014
#0619a0:000000000000000000000000000000000000000000000000000000000000000000000000000000000000002400000000
#061921:0000000000000014
#061951:000000000000000000000000000000000000000000000000000000000000000000000000000000000000002400000000
#062971:0014
#0629a1:000000000000000000000000000000000000000000000000002400000000000000000000000000000000000000000000
#062920:0014
#062950:000000000000000000000000000000000000000000000000002400000000000000000000000000000000000000000000
#063950:0000001400000000
#063920:000000000000000000000000000000000000002400000000000000000000000000000000000000000000000000000000
#0639a1:0000001400000000
#063971:000000000000000000000000000000000000002400000000000000000000000000000000000000000000000000000000
#0649a1:14
#064941:002600000000000000000000000000000000000000000000
#064921:0014
#064961:000000000000000000000000002400000000000000000000
#069951:00000015
#069921:000000000000000000000000000000000000002500000000
#070961:15
#070991:002500000000000000000000000000000000000000000000
#070951:00150000
#070921:000000000000002500000000000000000000000000000000
#071961:00150000
#071991:000000000000002500000000000000000000000000000000
#071951:0015
#071921:000000000000000000000000002500000000000000000000
#071961:00000015
#071991:000000000000000000000000000000000000002500000000
#072951:00000015
#072921:000000000000000000000000000000000000002500000000
#073961:15
#073991:002500000000000000000000000000000000000000000000
#073951:00150000
#073921:000000000000002500000000000000000000000000000000
#076921:17
#076941:002700000000000000000000000000000000000000000000
#0769a1:0014
#076961:000000000000000000000000002600000000000000000000
#078951:00000016
#078921:00000000000000000000000000000000000000000000000000000000000000000000000000000000000000000000000000000023000000000000000000000000
#079951:16
#0799b1:00000023000000000000000000000000000000000000000000000000000000000000000000000000000000000000000000000000000000000000000000000000
#079951:00160000
#079921:00000000000000000000000000000000000000230000000000000000000000000000000000000000000000000000000000000000000000000000000000000000
#080981:0014
#0809a1:000000000000000000000000000000000000000000000000002400000000000000000000000000000000000000000000
#080961:00000014
#080991:000000000000000000000000000000000000000000000000000000000000000000000000002400000000000000000000
#082941:14
#082921:002400000000000000000000000000000000000000000000000000000000000000000000000000000000000000000000
#082961:00140000
#082931:000000000000000000000000002400000000000000000000000000000000000000000000000000000000000000000000
#083981:0014
#0839a1:000000000000000000000000000000000000000000000000002400000000000000000000000000000000000000000000
#083961:00000014
#083991:000000000000000000000000000000000000000000000000000000000000000000000000002400000000000000000000
#085941:14
#085921:002400000000000000000000000000000000000000000000000000000000000000000000000000000000000000000000
#085961:00140000
#085931:000000000000000000000000002400000000000000000000000000000000000000000000000000000000000000000000
#086941:0014
#086921:000000000000000000000000000000000000000000000000002400000000000000000000000000000000000000000000
#086981:00000014
#0869a1:000000000000000000000000000000000000000000000000000000000000000000000000002400000000000000000000
#088921:17
#088941:002700000000000000000000000000000000000000000000
#0889a1:0014
#088961:000000000000000000000000002600000000000000000000
#098921:13
#098981:00000026000000000000000000000000
