This file was generated by Ched 2.7.0.0.
#TITLE ""
#ARTIST ""
#DESIGNER ""
#DIFFICULTY 0
#PLAYLEVEL
#SONGID ""
#WAVE ""
#WAVEOFFSET 0
#JACKET ""
#REQUEST "ticks_per_beat 480"
#00002: 4
#BPM01: 192
#00008: 01
#TIL00: ""
#VOLUME: ""
#HISPEED 00
#MEASUREHS 00
#0071a:0014
#00710:0041
#0081a:00140000
#00912:14000014
#01018:0014
#01118:00140000
#01214:14000014
#0131a:0014
#01414:00140000
#01518:14
#01512:00000014
#0161a:0014
#01714:00140000
#01818:14
#01812:00000014
#0191a:0014
#01910:0041
#02018:0014000000000000
#02212:0014
#02218:14
#02314:0014000000000000
#02114:0014
#02418:0014
#02414:00000014
#02614:1414
#02618:00140014
#02718:0014
#02714:00000014
#02712:16
#02818:1416
#02814:00140000
#03519:14
#03518:00360000
#03613:0014
#03612:1600003600003600
#03817:14
#03818:00360000
#03915:0014
#03912:1600003600003600
#04114:1414
#04118:00140014
#04214:14
#05314:1414
#05318:00140014
#05414:00000014
#06514:1414
#06518:00140014
#06614:14
#06718:0000000026000016
#06912:1600001600000000
#07018:0016
#07017:0000000000000016
#07212:16
#07213:0000001600000000
#07318:0016
#07312:0000000000000016
#07310:0041
#07512:16
#07518:0000001600000000
#07714:1414
#07718:00140014
#07814:14
#03418:0000000016000036
#03718:0000000016000036
#05617:14
#05618:00360000
#05518:0000000016000036
#0551f:0021
#05715:0014
#05712:1600003600003600
#05710:41
#05818:0016
#05817:0000000000000036
#06012:16
#06013:0000003600000000
#06014:00000036
#0791a:0000000014000014
#0801a:00140000
#08112:1400001400001400
#08218:0000000014000014
#08318:00140000
#08414:1400001400001400
#08519:0000000014000014
#08513:0000000014000014
#08619:00140000
#08613:00140000
#0871a:14
#08712:14
#08818:14
#08814:14
#0881a:0024
#08812:0024
#08810:0041
#04319:0014
#0431f:0011
#04418:00160000
#04613:0014
#04712:00160000
#08918:1414
#08914:00140014
#09018:14
#0901a:0014
#09114:0014
#09212:14
#09318:1600001600001600
#09412:0000000016000016
#09512:00160000
#09812:14
#10015:13
#0251a:24
#02912:00260026
#02918:0026
#04018:0026
#0521a:0024
#05212:0024
#06418:0026
#07618:0026
#09618:26
#05916:00360000
#03110:0041
#10212:0056
#0195a:0064
#02058:0024000000000000
#0205a:00000014
#02252:0054
#02354:0024000000000000
#02352:00000014
#0255a:0014
#02752:16
#02858:0016
#03558:0016
#03559:24
#03653:0024
#03652:56
#03752:16
#03758:0066
#03857:24
#03858:0016
#03955:0024
#03952:56
#04052:16
#04058:0016
#03258:0016
#03452:16
#03458:0066
#04352:14
#04359:0064
#04254:64
#05553:16
#05558:0066
#05454:00000024
#06458:0016
#06452:16
#06752:14
#06654:64
#07854:64
#07658:0016
#07652:16
#06858:0016
#07052:16
#07156:0016
#07354:16
#07458:0016
#07952:14
#05956:0016
#06258:0016
#05657:24
#05658:0016
#05755:0024
#05752:56
#05852:16
#05858:0066
#06052:56
#06154:16
#0875a:54
#08752:64
#0885a:0014
#08858:64
#08854:54
#08852:0014
#04458:00260000
#04653:0054
#04752:00260000
#09158:14
#09154:0054
#09058:64
#0905a:0024
#09252:24
#09254:0014
#09758:0000001600000000
#09658:66
#09852:64
#10055:23
#001380:0000000016000036
#002380:00260000
#003320:1600003600002600
#004380:0016
#004360:0000000000000036
#005380:00260000
#006320:16000026
#006340:0000003600000000
#0193a0:0014
#020380:0054000000000000
#0203a0:00000024
#022320:0014
#023340:0054000000000000
#023320:00000024
#0253a0:1424
#031380:0000000016000036
#032380:00362600
#033320:1600003600003600
#034320:26
#034380:0000000016000036
#035390:54
#035380:00362600
#036320:1600003600003600
#036330:0054
#037320:26
#037380:0000000016000036
#038370:54
#038380:00362600
#039320:1600003600003600
#039350:0054
#040320:26
#042340:14
#043320:24
#043390:0014
#044380:00560000
#045390:24
#046330:0014
#047320:00560000
#048330:24
#049380:0014
#0503a0:0024
#051340:14
#052320:24
#054340:14000054
#055330:26
#055380:0000000016000036
#056370:54
#056380:00362600
#057320:1600003600003600
#057350:0054
#058320:26
#058380:0016
#058370:0000000000000036
#059360:00362600
#060320:16
#060330:0000003600000000
#060340:00000036
#061340:26
#061380:0016
#061360:0000000000000036
#062380:00362600
#063320:16000036
#063340:0000003600000000
#064320:26
#066340:14
#067320:24
#068380:00162600
#069320:00000016
#070320:26
#071360:00162600
#072340:00000016
#073340:26
#074380:00162600
#075320:00000016
#076320:26
#078340:14
#079320:24
#0873a0:14
#088380:34
#0883a0:0024
#087321:14
#088341:34
#088321:0024
#090381:14
#0903a1:0054
#091381:24
#091341:0014
#092321:54
#092341:0024
#096381:16
#096391:00540000
#097381:0000002600000000
#098321:14
#100351:53
#102321:0026
