This file was generated by Ched 2.7.0.0.
#TITLE ""
#ARTIST ""
#DESIGNER ""
#DIFFICULTY 0
#PLAYLEVEL
#SONGID ""
#WAVE ""
#WAVEOFFSET 0
#JACKET ""
#REQUEST "ticks_per_beat 480"
#00002: 4
#BPM01: 150
#00008: 01
#TIL00: ""
#VOLUME: ""
#HISPEED 00
#MEASUREHS 00
#0041a:14
#00410:41
#0051a:14
#00614:14
#00714:14
#00818:14
#00918:14
#01012:14
#01112:14
#01612:14
#01618:0014
#0181a:14
#01814:0014
#01712:14
#0191a:14
#02412:14
#0251a:14
#02614:14
#02812:0016
#02818:26
#02810:41
#03012:16
#03018:0016
#03218:16
#03212:0016
#03318:16
#03312:0016
#03614:14
#03714:14
#03818:14
#0411a:14
#05218:14
#05214:0014
#05318:14
#05314:0014
#05418:14
#05818:0016
#0581f:21
#05812:26
#05810:0041
#06012:0016
#06018:26
#06118:1616
#05912:1616
#06412:0016
#06418:26
#06612:16
#06618:0016
#06818:1616
#06912:1616
#0481f:11
#0481a:24
#00218:26
#04014:24
#03918:24
#05014:24
#05718:0026
#07213:24
#07219:24
#0741a:24
#07410:41
#01210:41
#02010:41
#02654:24
#05458:24
#003320:16362600
#0123a0:14
#0133a0:34
#014380:34
#015380:24
#020340:14
#021340:24
#022380:14
#023380:24
#026340:14
#027320:24
#029380:1626
#031320:1626
#034380:1636
#035380:26
#039380:14342400
#042320:14
#043320:24
#0443a0:14
#0453a0:24
#046340:14
#047340:24
#0483a0:14
#049380:24
#050340:14
#051320:24
#054380:14
#0553a0:24
#056340:1434
#057340:24
#062320:16
#062330:0036
#063320:3626
#065380:1626
#067320:1626
#070380:16
#071390:24
#0743a0:14
#074380:0034
#0753a0:0034
#076380:0000000000000034
#077380:0000000000000026
