This file was generated by Ched 2.7.0.0.
#TITLE ""
#ARTIST ""
#DESIGNER ""
#DIFFICULTY 0
#PLAYLEVEL
#SONGID ""
#WAVE ""
#WAVEOFFSET 0
#JACKET ""
#REQUEST "ticks_per_beat 480"
#00002: 4
#BPM01: 150
#00008: 01
#TIL00: ""
#VOLUME: ""
#HISPEED 00
#MEASUREHS 00
#00212:00160016
#00218:2616
#00412:1414
#00418:00140014
#00410:41
#0061a:1414
#00614:00140014
#00814:14
#00818:00140000
#00812:0014
#0081a:00000014
#01018:14
#01014:00140000
#0101a:0014
#01012:00000014
#01718:14
#01714:00140000
#01818:00140000
#01812:24
#0191a:14
#01914:00140000
#02012:14
#02010:41
#0211a:14
#02212:1414
#0221a:00140014
#02312:14
#02313:0054000000000000
#02314:00540000
#02315:0000005400000000
#02316:0054
#0241a:14141400
#02512:14141400
#02618:14000014
#0261a:00140000
#02619:0014
#02818:00160000
#02812:2616
#02810:41
#02918:1414
#02914:00140014
#03113:0014
#03212:0016
#03218:26
#03318:1414
#03314:00140000
#03514:1414
#03518:00140000
#03618:1614
#03612:00140000
#03614:00000014
#0371a:14
#03712:00140000
#03718:0014
#03714:00000014
#0401a:0014
#04018:14
#04118:14
#04312:0014
#0431a:0014
#0521a:1414
#05312:1414
#05416:00160000
#05418:16000016
#05417:0016
#05712:00000016
#05713:0000000000000014
#05818:00160014
#05814:0014
#0581f:21
#05810:0041
#05912:16
#05918:0016
#06018:00140000
#06014:0014
#0601a:00000014
#06012:26
#06112:14
#06118:00140000
#06114:0014
#0611a:00000014
#06312:16
#06412:00140000
#06416:0014
#0641a:00000014
#06418:26
#06914:1414
#06918:00140014
#07012:16
#07118:16
#0481f:11
#04818:0034
#01118:26
#01112:00260000
#01614:24
#01618:00240000
#03412:26
#03418:0026
#03912:28
#04712:00000026
#05613:24
#06212:2626
#06218:00260026
#06712:0026
#06718:00260026
#07212:25
#07219:25
#03018:00363636
#05012:0034
#05112:34
#04918:34
#06612:00363636
#01210:41
#07410:41
#00258:16
#0035a:00000014
#0075a:00000014
#01158:00000016
#02054:0014
#02052:64
#0215a:54
#02158:0014
#0275a:14
#02658:64000024
#0265a:00240000
#02659:0064
#02852:0016
#03159:14
#03153:0014
#03658:16
#0385a:0014
#03952:00000014
#0405a:0024
#04058:64
#04158:64
#04658:00160000
#04752:00000016
#05456:00260000
#05458:56000026
#05457:0056
#05556:16
#05852:16
#05752:00000066
#05753:0000000000000024
#05952:16
#05958:0016
#06052:16
#06353:0014
#06352:66
#06458:16
#06552:00160000
#06558:00000016
#06753:14
#07053:0014
#07052:66
#07158:56
#07159:0014
#07754:0000000000000018
#003360:18380000
#003380:00000000005600003600000000000000
#0033a0:00000000000000000054000024000000
#005320:1434
#005340:00340024
#0073a0:14003424
#007380:00340000
#009340:1434
#009320:00340024
#011380:00001626
#012320:14
#012340:0034
#013340:34
#013320:0024
#0143a0:14
#014380:0034
#015380:34
#0153a0:0024
#016320:00001424
#0173a0:00001424
#018340:00001424
#019380:00001424
#020320:14
#020340:0024
#0213a0:14
#021380:0024
#026380:14000054
#0263a0:00540000
#026390:0054
#0273a0:24
#030380:16363636
#031390:24
#0383a0:1424
#039320:18000000385600003654000024000000
#040380:14
#0403a0:0054
#041380:34
#0413a0:0024
#042320:14
#042340:0034
#043320:24
#0423a1:14
#042381:0034
#0433a1:24
#044391:14340000
#046381:36260000
#0483a1:14
#048381:0034
#049381:3424
#050341:14
#050321:0034
#051321:3424
#054381:16000056
#054361:00560000
#054371:0056
#055361:26
#056331:14
#057321:3636363636363600
#057331:0000000000000054
#058321:26
#063321:16
#063331:0024
#065321:16260000
#065381:00001626
#066321:16363636
#067331:24
#068321:16260000
#068381:00001626
#070321:16
#070331:0024
#071381:16
#071391:0024
#074391:15
#074371:0035
#075391:35
#075371:0035
#076391:35
#077341:0000000000000028
#023920:14
#023960:000000000000000000000000000000000000000000000000000000000000000000000000000000000000000000000000000000000000000000000000000000000000000000000000000000000000000000000000000000000000000000000000000000000000000000000000000000000000000000000000000000000000000000000000000000000000000000000000000000000000000000000000000000000000000000000000000000000000000000000000000000000000000000000000000000000000000000000000000000000000000000000000000000000000000000000000000000000000000000000000000000000000000000000000000000000000000000000000000000000000000000000000000000000000000000000000000000000000000000000000000000000000000000000000000000000000000000000000000000000000000000000000000000000000000000000000000000000000000000000000000000000000000000000000000000000000000000000000000000000000000000000000000000000000000000000000000000000000000000000000000000000000000000000000000000000000000000000000000000000000000000000000000000000000000000000000000000000000000000000000000000000000000000000000000000000000000000000000000000000000000000000000000000000000000000000000000000000000000000000000000000000000000000000000000000000000000000000000000000000000000000000000000000000000000000000000000000000000000000000000000000000000000000000000000000000000000000000000000000000000000000000000000000000000000000000000000000000000000000000000000000000000000000000000000000000000000000000000000000000000000000000000000000000000000000000000000000000000000000000000000000000000000000000000000000000000000000000000000000000000000000000000000000000000000000000000000000000000000000000000000000000000000000000000000000000000000000000000000000000000000000000000000000000000000000000000000000000000000000000000000000000000000000000000000000000000000000000000000000000000000000000000000000000000000000000000000000000000000000000000000000000000000000000000000000000000000000000000000000000000000000000000000000000000000000000000000000000000000000005454240000000000000000000000000000000000000000000000000000000000000000000000000000000000000000000000000000000000000000000000000000000000000000000000000000000000000000000000000000000000000000000000000000000000000000000000000000000000000000000000000000000000000000000000000000000000000000000000000000000000000000000000000000000000000000000000000000000000000000000000000000000000000000000000000000000000000000000000000000000000000000000000000000000000000000000000000000000000000000000000000000000000000000000000000000000000000000000000000000000000000000000000000000000000000000000000000000000000000000000000000000000000000000000000000000000000000000000000000000000000000000000000000000000000000000000000000000000000000000000000000000000000000000000000000000000000000000000000000000000000000000000000000000000000000000000000000000000000000000000000000000000000000000000000000000000000000000000000000000000000000000000000000000000000000000000000000000000000000000000000000000000000000000000000000000000000000000000000000000000000000000000000000000000000000000000000000000000000000000000000000000000000000000000000000000000000000000000000000000000000000000000000000000000000000000000000000000000000000000000000000000000000000000000000000000000000000000000000000000000000000000000000000000000000000000000000000000000000000000000000000000000000000000000000000000000000000000000000000000000000000000000000000000000000000000000000000000000000000000000000000000000000000000000000000000000000000000000000000000000000000000000000000000000000000000000000000000000000000000000000000000000000000000000000000000000000000000000000000000000000000000000000000000000000000000000000000000000000000000000000000000000000000000000000000000000000000000000000000000000000000000000000000000000000000000000000000000000000000000000000000000000000000000000000000000000000000000000000000000000000000000000000000000000000000000000000000000000000000000000000
