This file was generated by Ched 2.7.0.0.
#TITLE ""
#ARTIST ""
#DESIGNER ""
#DIFFICULTY 0
#PLAYLEVEL
#SONGID ""
#WAVE ""
#WAVEOFFSET 0
#JACKET ""
#REQUEST "ticks_per_beat 480"
#00002: 4
#BPM01: 198
#00008: 01
#TIL00: "105'959:10000, 105'962:1"
#VOLUME: ""
#HISPEED 00
#MEASUREHS 00
#00418:16
#00410:41
#00512:16
#00618:16
#00812:14
#00918:14
#01014:14
#0111a:14
#01212:14
#01318:14
#0161a:14
#01610:41
#01714:14
#01818:14
#01912:14
#0201a:14
#02114:14
#02512:16
#02618:16
#02718:16
#02814:14
#02810:41
#0291a:14
#03218:14
#03312:14
#03612:16
#03712:16
#03818:16
#03918:16
#04018:0016
#04012:26
#04010:41
#04112:16
#04118:0016
#04418:0016
#04412:16
#04512:16
#04518:0016
#04612:1616
#04712:16
#04812:0016
#04818:26
#04918:16
#04912:0016
#05212:0016
#05218:16
#05318:16
#05312:0016
#05418:1616
#05518:16
#0601a:14
#06114:14
#06412:14
#06518:14
#0681a:14
#0681f:11
#06914:14
#07212:14
#07318:14
#07612:14
#0761a:14
#08012:0016
#08018:26
#0801f:21
#08118:16
#08112:0016
#08110:41
#08412:0016
#08418:16
#08518:16
#08512:0016
#08618:1616
#08718:16
#08818:0016
#08812:26
#08912:16
#08918:0016
#09218:0016
#09212:16
#09312:16
#09318:0016
#09412:1616
#09512:16
#10012:14
#10118:14
#10214:14
#1031a:14
#00212:26
#00712:26
#00718:0026
#02412:26
#07814:24
#07818:0024
#09618:26
#10412:24
#07914:24
#05810:41
#002320:16000036
#003320:0026
#014340:14
#015340:24
#022380:14
#023380:24
#030320:14
#031320:24
#0343a0:14
#0353a0:24
#042320:16
#043320:26
#050380:16
#051380:26
#056320:16
#057340:36
#058320:26
#062380:14
#063380:24
#066340:14
#067340:24
#070380:14
#071380:24
#074340:14
#075340:24
#082380:16
#083380:26
#090320:16
#091320:26
#096380:16
#096360:0000000000003636
#099380:26
#1059c0:000000000000000000000000000000000000000000000000000000000000000000000000000000000000000000000000000000000000000000000000000000000000000000000000000000000000000000000000000000000000000000000000000000000000000000000000000000000000000000000000000000000000000000000000000000000000000000000000000000000000000000000000000000000000000000000000000000000000000000000000000000000000000000000000000000000000000000000000000000000000000000000000000000000000000000000000000000000000000000000000000000000000000000000000000000000000000000000000000000000000000000000000000000000000000000000000000000000000000000000000000000000000000000000000000000000000000000000000000000000000000000000000000000000000000000000000000000000000000000000000000000000000000000000000000000000000000000000000000000000000000000000000000000000000000000000000000000000000000000000000000000000000000000000000000000000000000000000000000000000000000000000000000000000000000000000000000000000000000000000000000000000000000000000000000000000000000000000000000000000000000000000000000000000000000000000000000000000000000000000000000000000000000000000000000000000000000000000000000000000000000000000000000000000000000000000000000000000000000000000000000000000000000000000000000000000000000000000000000000000000000000000000000000000000000000000000000000000000000000000000000000000000000000000000000000000000000000000000000000000000000000000000000000000000000000000000000000000000000000000000000000000000000000000000000000000000000000000000000000000000000000000000000000000000000000000000000000000000000000000000000000000000000000000000000000000000000000000000000000000000000000000000000000000000000000000000000000000000000000000000000000000000000000000000000000000000000000000000000000000000000000000000000000000000000000000000000000000000000000000000000000000000000000000000000000000000000000000000000000000000000000000000000000000000000000000000000000000000000000000000122200000000000000000000000000000000000000000000000000000000000000000000000000000000000000000000000000000000000000000000000000000000000000000000000000000000000000000000000000000000000000000000000000000000000000000000000000000000000000000000000000000000000000000000000000000000000000000000000000000000000000000000000000000000000000000000000000000000000000000000000000000000000000000000000000000000000000000000000000000000000000000000000000000000000000000000000000000000000000000000000000000000000000000000000000000000000000000000000000000000000000000000000000000000000000000000000000000000000000000000000000000000000000000000000000000000000000000000000000000000000000000000000000000000000000000000000000000000000000000000000000000000000000000000000000000000000000000000000000000000000000000000000000000000000000000000000000000000000000000000000000000000000000000000000000000000000000000000000000000000000000000000000000000000000000000000000000000000000000000000000000000000000000000000000000000000000000000000000000000000000000000000000000000000000000000000000000000000000000000000000000000000000000000000000000000000000000000000000000000000000000000000000000000000000000000000000000000000000000000000000000000000000000000000000000000000000000000000000000000000000000000000000000000000000000000000000000000000000000000000000000000000000000000000000000000000000000000000000000000000000000000000000000000000000000000000000000000000000000000000000000000000000000000000000000000000000000000000000000000000000000000000000000000000000000000000000000000000000000000000000000000000000000000000000000000000000000000000000000000000000000000000000000000000000000000000000000000000000000000000000000000000000000000000000000000000000000000000000000000000000000000000000000000000000000000000000000000000000000000000000000000000000000000000000000000000000000000000000000000000000000000000000000000000000000000000000000000000000000000000
