This file was generated by Ched 2.7.0.0.
#TITLE ""
#ARTIST ""
#DESIGNER ""
#DIFFICULTY 0
#PLAYLEVEL
#SONGID ""
#WAVE ""
#WAVEOFFSET 0
#JACKET ""
#REQUEST "ticks_per_beat 480"
#00002: 4
#BPM01: 198
#00008: 01
#TIL00: ""
#VOLUME: ""
#HISPEED 00
#MEASUREHS 00
#0601b:00000013
#06018:0000000000000013
#06015:00000013
#00412:0013000000000013
#00418:0000131300001300
#00415:00000000001300000000000000000000
#0041b:23
#00410:41
#00612:1300000000130000
#00618:00000013
#00615:0000130000000013
#01015:13000013
#01018:0000000000000013
#01415:1300000000001313
#03312:00130013
#03319:0013
#03314:0013
#04018:0000131300001300
#04012:0013
#04015:0000000000130013
#0401a:24
#04010:41
#04115:0013000000001300
#0411b:0000000013000013
#04118:0000000000130000
#04112:0000001300000000
#04315:0000001300001300
#04318:0000130000000013
#04312:0013
#0431b:13
#05118:0013001300001300
#05115:0000130000130013
#05112:1313
#0511b:0013
#06115:00000013
#0611b:00000013
#06312:0013
#06315:0000000000130000
#0631a:00140000
#0631b:0013
#0641b:00001313
#06415:00130000
#06418:0000001300000000
#06412:13
#0681b:1313
#06818:0013001300001300
#06815:0000130000000013
#06812:0013
#0681f:11
#06915:00000013
#06918:0000000000000013
#0691b:13
#06912:0013
#07118:0000000000130000
#0711a:00140000
#07115:0013
#07112:00000013
#07312:13001313
#07318:00130000
#07315:0000001300000000
#0731b:13
#00018:12121200
#00016:0012001200000000
#00014:00000012
#0001a:0000000000000012
#0031b:0013
#00318:0000000000130000
#00319:2525000000000000
#00312:00250000
#00518:1313000000130013
#00515:00130000000000000000000013000000
#0051b:0013
#00712:1414000000000000
#00718:0000000014140000
#0071a:2424000000000000
#00714:0000000024240000
#00818:00130000
#00815:00000013
#0081b:13
#00912:00000013
#00915:0013
#0091b:00000013
#01218:0000130000000013
#01215:00000013
#01212:0013
#0121b:13
#0131b:00000013
#01312:00001313
#01512:00130000
#01518:0000001300000000
#01515:0013
#0151a:0000000000240024
#01618:00130000
#01615:00000013
#01610:41
#01715:0013
#01712:00000013
#0171b:00000013
#0181b:00130000
#01815:00000013
#01818:13
#01812:0013
#01918:13
#02016:00130000
#02017:00000013
#02012:1300000000000013
#0201b:0013
#02112:00130013
#02115:0000001300000000
#02218:13
#0221b:00130000
#02215:0013
#02212:00000013
#02318:13
#0241b:0013000000000013
#02412:13
#02415:0000131300001300
#02418:00000000001300000000000000000000
#02618:0000130000000013
#02612:0000000000130000
#02615:00000013
#0261b:13
#02515:1313000000130013
#02518:00130000000000000000000013000000
#02512:0013
#02718:0000131300000000
#02715:00000000001300000000000000000000
#0271b:13
#02712:0013000000000000
#03012:00000014
#0321b:00130013
#03218:0013
#03212:00000013
#03215:0000000000000013
#03612:1353535353000000
#03613:0000000000001353
#03618:2424
#03616:00240000
#0361a:00000024
#03712:0000000013535353
#0371a:00000024
#03718:2424
#03716:00240000
#03713:5353530000000000
#0381b:1353535353000000
#0381a:0000000000001353
#03812:63240000
#03814:0024
#03816:00000024
#0391b:0000000013130000
#03915:00000000000000000013000000000000
#03912:2424240000001313
#03918:00000000000000000000000000130000
#0391a:5353530000000000
#04415:0000000000000013
#0441b:13130000
#04418:00000013
#04718:00000000000000000013000000000000
#04712:0000000023130000
#04715:00000000000000000000000000130000
#0471b:0000130000002313
#05518:0000001300000000
#05515:00001323
#0551b:00130000
#05812:0013000000000013
#05818:0000131300001300
#05815:00000000001300000000000000000000
#0581a:14
#05810:41
#05918:13001300000000000000001300001300
#05915:00130000000000000000000013000013
#0591b:0013
#05912:0000000000130000
#06212:1400001400000000
#0621a:0014
#06518:00000013
#06512:00000013
#06515:13
#0651b:0013
#06715:0013
#0671b:0013
#06718:0000000000130000
#06712:00140000
#07216:00000013
#0721b:00000013
#07515:0000000013130000
#07518:00000000000000000013000000000000
#0751b:0000000000001313
#07512:00000000140000000000000000130000
#07714:0012
#0761a:0012
#08018:0000131300130013
#08015:0013
#0801b:00000013
#08012:00000013
#0801a:24
#0801f:21
#08112:0000000013000013
#08118:0000000000130000
#08115:00000013
#0811b:13
#08110:41
#0841b:0000000000001313
#08412:13130000
#0851b:00130000
#08512:0000000000130000
#08515:00000013
#08518:0000000000000013
#08612:13130000
#0861b:00000013
#08712:0000130000000013
#08718:00000000000000001300000000130000
#08715:00000000000000000013000013000000
#0871b:0000000000130000
#09212:00000013
#0921b:13130000
#09312:00000013
#09315:0000000000000013
#0931b:00130000
#09412:0000130013000013
#0941b:0013
#09418:0000000000130000
#09415:00000013
#0831b:0000000013000013
#08315:00130000
#08312:13
#08318:0000001300001300
#1001b:1300001300000013
#10012:0013000000000000
#10018:00130013
#10015:00000000001300000000000000000000
#10212:1300132300000000
#1021b:2300000000130000
#10218:00000013
#10215:0000000000000013
#10118:00130000000000000000130000001300
#10115:13000013
#10112:0013000013000000
#03516:1463
#03512:23000013
#0351b:0023
#03513:0063000000000000
#03514:00630000
#03515:0000006300000000
#03412:00000014
#0341a:00140000
#03415:0013
#0541b:0000000000000013
#05412:13130000
#05415:00001313
#05418:0000000000130000
#02812:00130000
#0281b:00000013
#02810:41
#04518:0000000000000013
#04512:1300130000130000
#04515:00000013
#0461b:13130000
#04618:00000013
#04815:0000131300001300
#0481b:0013
#04818:0000000000130013
#04812:24
#0491b:13
#04912:1300001300000000
#04915:0013000000000000
#04918:00130000
#05218:0000000000000013
#05212:13130000
#05215:00000013
#0531b:13130000
#05318:00000013
#05315:0000000000000013
#05616:24141414
#0571a:00141414
#05712:24
#0661a:1400001400000000
#06612:0014
#07012:1400001400000000
#0701a:0014
#0741a:1400001400000000
#07412:0014
#07816:00140014
#07812:2414
#0781a:0024
#0421b:00000013
#08212:00000013
#08815:0000131300130013
#08818:0013
#08812:24000013
#08915:0013000000000000
#08918:1300001300000000
#0891b:00130000
#08912:00130000
#09115:0013001300001300
#09118:0000130000130013
#0911b:1313
#09112:0013
#01115:13
#00114:12120000
#0011a:0012000000000000
#00118:00001212
#00116:0000000000120012
#0991b:00130000
#09916:0000130000140000
#0991a:0014
#09912:00000014
#0961a:24
#09612:0000000000002424
#00218:2525000025000000
#00213:0000252500000000
#00212:0000000000002525
#07914:24
#07918:24
#09512:00240024
#0951a:0024
#09516:00240000
#1031b:2300002300000000
#10312:0023000000000000
#10318:00232300
#10315:00000000002300002300000000000000
#10413:22000022
#1041b:0022000022000022
#10416:0000222200000000
#10418:00000000002200000000000000000000
#10516:2222000000000000
#10518:00220000000000000000000000000000
#1051b:00227200
#0335b:00130000
#03352:00130000
#0605b:0013
#06055:0013
#06852:0013
#0685b:0013
#07352:00001313
#07357:00000013
#07952:0014
#0795a:0014
#02355:00000013
#02358:00000013
#00258:0015
#00352:00150000
#06555:0013
#0655b:0013
#06958:0013
#06952:0013
#07252:0013
#07257:0013
#07256:00000013
#0725b:00000013
#03658:1414
#03656:00140000
#0365a:00000014
#03758:1414
#03756:00140000
#0375a:00000014
#03852:13140000
#03854:0014
#03856:00000014
#10352:00000014
#1035a:00000014
#03452:00140014
#0345a:00140014
#0155a:0000000000440044
#07852:14
#0785a:0014
#02856:33
#05458:00130000
#06152:0013
#06158:0013
#09656:34
#01958:0013
#01952:0013
#09556:00443444
#0115b:0013
#01155:0013
#08852:14
#0405a:14
#04852:14
#0645b:0013
#003350:00000013
#003320:00000000000000000000000000530000
#004320:23
#004320:0013
#004350:00000000000000000053000023000000
#005320:00130000
#005350:00000000005300002300000000000000
#0063b0:13230000
#006380:0000001300230000
#008320:1323
#0083b1:0013
#0093b1:23
#009320:13230000
#0093b1:00132300
#010381:13230000
#010320:00132300
#0103b1:00001323
#0113b1:13000000005300002300000000000000
#011381:00530000330000000000000000000000
#011320:00130000
#011350:00000000005300002300000000000000
#012320:13230000
#0123b0:00001323
#013350:13230000
#013381:00132300
#014381:13230000
#014320:00132300
#0143b1:00001323
#015381:13
#0153b1:00530000230000000000000000000000
#016361:13
#016321:00530000000000002300000000000000
#016370:0013
#0163b0:00000000000000000053000000000000
#0173b0:23
#017321:13
#017351:00530000230000000000000000000000
#0173b0:00130000
#017380:00000000005300002300000000000000
#018350:13
#018320:00530000230000000000000000000000
#018380:0013
#0183b0:00000000000000000053000023000000
#019320:13000000005300002300000000000000
#019350:00530000330000000000000000000000
#0193b1:00130000
#019381:00000000005300002300000000000000
#020371:13
#0203b1:00530000230000000000000000000000
#020361:0013
#020321:00000000000000000053000023000000
#0213b1:13230000
#021381:00001323
#022351:13
#022321:00530000230000000000000000000000
#022381:0013
#0223b1:00000000000000000053000023000000
#023351:13
#023321:00530000230000000000000000000000
#023380:00000000130000000053000023000000
#0233b0:00000000005300003300000000000000
#023321:0013
#023351:00000000000000000053000023000000
#0243b1:0013
#024381:00000000000000000053000023000000
#0253b1:00130000
#025381:00000000005300002300000000000000
#026321:13
#026351:00530000230000000000000000000000
#026381:0000001300000000
#0263b1:00000000000000530000230000000000
#027321:0013
#027361:00000000000000000053000000000000
#028361:23
#0283a0:14000000005400002400000000000000
#028360:00540000340000000000000000000000
#028321:00000000000000001400000000540000
#028361:00000000000000000054000034000000
#029321:24
#0293b0:13
#029380:00530000230000000000000000000000
#029351:00130000
#029321:00000000005300002300000000000000
#029360:0014
#0293a0:00000000000000000054000024000000
#029361:00000014
#029321:00000000000000000000000000540000
#030321:24
#0303a0:14
#030360:00540000340000003400000024000000
#030320:0000000000000014
#030360:00000000000000000000000000000054
#031360:34343424
#0313b1:00000013
#031381:00000000000000000000000000530000
#032381:23
#032350:13000000005300002300000000000000
#032320:00530000330000000000000000000000
#033380:13
#0333b0:00530000230000000000000000000000
#0333b0:00000013
#033380:00000000000000000000000000530000
#034380:23
#034351:13
#034321:00540000240000000000000000000000
#034381:0013
#0343a1:00000000000000000054000024000000
#0353b1:0013
#035371:00000000000000000053000023000000
#040351:13
#040321:00530000230000000000000000000000
#0413b1:1323000000000000
#041381:0000132300000000
#041321:0000000000000013
#041361:00000000000000000000000000000054
#042361:00000024
#043321:13
#043351:00530000230000000000000000000000
#0433b1:0013
#043381:00000000000000000053000023000000
#044321:13
#044351:00530000230000000000000000000000
#044351:0000001300000000
#044321:00000000000000530000000023000000
#0453b1:13
#045381:00530000230000000000000000000000
#045381:0000001300000000
#0453b1:00000000000000530000230000000000
#046321:13
#046351:00530000230000000000000000000000
#046351:0000001300000000
#046321:00000000000000530000000023000000
#046321:0000000000000013
#046351:00000000000000000000000000000053
#047351:00230000
#048381:13
#0483b1:00530000230000000000000000000000
#0493b1:0000001300000000
#049381:00000000000000530000000023000000
#049350:00000013
#049320:00000000000000000000000000530000
#050320:23
#0503b1:13
#050361:00540000000000000000000000000000
#051361:24
#0523b1:13
#052381:00530000230000000000000000000000
#052381:0000001300000000
#0523b1:00000000000000530000000023000000
#053321:13
#053351:00530000230000000000000000000000
#053351:0000001300000000
#053321:00000000000000530000000023000000
#0543b1:13
#054381:00530000230000000000000000000000
#055351:13
#055321:00530000230000000000000000000000
#055381:0013
#0553b1:00000000000000000053000023000000
#055350:00000013
#055320:00000000000000000000000000540000
#056320:24
#056361:14
#0563a1:00540000340000003400000034000000
#0573a1:24
#057320:14
#057360:00540000340000003400000034000000
#058360:24
#058320:0013
#058350:00000000000000000053000023000000
#059320:00130000
#059350:00000000005300002300000000000000
#0603b0:13000000005300002300000000000000
#060380:00530000330000000000000000000000
#060321:00130000
#060351:00000000005300002300000000000000
#061321:13000000005300002300000000000000
#061351:00530000330000000000000000000000
#0613b0:00130000
#061380:00000000005300002300000000000000
#0623a0:14
#062360:00540000000024000000000000000000
#062360:0014
#062320:00000000000000000054000000000000
#063320:00240000
#063380:00000013
#0633b0:00000000000000000000000000530000
#0643b0:23
#064320:0013
#064350:00000000000000000053000023000000
#0653b0:13
#065380:00530000230000000000000000000000
#065321:00130000
#065351:00000000005300002300000000000000
#066321:14
#066361:00540000000024000000000000000000
#066361:0014
#0663a1:00000000000000000054000000000000
#0673a1:00240000
#067351:00000013
#067321:00000000000000000000000000530000
#068321:23
#069321:13
#069351:00530000230000000000000000000000
#0693b0:00130000
#069380:00000000005300002300000000000000
#0703a0:14
#070360:00540000000024000000000000000000
#070320:0014
#070360:00000000000000000054000000000000
#071360:00240000
#0713b0:00000013
#071370:00000000000000000000000000530000
#072370:23
#072321:13000000005300002300000000000000
#072361:00530000330000000000000000000000
#0723b0:00130000
#072370:00000000005300002300000000000000
#0733b0:0013
#073370:00000000000000000053000023000000
#074320:14
#074360:00540000000024000000000000000000
#0743a0:0014
#074360:00000000000000000054000000000000
#075360:00240000
#076360:12
#077360:22
#077381:12
#078381:22
#079341:14
#079321:00540034000034002400000000000000
#079380:14
#0793a0:00540034000034002400000000000000
#080360:13
#080320:00530000230000000000000000000000
#081350:13
#081320:00533300230000000000000000000000
#081381:00130000
#0813b1:00000000005333002300000000000000
#081381:0000000000000013
#0813a1:00000000000000000000000000000054
#0823a1:00000024
#083381:13
#0833b1:00530000230000000000000000000000
#083351:0013
#083321:00000000000000000053000023000000
#0843b1:13
#084371:00530000230000000000000000000000
#084321:0000001300000000
#084361:00000000000000530000000023000000
#085361:13
#085321:00530000230000000000000000000000
#0853b1:0000001300000000
#085371:00000000000000530000230000000000
#0863b1:13
#086371:00530000230000000000000000000000
#086321:0000001300000000
#086361:00000000000000530000000023000000
#0863b1:0000000000000013
#086371:00000000000000000000000000000053
#087371:00230000
#088371:13
#0883b1:00530000230000000000000000000000
#089351:0013
#089321:00000000000000000053000023000000
#089380:00000013
#0893b0:00000000000000000000000000530000
#0903b0:23
#090361:13
#090321:00540000000000000000000000000000
#091321:24
#092361:13
#092321:00530000230000000000000000000000
#0923b1:0000001300000000
#092371:00000000000000530000000023000000
#092321:0000000000000013
#092361:00000000000000000000000000000053
#093361:00230000
#0933b1:0000001300000000
#093371:00000000000000530000000023000000
#094381:13
#0943b1:00530000230000000000000000000000
#0943b1:0000000000000013
#094361:00000000000000000000000000000054
#095361:00240000
#095320:00140000
#095360:00000000005400002400000000000000
#0953a1:0014
#095361:00000000000000000054000024000000
#095320:00000014
#095360:00000000000000000000000000540000
#096360:24
#0963a1:14000000000000000000000000000054
#096361:00540000000000000000000034003400
#0993a1:24
#096320:0000000000000014
#096360:00000000000000000000000000000054
#099360:24
#100320:0013
#100350:00000000000000000053000023000000
#1013b0:00130000
#101380:00000000005300002300000000000000
#1023b0:13
#102380:00530000230000000000000000000000
#102320:0000001300000000
#102350:00000000000000530000230000000000
#1033b0:1323000000000000
#103321:0013230000000000
#103351:0013
#103321:00000000000000000054000024000000
#103380:0013
#1033a0:00000000000000000054000024000000
#1053b0:00122200
#035920:13
#035960:0023
#036920:1323
#036930:00000013
#037930:00230000
#037920:0013
#038920:23
#0389b1:1323
#0389a1:00000013
#0399a1:00230000
