This file was generated by Ched 2.7.0.0.
#TITLE ""
#ARTIST ""
#DESIGNER ""
#DIFFICULTY 0
#PLAYLEVEL
#SONGID ""
#WAVE ""
#WAVEOFFSET 0
#JACKET ""
#REQUEST "ticks_per_beat 480"
#00002: 4
#BPM01: 198
#00008: 01
#TIL00: ""
#VOLUME: ""
#HISPEED 00
#MEASUREHS 00
#03212:13
#0321b:13
#03218:00130013
#03215:0000000013000013
#06018:00000013
#06015:0000000000000013
#00415:0013000000000000
#0041a:00130000
#00414:0000001300000000
#00419:0013
#00412:00000013
#00418:0000000000000013
#0041b:23
#00410:41
#00513:13
#00519:0013000000000000
#00514:00130000
#0051b:0013
#00515:0000000000130013
#00518:00000013
#01012:13
#01018:00130013
#01015:0000000013000013
#01415:00130013
#01418:0000000013000013
#0141b:13
#0181b:13
#01818:00130000
#01815:0013
#01812:13000013
#0241b:13
#02415:0013000000000000
#0241a:00130000
#02414:0000001300000000
#02419:0013
#02412:00000013
#02418:0000000000000013
#02513:13
#02519:0013000000000000
#02514:00130000
#0251b:0013
#02515:0000000000130013
#02518:00000013
#0261b:13000013
#02612:0000130000000013
#02618:0000001300000000
#02615:0000000000130000
#02718:13130000
#02715:0013000000000000
#02712:0000001300000000
#0271b:0013
#0281b:13
#02815:13
#02812:0013
#02818:0013
#02810:41
#03115:00000013
#03312:00000013
#03318:00000013
#03512:13
#03518:13
#03615:0013001300000000
#0361b:23131300
#03618:0000000000000013
#03612:00000023
#03712:13130000
#03718:0013000000000000
#03715:0000000000130013
#0371b:00002313
#03812:0013001300000000
#03818:23131300
#0381b:0000000000000013
#03815:00000023
#03915:13130000
#0391b:0013000023000000
#03919:0000000000630000
#03917:00000063
#04018:00130013
#04015:0000001300130000
#0401b:0013
#04012:2400000000000013
#04010:41
#0411b:1313
#04115:0013001300000000
#04118:00130013
#04112:0000000000130000
#04312:0013
#04318:00000013
#04315:0000000000000013
#0431b:0013
#0441b:13
#04415:00130000
#04512:13
#04518:0000130000130000
#04515:0000001300001300
#0451b:0000000000000013
#04612:13
#0461b:00130000
#04615:0000001300000000
#04618:00000013
#0491b:13
#04912:0013000000000000
#04918:00130000
#05118:00001313
#05115:0000001300130013
#04815:0000130000000013
#04818:0000001300001300
#04812:0013
#0481a:24
#05218:0000001300001300
#05215:0000000000000013
#05212:00130000
#0521b:13
#0531b:13
#05312:00130000
#05318:0000001300000013
#05315:00000013
#05418:0013
#05415:0000000000130000
#0541b:00000013
#05412:0000000000000013
#05912:14140013
#05917:0014000000000000
#0591b:00000013
#06115:00000013
#0641b:00000013
#0651b:00000013
#06715:00001313
#06718:0000000000130000
#0681b:1313
#06812:0013001300000000
#06818:0000130000000013
#06815:00000013
#0681f:11
#0691b:0013
#06915:00000013
#06918:0000000000000013
#07112:00001313
#07118:0000000000130000
#0731b:13
#07315:00130013
#07318:0000001300000000
#07312:0013
#08015:0000131300000000
#0801b:0013
#08012:0000000000130013
#08018:00000013
#0801a:24
#0801f:21
#0811b:1313
#08115:0013000000130000
#08118:00130013
#08112:0000001300000000
#08110:41
#0831b:0013
#08318:00000013
#08312:0000000000000013
#08315:0000000000130000
#08912:1313000000000000
#0891b:0000131300000000
#09115:00001313
#09118:0000000000130013
#08818:0000130000000013
#08815:0000001300001300
#0881b:0013
#08812:24
#09418:0013
#09415:0000000000130000
#0941b:00000013
#08418:0000000000000013
#0851b:0000001300000000
#08512:0000000000130000
#08518:00000013
#08515:0000000000000013
#09318:0000000000000013
#1001b:1313
#10015:0013000000000000
#10018:0000130000000013
#10012:0000001300001300
#10115:13
#1011b:0013000013000000
#10112:0000130000130013
#10118:00000013
#10218:00000013
#10215:0000000000000013
#1021b:23
#10212:0000002300000000
#00018:1353535353000000
#00015:0000000000001353
#00118:0000000013535353
#00115:5353530000000000
#05518:0000001300001300
#05515:0013
#0581a:14141400
#05815:0014001400000000
#05812:00000014
#05817:0000000000000014
#05810:41
#02212:13
#02215:00130000
#02218:0013
#0221b:13000013
#06318:00001313
#06315:0000000000130000
#0751b:00001313
#07515:0000000000130000
#0061b:13000013
#00612:0000130000000013
#00618:0000001300000000
#00615:0000000000130000
#09612:24
#00214:24242400
#00218:5324002400000000
#00219:00000025
#00212:0000000000000025
#00319:25250000
#00312:0025000026002600
#00318:0000000000260000
#00718:2626000000000000
#00712:0000000026260000
#0561a:24
#05615:24
#09512:00240000
#09516:0024
#0951a:00000024
#1031b:23002323
#10312:0000002300002300
#10315:0023000000000000
#10318:00230000
#10415:2363636363000000
#10418:0000000000002363
#05712:24
#07812:24
#07816:00240024
#0781a:0024
#07912:24
#0301b:0000000000000033
#03015:0000000000000033
#01610:41
#10518:6363630000000000
#02355:00000013
#0335b:00130000
#03552:13
#03558:13
#06055:0013
#06158:0013
#06155:00000013
#06452:0013
#0645b:00000013
#06555:0013
#0655b:00000013
#0685b:0013
#06952:00130000
#0695b:0013
#07252:00000013
#0725b:00130000
#09455:00130000
#09552:00140000
#09556:0014
#0955a:00000014
#1035b:00000013
#10352:00000013
#0195b:0013
#01552:0013
#01158:0013
#0275b:0013
#04052:14
#0445b:00000013
#0485a:14
#07952:14
#0805a:14
#08852:14
#05452:0000000000000013
#0083b0:13230000
#008320:00001323
#009380:1323
#0093b0:00330000
#0113b0:13
#011380:00332300
#012320:13230000
#0123b0:00001323
#013350:1323
#013320:00330000
#015350:13
#015320:0000333323000000
#016380:13
#0163b0:00230000
#016350:0013
#016320:00000023
#0173b0:1323
#017380:00330000
#019380:13
#0193b0:00332300
#020350:13
#020320:00230000
#020380:0013
#0203b0:00000023
#021320:1323
#021350:00330000
#023350:13000023
#023320:00333300
#029380:13
#0293b0:00230000
#029350:0013
#029320:00000023
#030380:13
#0303b0:0000000000003333
#031380:0023
#030351:0000000000001333
#031321:0023
#0333b1:13230000
#034321:13
#034351:00230000
#034380:13
#0343b0:00230000
#0343b0:0013
#034380:00000023
#034351:0013
#034321:00000023
#041351:0000000000000013
#042321:00000000000000530000000000000000
#043351:23
#044381:0000001300000000
#0443b1:00000023
#046351:0000000000000013
#047321:0023
#049351:0000001300000000
#049321:00000023
#0503b1:13
#050381:0053
#0513b1:23
#054351:13
#054321:00230000
#0563a1:14
#057371:24
#057320:14
#058350:24
#060320:13
#060350:00332300
#0613b0:13
#061380:00332300
#0623b0:13
#062380:0000002300000000
#062350:0013
#062320:0000000000000053
#063350:00230000
#064350:13
#064320:0000333323000000
#065320:13
#065350:00332300
#066320:13
#066350:0000002300000000
#066380:0013
#0663b0:0000000000000053
#067380:00230000
#069320:13230000
#070320:13
#070350:0000002300000000
#070380:0013
#0703b0:0000000000000053
#071380:00230000
#072380:13
#0723b0:00230000
#072350:0013
#072320:00000023
#0743b0:13
#074380:0000002300000000
#074350:0013
#074320:0000000000000053
#075350:00230000
#076360:12
#076340:0032
#077360:22
#077381:12
#0773a1:0032
#078381:22
#081351:0000000000000013
#082321:00000000000000530000000000000000
#083351:23
#0843b1:13
#084381:00230000
#084351:0000001300000000
#084321:00000023
#085321:13
#085351:00230000
#086381:13
#0863b1:00230000
#086351:0000001300000000
#086321:00000023
#086381:0000000000000013
#0873b1:0023
#089351:0013
#089321:00000023
#090381:13
#0903b1:0053
#091381:23
#092321:13
#092351:00230000
#092381:0000001300000000
#0923b1:00000023
#0923b1:0000000000000013
#093381:00230000
#093351:0000001300000000
#093321:00000023
#094351:13230000
#094351:0000000000000013
#095321:00240000
#096321:14
#096361:0000000000003434
#099341:28
#1023b1:13
#102381:00230000
#102321:0000001300000000
#102351:0000000000230000
#000980:130000000000000000000000000000000000000000000000000000000000000000000000000000000000000000000000000000000000000000000000000000000000000000000000000000000000000000000000000000000000000000000000000000000000000000000000000000000000000000000000000000000000000000000000000000000000000000000000000000000000000000000000000000000000000000000000000000000000000000000000000000000000000000000000000000000000000000000000000000000000000000000000000000000000000000000000000000000000000000000000000000000000000000000000000000000000000000000000000000000000000000000000000000000000000000000000000000000000000000000000000000000000000000000000000000000000000000000000000000000000000000000000000000000000000000000000000000000000000000000000000000000000000000000000000000000000000000000000000000000000000000000000000000000000000000000000000000000000000000000000000000000000000000000000000000000000000000000000000000000000000000000000000000000000000000000000000000000000000000000000000000000000000000000000000000000000000000000000000000000000000000000000000000000000000000000000000000000000000000000000000000000000000000000000000000000000000000000000000000000000000000000000000000000000000000000000000000000000000000000000000000000000000000000000000000000000000000000000000000000000000000000000000000000000000000000000000000000000000000000000000000000000000000000000000000000000000000000000000000000000000000000000000000000000000000000000000000000000000000000000000000000000000000000000000000000000000000000000000000000000000000000000000000000000000000000000000000000000000000000000000000000000000000000000000000000000000000000000000000000000000000000000000000000000000000000000000000000000000000000000000000000000000000000000000000000000000000000000000000000000000000000000000000000000000000000000000000000000000000000000000000000000000000000000000000000000000000000000000000000000000000000000000000000000000000000000000000000000000000005353230000000000000000000000000000000000000000000000000000000000000000000000000000000000000000000000000000000000000000000000000000000000000000000000000000000000000000000000000000000000000000000000000000000000000000000000000000000000000000000000000000000000000000000000000000000000000000000000000000000000000000000000000000000000000000000000000000000000000000000000000000000000000000000000000000000000000000000000000000000000000000000000000000000000000000000000000000000000000000000000000000000000000000000000000000000000000000000000000000000000000000000000000000000000000000000000000000000000000000000000000000000000000000000000000000000000000000000000000000000000000000000000000000000000000000000000000000000000000000000000000000000000000000000000000000000000000000000000000000000000000000000000000000000000000000000000000000000000000000000000000000000000000000000000000000000000000000000000000000000000000000000000000000000000000000000000000000000000000000000000000000000000000000000000000000000000000000000000000000000000000000000000000000000000000000000000000000000000000000000000000000000000000000000000000000000000000000000000000000000000000000000000000000000000000000000000000000000000000000000000000000000000000000000000000000000000000000000000000000000000000000000000000000000000000000000000000000000000000000000000000000000000000000000000000000000000000000000000000000000000000000000000000000000000000000000000000000000000000000000000000000000000000000000000000000000000000000000000000000000000000000000000000000000000000000000000000000000000000000000000000000000000000000000000000000000000000000000000000000000000000000000000000000000000000000000000000000000000000000000000000000000000000000000000000000000000000000000000000000000000000000000000000000000000000000000000000000000000000000000000000000000000000000000000000000000000000000000000000000000000000000000000000000000000000000000000000000000000000000000000
#000950:00000013
#001950:000000000000000000000000000000000000000000000000000000000000000000000000000000000000000000000000000000000000000000000000000000000000000000000000000000000000000000000000000000000000000000000000000000000000000000000000000000000000000000000000000000000000000000000000000000000000000000000000000000000000000000000000000000000000000000000000000000000000000000000000000000000000000000000000000000000000000000000000000000000000000000000000000000000000000000000000000000000000000000000000000000000000000000000000000000000000000000000000000000000000000000000000000000000000000000000000000000000000000000000000000000000000000000000000000000000000000000000000000000000000000000000000000000000000000000000000000000000000000000000000000000000000000000000000000000000000000000000000000000000000000000000000000000000000000000000000000000000000000000000000000000000000000000000000000000000000000000000000000000000000000000000000000000000000000000000000000000000000000000005353230000000000000000000000000000000000000000000000000000000000000000000000000000000000000000000000000000000000000000000000000000000000000000000000000000000000000000000000000000000000000000000000000000000000000000000000000000000000000000000000000000000000000000000000000000000000000000000000000000000000000000000000000000000000000000000000000000000000000000000000000000000000000000000000000000000000000000000000000000000000000000000000000000000000000000000000000000000000000000000000000000000000000000000000000000000000000000000000000000000000000000000000000000000000000000000000000000000000000000000000000000000000000000000000000000000000000000000000000000000000000000000000000000000000000000000000000000000000000000000000000000000000000000000000000000000000000000000000000000000000000000000000000000000000000000000000000000000000000000000000000000000000000000000000000000000000000000000000000000000000000000000000000000000000000000000000000000000000000000000000000000000000000000000000000000000000000000000000000000000000000000000000000000000000000000000000000000000000000000000000000000000000000000000000000000000000000000000000000000000000000000000000000000000000000000000000000000000000000000000000000000000000000000000000000000000000000000000000000000000000000000000000000000000000000000000000000000000000000000000000000000000000000000000000000000000000000000000000000000000000000000000000000000000000000000000000000000000000000000000000000000000000000000000000000000000000000000000000000000000000000000000000000000000000000000000000000000000000000000000000000000000000000000000000000000000000000000000000000000000000000000000000000000000000000000000000000000000000000000000000000000000000000000000000000000000000000000000000000000000000000000000000000000000000000000000000000000000000000000000000000000000000000000000000000000000000000000000000000000000000000000000000000000000000000000000000000000000000000000000000000000000000000000000000000000000000000000000000000000000000000000000000000000000000000000000000000000000000000000000000000000000000000000000000000000000000000000000000000000000000000000000000000000000000000000000000000000000000000000000000000000000000000000000000000000000000000000000000000000000000000000000000000000000000000000000000000000000000000000000000000000000000000000000000000000000000000000000000000000000000000000000000000000000000000000000000000000000000000000000000000000000000000000000000000000000000000000000000000000000000000000000000000000000000000000000000000000000000000000000000000000000000000000000000000000000000000000000000000000000000000000000000000000000000000000000000000000000000000000000000000000000000000000000000000000000000000000000000000000000000000000000000000000000000000000000000000000000000000000000000000000000000000000000000000000000000000000000000000000000000000000000000000000000000000000000000000000000000000000000000
#001980:000000000000000000000000000000000000000000000000000000000000000000000000000000000000000000000000000000000000000000000000000000000000000000000000000000000000000000000000000000000000000000000000000000000000000000000000000000000000000000000000000000000000000000000000000000000000000000000000000000000000000000000000000000000000000000000000000000000000000000000000000000000000000000000000000000000000000000000000000000000000000000000000000000000000000000000000000000000000000000000000000000000000000000000000000000000000000000000000000000000000000000000000000000000000000000000000000000000000000000000000000000000000000000000000000000000000000000000000000000000000000000000000000000000000000000000000000000000000000000000000000000000000000000000000000000000000000000000000000000000000000000000000000000000000000000000000000000000000000000000000000000000000000000000000000000000000000000000000000000000000000000000000000000000000000000000000000000000000000000000000000000000000000000000000000000000000000000000000000000000000000000000000000000000000000000000000000000000000000000000000000000000000000000000000000000000000000000000000000000000000000000000000000000000000000000000000000000000000000000000000000000000000000000000000000000000000000000000000000000000000000000000000000000000000000000000000000000000000000000000000000000000000000000000000000000000000000000000000000000000000000000000000000000000000000000000000000000000000000000000000000000000000000000000000000000000000000000000000000000000000000000000000000000000000000000000000000000000000000000000000000000000000000000000000000000000000000000000000000000000000000000000000000000000000000000000000000000000000000000000000000000000000000000000000000000000000000000000000000000000000000000000000000000000000000000000000000000000000000000000000000000000000000000000000000000000000000000000000000000000000000000000000000000000000000000000000000000000000000000000000130000000000000000000000000000000000000000000000000000000000000000000000000000000000000000000000000000000000000000000000000000000000000000000000000000000000000000000000000000000000000000000000000000000000000000000000000000000000000000000000000000000000000000000000000000000000000000000000000000000000000000000000000000000000000000000000000000000000000000000000000000000000000000000000000000000000000000000000000000000000000000000000000000000000000000000000000000000000000000000000000000000000000000000000000000000000000000000000000000000000000000000000000000000000000000000000000000000000000000000000000000000000000000000000000000000000000000000000000000000000000000000000000000000000000000000000000000000000000000000000000000000000000000000000000000000000000000000000000000000000000000000000000000000000000000000000000000000000000000000000000000000000000000000000000000000000000000000000000000000000000000000000000000000000000000000000000000000000000000000000000000000000000000000000000000000000000000000000000000000000000000000000000000000000000000000000000000000000000000000000000000000000000000000000000000000000000000000000000000000000000000000000000000000000000000000000000000000000000000000000000000000000000000000000000000000000000000000000000000000000000000000000000000000000000000000000000000000000000000000000000000000000000000000000000000000000000000000000000000000000000000000000000000000000000000000000000000000000000000000000000000000000000000000000000000000000000000000000000000000000000000000000000000000000000000000000000000000000000000000000000000000000000000000000000000000000000000000000000000000000000000000000000000000000000000000000000000000000000000000000000000000000000000000000000000000000000000000000000000000000000000000000000000000000000000000000000000000000000000000000000000000000000000000000000000000000000000000000000000000000000000000000000000000000000000000000000000000000000000005353
#002980:23
#0399b0:0013
#039970:00000023
#104950:130000000000000000000000000000000000000000000000000000000000000000000000000000000000000000000000000000000000000000000000000000000000000000000000000000000000000000000000000000000000000000000000000000000000000000000000000000000000000000000000000000000000000000000000000000000000000000000000000000000000000000000000000000000000000000000000000000000000000000000000000000000000000000000000000000000000000000000000000000000000000000000000000000000000000000000000000000000000000000000000000000000000000000000000000000000000000000000000000000000000000000000000000000000000000000000000000000000000000000000000000000000000000000000000000000000000000000000000000000000000000000000000000000000000000000000000000000000000000000000000000000000000000000000000000000000000000000000000000000000000000000000000000000000000000000000000000000000000000000000000000000000000000000000000000000000000000000000000000000000000000000000000000000000000000000000000000000000000000000000000000000000000000000000000000000000000000000000000000000000000000000000000000000000000000000000000000000000000000000000000000000000000000000000000000000000000000000000000000000000000000000000000000000000000000000000000000000000000000000000000000000000000000000000000000000000000000000000000000000000000000000000000000000000000000000000000000000000000000000000000000000000000000000000000000000000000000000000000000000000000000000000000000000000000000000000000000000000000000000000000000000000000000000000000000000000000000000000000000000000000000000000000000000000000000000000000000000000000000000000000000000000000000000000000000000000000000000000000000000000000000000000000000000000000000000000000000000000000000000000000000000000000000000000000000000000000000000000000000000000000000000000000000000000000000000000000000000000000000000000000000000000000000000000000000000000000000000000000000000000000000000000000000000000000000000000000000000000000000000005353230000000000000000000000000000000000000000000000000000000000000000000000000000000000000000000000000000000000000000000000000000000000000000000000000000000000000000000000000000000000000000000000000000000000000000000000000000000000000000000000000000000000000000000000000000000000000000000000000000000000000000000000000000000000000000000000000000000000000000000000000000000000000000000000000000000000000000000000000000000000000000000000000000000000000000000000000000000000000000000000000000000000000000000000000000000000000000000000000000000000000000000000000000000000000000000000000000000000000000000000000000000000000000000000000000000000000000000000000000000000000000000000000000000000000000000000000000000000000000000000000000000000000000000000000000000000000000000000000000000000000000000000000000000000000000000000000000000000000000000000000000000000000000000000000000000000000000000000000000000000000000000000000000000000000000000000000000000000000000000000000000000000000000000000000000000000000000000000000000000000000000000000000000000000000000000000000000000000000000000000000000000000000000000000000000000000000000000000000000000000000000000000000000000000000000000000000000000000000000000000000000000000000000000000000000000000000000000000000000000000000000000000000000000000000000000000000000000000000000000000000000000000000000000000000000000000000000000000000000000000000000000000000000000000000000000000000000000000000000000000000000000000000000000000000000000000000000000000000000000000000000000000000000000000000000000000000000000000000000000000000000000000000000000000000000000000000000000000000000000000000000000000000000000000000000000000000000000000000000000000000000000000000000000000000000000000000000000000000000000000000000000000000000000000000000000000000000000000000000000000000000000000000000000000000000000000000000000000000000000000000000000000000000000000000000000000000000000000000000000000
#104980:00000013
#105980:000000000000000000000000000000000000000000000000000000000000000000000000000000000000000000000000000000000000000000000000000000000000000000000000000000000000000000000000000000000000000000000000000000000000000000000000000000000000000000000000000000000000000000000000000000000000000000000000000000000000000000000000000000000000000000000000000000000000000000000000000000000000000000000000000000000000000000000000000000000000000000000000000000000000000000000000000000000000000000000000000000000000000000000000000000000000000000000000000000000000000000000000000000000000000000000000000000000000000000000000000000000000000000000000000000000000000000000000000000000000000000000000000000000000000000000000000000000000000000000000000000000000000000000000000000000000000000000000000000000000000000000000000000000000000000000000000000000000000000000000000000000000000000000000000000000000000000000000000000000000000000000000000000000000000000000000000000000000000000005353230000000000000000000000000000000000000000000000000000000000000000000000000000000000000000000000000000000000000000000000000000000000000000000000000000000000000000000000000000000000000000000000000000000000000000000000000000000000000000000000000000000000000000000000000000000000000000000000000000000000000000000000000000000000000000000000000000000000000000000000000000000000000000000000000000000000000000000000000000000000000000000000000000000000000000000000000000000000000000000000000000000000000000000000000000000000000000000000000000000000000000000000000000000000000000000000000000000000000000000000000000000000000000000000000000000000000000000000000000000000000000000000000000000000000000000000000000000000000000000000000000000000000000000000000000000000000000000000000000000000000000000000000000000000000000000000000000000000000000000000000000000000000000000000000000000000000000000000000000000000000000000000000000000000000000000000000000000000000000000000000000000000000000000000000000000000000000000000000000000000000000000000000000000000000000000000000000000000000000000000000000000000000000000000000000000000000000000000000000000000000000000000000000000000000000000000000000000000000000000000000000000000000000000000000000000000000000000000000000000000000000000000000000000000000000000000000000000000000000000000000000000000000000000000000000000000000000000000000000000000000000000000000000000000000000000000000000000000000000000000000000000000000000000000000000000000000000000000000000000000000000000000000000000000000000000000000000000000000000000000000000000000000000000000000000000000000000000000000000000000000000000000000000000000000000000000000000000000000000000000000000000000000000000000000000000000000000000000000000000000000000000000000000000000000000000000000000000000000000000000000000000000000000000000000000000000000000000000000000000000000000000000000000000000000000000000000000000000000000000000000000000000000000000000000000000000000000000000000000000000000000000000000000000000000000000000000000000000000000000000000000000000000000000000000000000000000000000000000000000000000000000000000000000000000000000000000000000000000000000000000000000000000000000000000000000000000000000000000000000000000000000000000000000000000000000000000000000000000000000000000000000000000000000000000000000000000000000000000000000000000000000000000000000000000000000000000000000000000000000000000000000000000000000000000000000000000000000000000000000000000000000000000000000000000000000000000000000000000000000000000000000000000000000000000000000000000000000000000000000000000000000000000000000000000000000000000000000000000000000000000000000000000000000000000000000000000000000000000000000000000000000000000000000000000000000000000000000000000000000000000000000000000000000000000000000000000000000000000000000000000000000000000000000000000000000000000000000000000000000000
