This file was generated by Ched 2.7.0.0.
#TITLE ""
#ARTIST ""
#DESIGNER ""
#DIFFICULTY 0
#PLAYLEVEL
#SONGID ""
#WAVE ""
#WAVEOFFSET 0
#JACKET ""
#REQUEST "ticks_per_beat 480"
#00002: 4
#BPM01: 198
#00008: 01
#TIL00: ""
#VOLUME: ""
#HISPEED 00
#MEASUREHS 00
#00412:14
#00418:0014
#00410:41
#00812:1414
#0121a:1414
#03212:1414
#03218:00140014
#06012:14
#06018:00140014
#06014:0014
#07612:14
#0761a:14
#10012:14
#10018:00140014
#10014:0014
#00512:14
#00518:0014
#00614:14
#0061a:0014
#01014:1414
#01018:00140014
#01418:1414
#01414:00140014
#01612:1414
#01610:41
#01812:14
#01818:00140014
#01814:0014
#0201a:1414
#0221a:14
#02214:00140014
#02218:0014
#02418:0014
#02412:24
#02514:14
#0251a:0014
#02612:14
#0261a:0014
#02714:1414
#02718:00140000
#02818:14
#02812:0014
#02810:41
#0291a:14
#02912:00140000
#02918:0014
#02914:00000014
#03314:14
#0331a:00140000
#03312:00000014
#03418:1414
#03414:00140014
#0351a:14
#04018:00140000
#04014:0014
#0401a:00000014
#04012:24
#04010:41
#04112:14
#04118:00140000
#04114:0014
#0411a:00000014
#04214:14
#04318:0014
#04314:00000014
#0461a:14
#04612:00140000
#04618:0014
#04614:00000014
#04814:00140000
#04818:0014
#04812:00000014
#0481a:24
#0491a:14
#04914:00140000
#04918:0014
#04912:00000014
#05018:14
#05114:0014
#05118:00000014
#05512:14
#0551a:0014
#05918:1414
#05914:00140000
#06112:14
#0611a:00140014
#06114:0014
#0641a:14
#06414:00140014
#06418:0014
#0651a:14
#06512:00140014
#06518:0014
#06814:14
#06818:00140000
#06812:0014
#0681a:00000014
#0681f:11
#06914:14
#06918:00140000
#06912:0014
#0691a:00000014
#0721a:14
#07214:00140000
#07218:0014
#07212:00000014
#0731a:14
#07314:00140000
#07318:0014
#07312:00000014
#08014:00140000
#08018:0014
#08012:00000014
#0801a:24
#0801f:21
#0811a:14
#08114:00140000
#08118:0014
#08112:00000014
#08110:41
#08218:14
#08312:0014
#08318:00000014
#08612:14
#08618:00140000
#08614:0014
#0861a:00000014
#0951a:14
#09514:00240000
#09518:0024
#09512:00000024
#10112:14
#1011a:00140014
#10114:0014
#10212:14
#10218:00140000
#10214:0014
#1021a:00000014
#04414:00000014
#04514:00000014
#0471a:14
#05412:14
#0541a:00140000
#05414:0014
#05418:00000014
#05218:00000014
#05318:00000014
#08418:00000014
#08518:00000014
#08712:14
#08818:00140000
#08814:0014
#0881a:00000014
#08812:24
#08912:14
#08918:00140000
#08914:0014
#0891a:00000014
#09014:14
#0911a:0014
#09114:00000014
#0941a:14
#09414:00140000
#09418:0014
#09412:00000014
#09214:00000014
#09314:00000014
#00712:26
#00718:0026
#09618:24
#10416:24
#00218:26
#00212:00000026
#00318:0026
#10312:24
#10318:00240000
#10314:0024
#1031a:00000024
#07812:2626
#07818:00260026
#07912:26
#0231a:00343400
#05810:41
#10516:00640000
#00752:16
#00758:0016
#04254:54
#05058:64
#05552:14
#0555a:0014
#08258:64
#00358:00000016
#0475a:14
#07952:16
#08752:14
#09054:54
#002380:1636363626000000
#002320:0000000000001636
#003320:3636260000000000
#003380:0000000016362600
#009380:14342400
#011320:14342400
#013340:14342400
#0153a0:1424
#017380:14342400
#019320:14342400
#021340:14342400
#023380:14
#0233a0:00343424
#030380:14
#0303a0:0000000000003434
#031380:00000024
#036320:14
#036330:00340000
#036340:0024
#0363a0:00000014
#037390:34
#037380:00240000
#037340:0014
#037330:00000034
#038320:34
#038330:00340000
#038340:0024
#038380:00000014
#039390:34
#0393a0:00240000
#042340:14
#043320:24
#0443a0:14
#044380:0024
#045380:14
#0453a0:0024
#050380:14
#0513a0:24
#052320:14
#052340:0024
#053340:14
#053320:0024
#056340:14
#056320:00000034
#057320:34
#058340:24
#062340:14
#062320:0034
#063340:0024
#066380:14
#0663a0:0034
#067380:0024
#070340:14
#070320:0034
#071340:0024
#074380:14
#0743a0:0034
#075380:0024
#082380:14
#0833a0:24
#084340:14
#084320:0024
#085320:14
#085340:0024
#090340:14
#091320:24
#092380:14
#0923a0:0024
#0933a0:14
#093380:0024
#096380:14
#0963a0:0000000000003434
#099360:28
#104360:14343434
#105360:34240000
