This file was generated by Ched 2.7.0.0.
#TITLE ""
#ARTIST ""
#DESIGNER ""
#DIFFICULTY 0
#PLAYLEVEL
#SONGID ""
#WAVE ""
#WAVEOFFSET 0
#JACKET ""
#REQUEST "ticks_per_beat 480"
#00002: 4
#BPM01: 260
#00008: 01
#TIL00: ""
#VOLUME: ""
#HISPEED 00
#MEASUREHS 00
#0041a:14
#00612:14
#00818:14
#00810:41
#00914:14
#01018:14
#01114:14
#0121a:14
#01312:14
#0141a:14
#01512:14
#01618:14
#01818:14
#02014:14
#02214:14
#0241a:14
#02410:41
#0261a:14
#02812:14
#03012:14
#04912:16
#04910:41
#05018:16
#05112:16
#05218:16
#05312:16
#05418:16
#05512:16
#06518:16
#06612:16
#06718:16
#06812:16
#06918:16
#07012:16
#07118:16
#0801a:14
#08010:41
#0811a:14
#08212:14
#08312:14
#08418:14
#08714:14
#08514:14
#08618:14
#09513:14
#10512:16
#10618:16
#10612:0016
#10718:16
#10418:0016
#10412:26
#10410:41
#10812:16
#10818:0016
#10912:16
#11018:16
#11012:0016
#11118:16
#12018:14
#12118:14
#12214:14
#12314:14
#1241a:14
#12712:14
#12512:14
#1261a:14
#13012:14
#1311a:14
#1341a:14
#13512:14
#0321f:11
#04818:26
#0481f:21
#06412:26
#0371a:34
#0361a:34
#0341a:34
#0331a:34
#04612:34
#04412:34
#12810:41
#000380:14
#001380:24
#002340:14
#003340:24
#0323a0:14
#0333a0:34
#0343a0:34
#035380:34
#0363a0:34
#0373a0:34
#0383a0:24
#039340:14
#040340:24
#041380:14
#042380:24
#043320:14
#044320:34
#045340:34
#046320:34
#047320:24
#056380:16
#057370:0036
#058370:36
#059380:0036
#060380:36
#061360:0036
#062360:36
#063380:26
#072320:16
#073330:0036
#074330:36
#075320:0036
#076320:36
#077340:0036
#078340:36
#079320:26
#088380:16
#094390:24
#096380:16
#097350:0037
#098350:37
#099360:0038
#100360:38
#101330:003a
#102330:3a
#103380:26
#112320:16
#113340:0037
#114340:37
#115320:0038
#116320:38
#117330:003a
#118330:3a
#119320:26
#128380:14
#129380:24
#132340:14
#133340:24
#136380:14000034
#1413a0:0024
