This file was generated by Ched 2.7.0.0.
#TITLE ""
#ARTIST ""
#DESIGNER ""
#DIFFICULTY 0
#PLAYLEVEL
#SONGID ""
#WAVE ""
#WAVEOFFSET 0
#JACKET ""
#REQUEST "ticks_per_beat 480"
#00002: 4
#BPM01: 260
#00008: 01
#TIL00: ""
#VOLUME: ""
#HISPEED 00
#MEASUREHS 00
#0321f:11
#03212:0013
#12617:00000012
#12615:0012
#12618:00120000
#1261b:12
#12612:14
#06812:0013
#06815:0015
#0681a:14
#06617:0013
#06612:0015
#06616:14
#06412:2613
#06415:0015
#0641a:14
#0711a:14
#07112:14
#0701a:14
#07016:0014
#07012:0014
#06912:14
#06916:0014
#0691a:0014
#06712:0014
#0671a:14
#06516:1414
#06312:0014
#06313:00140000
#0871c:0012
#08714:12
#08718:0000000000000000000000000000000000000000323232320000000000000000
#08719:0000000000000000000000000000000000000032000000000000000000000000
#0871a:00000000000000000032000000000000
#0871b:0000000000000000000000000000000000320000000000000000000000000000
#12716:0014
#12719:12
#12712:1400000000000000000000000000000000000000343333333300000000000000
#12713:0000000000000000000000000000000000000034000000000000000000000000
#12714:00000000000000000034000000000000
#12715:0000000000000000000000000000000000340000000000000000000000000000
#10812:2413
#10815:0015
#1081a:14
#1061b:0013
#10616:0015
#10612:14
#1061a:24
#10412:0013
#10415:0015
#1041a:14
#10416:24
#10410:41
#0521b:0013
#05216:0015
#05212:14
#05016:1413
#05019:0015
#0481b:0013
#04816:0015
#04812:14
#0481f:21
#04818:26
#03116:0000001300000000
#03116:0000001300000000
#03117:0013000000000000
#03117:0013000000000000
#03112:13
#03115:00000013
#03118:0000000000130000
#02318:0000001300001300
#02318:0000001300000000
#02315:0013000000130000
#02315:0013000000000000
#0231b:13
#03017:13
#03019:0000000000000013
#03014:00000013
#0301b:0000000000130000
#03016:0013
#02816:13
#02814:0000000000000013
#02819:00000013
#02812:0000000000130000
#02817:0013
#0261b:13
#02619:0000000000000013
#02614:00000013
#02617:0000000000130000
#02612:0013
#02412:13
#02412:13
#02414:0000000000000013
#02419:00000013
#02416:0000000000130000
#0241b:0013
#02410:41
#11912:1414
#11916:14000014
#1181a:2414
#11816:14000014
#14112:1c
#14117:0062
#12517:00000012
#12519:0012
#12516:00120000
#12513:12
#1251a:14
#12417:0012
#1241b:12
#12412:14
#12317:12000012
#12319:0012
#1231a:14
#12215:0012
#12213:12
#1221a:14
#12117:12000012
#12115:0012
#12112:14
#12019:0012
#1201b:12
#12012:14
#11712:00000014
#11716:0014000000000000
#11612:14000014
#11616:0000001400000000
#11515:0014
#11512:0014000000000000
#11415:24000014
#11412:0000001400000000
#11312:0014
#11314:0014000000000000
#11212:24000014
#11214:0000001400000000
#10216:14000014
#10212:24
#10312:0014
#10316:00140000
#11114:14
#11118:14
#1101a:0014
#11018:14
#11016:0014
#11014:24
#10912:0014
#10916:1414
#1091a:24
#1071a:00140000
#10716:14000014
#10712:2414
#10512:00140000
#10516:14000014
#1051a:2414
#1011a:00000014
#10116:0014000000000000
#1001a:14000014
#10016:0000001400000000
#09917:0014
#0991a:0014000000000000
#09817:24000014
#0981a:0000001400000000
#0971a:0014
#09718:0014000000000000
#0961a:24000014
#09618:0000001400000000
#09515:0000000000130013
#09518:26001313
#09512:26
#08617:00120012
#0861a:1212
#08612:0024
#08517:00120012
#08514:1212
#0851a:0024
#0841a:0012
#08414:12
#08416:0024
#08317:00000012
#0831a:0012
#08315:12
#08312:0024
#08217:0012
#0821a:12
#0821a:12
#08212:0024
#08117:00000012
#08114:0012
#08119:12
#0811a:0024
#08017:0012
#08014:12
#0801a:0024
#08010:41
#07712:0013000000001300
#07919:00140000
#07813:00000014
#0781a:24
#06219:00000014
#06218:16
#06212:26
#06118:0016000000001600
#05913:0000000000150000
#05918:0015000015000000
#05714:0000000000140000
#05718:0014000014000000
#05512:14
#0551a:14
#05412:14
#05416:0014
#0541a:0014
#0531a:14
#05316:0014
#05312:0014
#0511a:0014
#05112:14
#04916:1414
#04910:41
#06018:1600001600001600
#05618:1400001400001400
#05818:1500001500001500
#0751a:0000000000130000
#07513:0013000013000000
#07319:0000000000130000
#07314:0013000013000000
#07612:1300001300001300
#07413:1300001300001300
#07214:1300001300001300
#04716:13
#0471a:14
#04712:0022
#04616:0014
#04612:14
#04512:13
#0451b:0013
#04217:13
#04412:0013
#04417:0013
#0441b:13
#0431b:0013
#04316:0013
#04312:13
#04016:13
#04117:13
#04112:13
#0411b:0013
#04116:0013
#03916:13
#03912:0013
#03917:0013
#0391b:13
#03714:0013
#03719:0013
#03614:0013
#03519:0013
#03413:0013
#0331a:0013
#02912:0000000000000014
#02916:0013000000140000
#0291a:0000001400000000
#0291b:13
#0271a:0000000000000014
#02716:1300000000140000
#02712:0000001400000000
#0271b:0013000000000000
#02512:0013000000000014
#02516:0000000000140000
#0251a:0000001400000000
#02517:13
#02215:0000000000130013
#0221b:00001313
#0211a:0000000000000014
#02116:0000000000140000
#02112:1300001400000000
#02118:0013000000000000
#02018:0000000000130013
#02012:00001313
#01912:0013000000000014
#01916:0000000000140000
#0191a:0000001400000000
#01918:13
#01812:0000000000130013
#01818:00001313
#0171a:0000000000000014
#01716:0000000000140000
#01712:0000001400000000
#0171b:0013000000000000
#01715:13
#0161b:0000000000130013
#01615:00001313
#00712:16
#00618:0000000000000013
#00615:00000013
#0061b:0013
#0041b:13
#00218:00000014
#00214:0000000000140014
#0021a:0014001400000000
#00212:14140000
#00114:14
#00117:00626262
#00014:00000014
#00018:0000000000140014
#00012:0014001400000000
#0001a:14140000
#00318:14
#00317:00626262
#12817:23
#12816:0023
#1281b:0023
#12810:41
#13317:00000023
#13312:00230023
#13315:23
#1331b:23
#13612:00230023
#1361b:2300002300002300
#13615:23
#1351b:00000023
#13518:2323
#13515:00232300
#13512:23
#13418:00000023
#1341b:0023
#13412:00232300
#1321b:00230023
#13212:23000023
#13218:23
#13112:00000023
#13115:2323
#13118:00232300
#1311b:23
#13015:00000023
#13012:0023
#1301b:00232300
#12916:00000023
#1291b:00000023
#12917:2300002300000000
#12912:23230000
#0151b:0000002300000000
#01515:23230000
#0141b:00000023
#01415:23232300
#01112:0000002300000000
#01118:23230000
#00915:0000002300000000
#0091b:23230000
#01012:00000023
#01018:23232300
#01318:0000002300000000
#01312:00230000
#01315:23
#01218:00000023
#01212:23232300
#00815:00000023
#0081b:23232300
#00810:41
#07155:0013
#07158:0013
#0715a:64
#07152:54
#06856:14
#06855:0025
#0685a:64
#0665a:14
#06652:0025
#06656:64
#11152:0013
#1115b:0013
#11154:64
#11158:54
#05558:0013
#05555:0013
#05552:54
#0555a:64
#05256:1425
#05252:54
#05052:14
#05059:0025
#05056:54
#04252:33
#04257:53
#0405b:43
#04056:63
#03858:13
#03855:13
#00752:6612
#06452:16
#06455:0025
#0645a:64
#13357:00000053
#1365b:00000063
#12956:00000063
#1185a:14
#11856:64
#11054:14
#1105a:0024
#11058:54
#1095a:44
#10952:0024
#10956:64
#10852:34
#10855:0025
#1085a:64
#10752:3454
#1075a:00240000
#10756:54000024
#1065a:44
#10656:0025
#10652:54
#1055a:4464
#10552:00240000
#10556:64000024
#10456:34
#10455:0025
#1045a:64
#09552:16
#09558:16
#0785a:14
#06252:16
#06258:56
#04752:0012
#04756:63
#0475a:14
#04858:16
#04856:0025
#04852:54
#10252:14
#10256:54
#0705a:64
#07056:0054
#06952:54
#06956:0064
#06752:0054
#0675a:64
#06556:6454
#06352:0054
#0875c:0062
#08754:62
#12756:0064
#12759:52
#03156:0000006300000000
#03156:0000006300000000
#03157:0053000000000000
#03157:0053000000000000
#02358:0000005300000000
#02358:0000005300000000
#02355:0063000000000000
#02355:0063000000000000
#03057:53
#02856:63
#0265b:63
#02452:53
#02452:53
#11956:54
#14152:6c
#10352:0054
#05953:0000000000650000
#05754:0000000000640000
#05452:54
#05456:0064
#0535a:64
#05356:0054
#0515a:0064
#05152:54
#04956:5464
#0755a:0000000000530000
#07359:0000000000530000
#04656:0014
#04652:14
#04552:53
#0455b:0063
#04457:0053
#0445b:63
#04356:0063
#04352:53
#04157:53
#04152:53
#0415b:0023
#04156:0023
#03956:63
#03952:0023
#03957:0023
#0395b:63
#03754:0053
#03759:0063
#00154:54
#00358:64
#001340:14
#001370:000000000000000000000000000000000000000000000000000000000000000000000000000000000000000000000000000000000000000000000000000000000000000000000000000000000000000000000000000000000000000000000000000000000000000000000000000000000000000000000000000000000000000000000000000000000000000000000000000000000000000000000000000000000000000000000000000000000000000000000000000000000000000000000000000000000000000000000000000000000000000000000000000000000000000000000000000000000000000000000000000000000000000000000000000000000000000000000000000000000000000000000000000000000000000000000000000000000000000000000000000000000000000000000000000000000000000000000000000000000000000000000000000000000000000000000000000000000000000000000000000000000000000000000000000000000000000000000000000000000000000000000000000000000000000000000000000000000000000000000000000000000000000000000000000000000000000000000000000000000000000000000000000000000000000000000000000000000000000000000052000000000000000000000000000000000000000000000000000000000000000000000000000000000000000000000000000000000000000000000000000000000000000000000000000000000000000000000000000000000000000000000000000000000000000000000000000000000000000000000000000000000000000000000000000000000000000000000000000000000000000000000000000000000000000000000000000000000000000000000000000000000000000000000000000000000000000000000000000000000000000000000000000000000000000000000000000000000000000000000000000000000000000000000000000000000000000000000000000000000000000000000000000000000000000000000000000000000000000000000000000000000000000000000000000000000000000000000000000000000000000000000000000000000000000000000000000000000000000000000000000000000000000000000000000000000000000000000000000000000000000000000000000000000000000000000000000000000000000000000000000000000000000000000000000000000000000000000000000000000000000000000000000000000000000000000000000000000000000000000000000000000000000000000000000000000000000000000000000000000000000000000000000000000000000000000000000000000000000000000000000000000000000000000000000000000000000000000000000000000000000000000000000000000000000000000000000000000000000000000000000000000000000000000000000000000000000000000000000000000000000000000000000000000000000000000000000000000000000000000000000000000000000000000000000000000000000000000000000000000000000000000000000000000000000000000000000000000000000000000000000000000000000000000000000000000000000000000000000000000000000000000000000000000000000000000000000000000000000000000000000000000000000000000000000000000000000000000000000000000000000000000000000000000000000000000000000000000000000000000000000000000000000000000000000000000000000000000000000000000000000000000000000000000000000000000000000000000000000000000000000000000000000000000000000000000000000000000000000000000000000000000000000000000000000000000000000000000000000000000000220000000000000000000000000000000000000000000000000000000000000000000000000000000000000000000000000000000000000000000000000000000000000000000000000000000000000000000000000000000000000000000000000000000000000000000000000000000000000000000000000000000000000000000000000000000000000000000000000000000000000000000000000000000000000000000000000000000000000000000000000000000000000000000000000000000000000000000000000000000000000000000000000000000000000000000000000000000000000000000000000000000000000000000000000000000000000000000000000000000000000000000000000000000000000000000000000000000000000000000000000000000000000000000000000000000000000000000000000000000000000000000000000000000000000000000000000000000000000000000000000000000000000000000000000000000000000000000000000000000000000000000000000000000000000000000000000000000000000000000000000000000000000000000000000000000000000000000000000000000000000000000000000000000000000000000000000000000000000000000000
#003380:14
#003370:000000000000000000000000000000000000000000000000000000000000000000000000000000000000000000000000000000000000000000000000000000000000000000000000000000000000000000000000000000000000000000000000000000000000000000000000000000000000000000000000000000000000000000000000000000000000000000000000000000000000000000000000000000000000000000000000000000000000000000000000000000000000000000000000000000000000000000000000000000000000000000000000000000000000000000000000000000000000000000000000000000000000000000000000000000000000000000000000000000000000000000000000000000000000000000000000000000000000000000000000000000000000000000000000000000000000000000000000000000000000000000000000000000000000000000000000000000000000000000000000000000000000000000000000000000000000000000000000000000000000000000000000000000000000000000000000000000000000000000000000000000000000000000000000000000000000000000000000000000000000000000000000000000000000000000000000000000000000000000000052000000000000000000000000000000000000000000000000000000000000000000000000000000000000000000000000000000000000000000000000000000000000000000000000000000000000000000000000000000000000000000000000000000000000000000000000000000000000000000000000000000000000000000000000000000000000000000000000000000000000000000000000000000000000000000000000000000000000000000000000000000000000000000000000000000000000000000000000000000000000000000000000000000000000000000000000000000000000000000000000000000000000000000000000000000000000000000000000000000000000000000000000000000000000000000000000000000000000000000000000000000000000000000000000000000000000000000000000000000000000000000000000000000000000000000000000000000000000000000000000000000000000000000000000000000000000000000000000000000000000000000000000000000000000000000000000000000000000000000000000000000000000000000000000000000000000000000000000000000000000000000000000000000000000000000000000000000000000000000000000000000000000000000000000000000000000000000000000000000000000000000000000000000000000000000000000000000000000000000000000000000000000000000000000000000000000000000000000000000000000000000000000000000000000000000000000000000000000000000000000000000000000000000000000000000000000000000000000000000000000000000000000000000000000000000000000000000000000000000000000000000000000000000000000000000000000000000000000000000000000000000000000000000000000000000000000000000000000000000000000000000000000000000000000000000000000000000000000000000000000000000000000000000000000000000000000000000000000000000000000000000000000000000000000000000000000000000000000000000000000000000000000000000000000000000000000000000000000000000000000000000000000000000000000000000000000000000000000000000000000000000000000000000000000000000000000000000000000000000000000000000000000000000000000000000000000000000000000000000000000000000000000000000000000000000000000000000000000000000000000220000000000000000000000000000000000000000000000000000000000000000000000000000000000000000000000000000000000000000000000000000000000000000000000000000000000000000000000000000000000000000000000000000000000000000000000000000000000000000000000000000000000000000000000000000000000000000000000000000000000000000000000000000000000000000000000000000000000000000000000000000000000000000000000000000000000000000000000000000000000000000000000000000000000000000000000000000000000000000000000000000000000000000000000000000000000000000000000000000000000000000000000000000000000000000000000000000000000000000000000000000000000000000000000000000000000000000000000000000000000000000000000000000000000000000000000000000000000000000000000000000000000000000000000000000000000000000000000000000000000000000000000000000000000000000000000000000000000000000000000000000000000000000000000000000000000000000000000000000000000000000000000000000000000000000000000000000000000000000000000
#004320:1323
#0043b1:0013
#0053b1:23
#005330:1323
#0053a1:0013
#0063a1:23
#006360:1424
#007320:1622
#0163b0:1323
#018320:1323
#020380:1323
#022350:1323
#023350:0013000000000000
#023320:0000002300000000
#023381:0000001300000000
#0233b1:0000000000230000
#024321:13
#024361:0023
#0263b1:13
#026371:0023
#028361:13
#028321:0023
#030371:13
#0303b1:0023
#031371:0013000000000000
#0313b1:0000002300000000
#031360:0000001300000000
#031320:0000000000230000
#0323b0:13
#0333b0:23
#033321:13
#034321:23
#0343a0:13
#0353a0:23
#035331:13
#036331:23
#036390:13
#037390:23
#037341:1333
#038351:23
#037390:0013
#038380:23
#039360:13
#039320:0053
#040360:53
#041320:33
#041360:0053
#042320:23
#0393b1:13
#039371:0053
#0403b1:23
#041371:13
#0413b1:0053
#042371:53
#0433b1:23
#043320:13
#043360:0033
#044320:23
#0443b1:13
#044371:0033
#0453b1:23
#045320:13
#045360:0023
#0453b1:0013
#046371:23
#047361:13
#047321:0022
#048321:14
#048361:0055
#049321:24
#049360:14
#0493a0:0024
#049361:0014
#050321:24
#050360:14
#050390:0055
#051360:24
#051321:14
#051361:0024
#0513a0:0014
#052360:24
#052321:14
#052361:0055
#053321:24
#0533a0:14
#053360:0034
#0543a0:24
#054321:14
#054361:0034
#055321:34
#055351:0023
#0553a0:14
#055380:0023
#056340:0014002400000000
#056340:00001424
#056340:0000000000000014
#057340:0024000000000000
#057340:00142400
#057340:0000000000140000
#058330:25
#058330:0015002500000000
#058330:00001525
#058330:0000000000000015
#059330:0025000000000000
#059330:00152500
#059330:0000000000150000
#060320:26
#060320:0016002600000000
#060320:00001626
#060320:0000000000000016
#061320:0026000000000000
#061320:00160026
#062380:16
#0623a0:0024
#062361:0014
#063341:24
#063380:14
#063360:0024
#063321:0014
#064321:26
#0643a0:14
#064350:0055
#0653a0:24
#065361:14
#065321:0024
#065360:0014
#0663a0:24
#066361:14
#066321:0055
#067361:24
#0673a0:14
#067360:0024
#067321:0014
#068361:24
#0683a0:14
#068350:0055
#0693a0:24
#069321:14
#069361:0034
#070321:24
#0703a0:14
#070360:0034
#0713a0:34
#071380:0023
#071321:14
#071351:0023
#072391:0013002300000000
#072391:00001323
#072391:0000000000000013
#073391:0023000000000000
#073391:00132300
#073391:0000000000130000
#0743a1:23
#0743a1:0013002300000000
#0743a1:00001323
#0743a1:0000000000000013
#0753a1:0023000000000000
#0753a1:00132300
#0753a1:0000000000130000
#0763b1:23
#0763b1:0013002300000000
#0763b1:00001323
#0763b1:0000000000000013
#0773b1:0023000000000000
#0773b1:00130023
#078321:1424
#078360:0014
#079380:24
#079341:14
#079361:0024
#0793a0:0014
#0803a0:24
#087340:12
#087320:0022
#0873c1:0012
#0873b1:0000000000000000000000000000000000320000000000000000000000000000
#0873a1:00000000000000000032000000000000
#087391:0000000000000000000000000000000000000032000000000000000000000000
#087381:0000000000000000000000000000000000000000323232323200000000000000
#088381:32
#0943b1:5300530053005300530053005300530053005300005300530053005300530053
#0943c1:0052005200520052005200520052005200520052000000000000000000000000
#094391:00000000000000000000555555555555
#095381:26
#088360:12
#094320:5352535253525352535253525352535253525352555355535553555355535553
#095320:26
#096350:0013000000000000
#096320:0000002300000000
#096320:0013
#096350:00000023
#096350:0000000000000013
#097320:0023000000000000
#097320:00130000
#097350:0023
#097350:0000000000130000
#098320:23
#098320:0013000000000000
#098360:0000002300000000
#098360:0013
#098320:00000023
#098320:0000000000000013
#099360:0023000000000000
#099360:00130000
#099320:0023
#099320:0000000000130000
#100360:24
#100360:0014000000000000
#100320:0000002400000000
#100320:0014
#100360:00000024
#100360:0000000000000014
#101320:0024000000000000
#101320:00140000
#101360:00000024
#102360:14
#1023a0:0024
#102321:0014
#103321:24
#1033a0:1424
#103321:0014
#104361:24
#1043a0:14
#104350:0055
#1053a0:24
#105361:1424
#105321:00540000
#1053a0:0014
#105360:00000054
#1063a0:24
#106321:14
#106361:0055
#107321:24
#107360:1424
#1073a0:00540000
#107321:0014
#107361:00000054
#108321:24
#1083a0:14
#108350:0055
#1093a0:24
#109361:14
#109321:0054
#110341:24
#110380:14
#1103a0:0054
#111380:34
#1113b0:0023
#111341:14
#111321:0023
#112381:0013000000000000
#1123b1:0000002300000000
#1123b1:0013
#112381:00000023
#112381:0000000000000013
#1133b1:0023000000000000
#1133b1:00130000
#113381:0023
#113381:0000000000130000
#1143b1:23
#1143b1:0013000000000000
#114371:0000002300000000
#114371:0013
#1143b1:00000023
#1143b1:0000000000000013
#115371:0023000000000000
#115371:00130000
#1153b1:0023
#1153b1:0000000000130000
#116361:24
#116361:0014000000000000
#1163a1:0000002400000000
#1163a1:0014
#116361:00000024
#116361:0000000000000014
#1173a1:0024000000000000
#1173a1:00140000
#117361:00000024
#118361:14
#118321:0024
#119361:14
#1193a1:0024
#127391:12
#1273c1:0022
#127360:0014
#127350:0000000000000000000000000000000000340000000000000000000000000000
#127340:00000000000000000034000000000000
#127330:0000000000000000000000000000000000000034000000000000000000000000
#127320:0000000000000000000000000000000000000000343333333300000000000000
#128320:23
#129370:13230000
#129360:00000013
#130320:00230000
#1303b0:00001323
#131350:13230000
#131380:00001323
#132320:13230000
#1333b0:13230000
#133370:00000013
#1343b0:00230000
#134320:00001323
#135380:13230000
#135350:00001323
#1363b0:13230000
#1363b0:00000013
#141320:5c
#141370:0022
